#TITLE:Crazy;
#SUBTITLE:;
#ARTIST:Creo;
#TITLETRANSLIT:;
#SUBTITLETRANSLIT:;
#ARTISTTRANSLIT:;
#GENRE:;
#CREDIT:RxSteps;
#MUSIC:Crazy.ogg;
#BANNER:crazy.png;
#BACKGROUND:crazy-bg.png;
#CDTITLE:cdtitle.png;
#SAMPLESTART:30.027;
#SAMPLELENGTH:22.000;
#SELECTABLE:YES;
#OFFSET:1.973;
#BPMS:0.000=120.000;
#STOPS:;
#BGCHANGES:;
#FGCHANGES:;

//--------------- dance-single - RxSteps ----------------
#NOTES:
     dance-single:
     RxSteps:
     Beginner:
     4:
     0,0,0,0,0:
0000
0000
0000
0000
,
1000
0000
0000
0000
0000
0000
0000
0000
0000
0000
0010
0000
0000
0100
0000
0000
,
0010
0000
0000
0000
0000
0000
0000
0000
0000
0000
1000
0000
0000
0001
0000
0000
,
0100
0000
0000
0000
0000
0000
0000
0000
0000
0000
0001
0000
0000
1000
0000
0000
,
0001
0000
0000
0000
0000
0100
0000
0000
,
0100
0000
0000
0000
0000
0000
0000
0000
0000
0000
0001
0000
0000
1000
0000
0000
,
0100
0000
0000
0000
0000
0000
0000
0000
0000
0000
0100
0000
0000
1000
0000
0000
,
0010
0000
0000
0000
0000
0000
0000
0000
0000
0000
0010
0000
0000
0100
0000
0000
,
0001
0000
0100
0001
0100
0001
0100
0000
,
0010
1000
0001
0010
,
0100
1000
1000
0001
,
0100
0010
0010
1000
,
0001
0100
0010
1000
,
1000
0001
0100
0010
,
0010
1000
0001
0100
,
0100
0001
1000
0001
,
1000
0010
1000
0010
1000
0000
0000
0000
,
1001
0000
0000
0000
0000
0000
0000
0000
0000
0000
1000
0000
0000
0001
0000
0000
,
0100
0000
0000
0000
0000
0000
0010
0000
0000
0000
0100
0000
0000
0001
0000
0000
,
1000
0000
0000
0000
0000
0000
0000
0000
0000
0000
0010
0000
0000
1000
0000
0000
,
0100
1000
0001
0000
,
0110
0000
0000
0000
0000
0000
0000
0000
0000
0000
0001
0000
0000
1000
0000
0000
,
0010
0000
0000
0000
0000
0000
0100
0000
0000
0000
0010
0000
0000
0100
0000
0000
,
0001
0000
0000
0000
0000
0000
0000
0000
0000
0000
1000
0000
0000
0010
0000
0000
,
0100
0000
0000
0000
0100
0001
0100
0001
,
0100
0010
1000
1000
,
0001
0010
0100
1000
,
0010
0010
0100
0001
,
1000
0100
0100
0000
,
0101
0000
0001
0100
,
0010
0010
1000
0001
,
0100
0100
0010
1000
,
0100
0010
0001
0010
,
0100
0000
0000
0000
1000
0000
0000
0000
0000
0000
0001
0000
0000
0100
0000
0000
,
0001
0000
0000
0000
0100
0000
0000
0000
0000
0000
0010
0000
0000
1000
0000
0000
,
0001
0000
0000
0000
0001
0000
0000
0000
0000
0000
0100
0000
0000
0010
0000
0000
,
0100
0000
0001
0000
0000
1000
0000
0000
,
1000
0000
0000
0000
0010
0000
0000
0000
0000
0000
0100
0000
0000
0001
0000
0000
,
0100
0000
0000
0000
0000
0000
0000
0000
0000
0000
0001
0000
0000
1000
0000
0000
,
0010
0000
0000
0000
0100
0000
0000
0000
0000
0000
0001
0000
0000
1000
0000
0000
,
0100
0000
0100
0000
0000
1000
0000
0000
,
0001
0100
0001
0010
,
0100
0100
1000
0001
,
0100
0010
1000
0001
,
0100
0010
0010
0000
,
1000
0010
0100
0001
,
0100
0000
0010
0200
0000
0000
0300
0000
,
0002
0000
0000
0000
0003
0000
0100
0002
,
0000
0003
0000
2000
0000
3000
0000
0020
,
0000
0000
0000
0000
,
0030
0000
0000
2000
0000
0000
3000
0000
,
0002
0000
0003
0000
0100
0000
0000
0010
,
0000
1000
0000
2000
,
0000
0000
0000
0000
,
3000
0000
0002
0003
,
0200
0000
0300
0002
0000
0003
1000
0010
,
0000
0000
0000
1000
0000
0000
0000
0002
,
0000
0000
0000
0000
,
0003
0000
0000
0200
0000
0000
0000
0000
,
0000
0000
0000
0000
,
0300
0000
0001
0001
,
1000
0000
0000
0000
0001
0000
0000
0000
0000
0000
0100
0000
0000
0010
0000
0000
,
1000
0000
0000
0000
1000
0000
0000
0000
0000
0000
0001
0000
0000
0010
0000
0000
,
0001
0000
0000
0000
1000
0000
0000
0000
0000
0000
0010
0000
0000
0100
0000
0000
,
0010
0000
0000
0000
0010
0000
0000
0000
0000
0000
0100
0000
0000
0001
0000
0000
,
1000
0100
0010
0001
,
0010
0100
1000
0010
,
0100
0000
0001
0000
1000
0000
0010
0100
,
0010
0100
0010
0100
0010
0000
0000
0000
,
1001
0000
0000
0000
0000
0000
0000
0000
0001
0000
0100
0000
0000
0001
0000
0000
,
0100
0000
0000
0000
0010
0000
0100
0000
0000
0010
0000
0000
1000
0000
0010
0000
,
2000
3001
0001
0100
,
0010
0100
0001
0000
,
1010
0000
0000
0000
0000
0000
0000
0000
1000
0000
0001
0000
0000
0100
0000
0000
,
0001
0000
0000
0100
0000
0000
0010
0000
0000
0100
0000
0000
0002
0000
0000
0000
,
1003
0001
0100
0010
,
0010
1000
0010
0000
,
1001
0000
0000
0000
0000
0000
0000
0000
0001
0000
0100
0000
0000
0010
0000
0000
,
0010
0000
0000
0000
1000
0000
0010
0000
0000
1000
0000
0000
0010
0000
0000
0000
,
0200
0301
0100
0010
,
1000
1000
0001
0000
,
1100
0000
0000
0000
0000
0000
0000
0000
1000
0000
0001
0000
0000
0100
0000
0000
,
0100
0000
0000
0001
0000
0000
0001
0000
0000
1000
0000
0000
0020
0000
0000
0000
,
1030
0001
0100
0001
,
0010
0100
1000
0000
,
1001
0000
0000
0000
0000
0000
0000
0000
0000
0000
0001
0000
0000
1000
0000
0000
,
0010
0000
0000
0000
0000
0000
0100
0000
0000
0000
0010
0000
0000
1000
0000
0000
,
0001
0000
0000
0000
0000
0000
0000
0000
0000
0000
0100
0000
0000
0001
0000
0000
,
0010
0001
1000
0000
,
0110
0000
0000
0000
0000
0000
0000
0000
0000
0000
1000
0000
0000
0001
0000
0000
,
0100
0000
0000
0000
0000
0000
0010
0000
0000
0000
0100
0000
0000
0010
0000
0000
,
1000
0000
0000
0000
0000
0000
0000
0000
0000
0000
0001
0000
0000
0100
0000
0000
,
0010
0000
0000
0000
0010
1000
0010
1000
,
0010
0100
0001
0001
,
1000
0100
0010
0001
,
0100
0100
0010
1000
,
0001
0010
0010
0000
,
1010
0000
1000
0010
,
0100
0100
0001
1000
,
0010
0010
0100
0001
,
0010
0100
1000
0001
,
0100
0001
1000
0100
,
0010
0001
0001
1000
,
0010
0100
0100
0001
,
1000
0010
0100
0001
,
0001
1000
0010
0100
,
0100
0001
1000
0010
,
0010
0000
0000
0000
1000
0000
0000
0000
0000
0000
0010
0000
0000
0100
0000
0000
,
0001
0000
0100
0000
0000
0010
1000
0000
;

//--------------- dance-single - RxSteps ----------------
#NOTES:
     dance-single:
     RxSteps:
     Easy:
     6:
     0,0,0,0,0:
0000
0000
0000
0000
,
0001
0000
0000
0000
1000
0000
0000
0000
0010
0000
0100
0000
0000
0010
0000
0000
,
0100
0000
0000
0000
0001
0000
0000
0000
1000
0000
0010
0000
0000
1000
0000
0000
,
0001
0000
0000
0000
0100
0000
0000
0000
0001
0000
0010
0000
0000
0001
0000
0000
,
0100
0000
0001
0000
0100
0010
0000
0000
,
0010
0000
0000
0000
1000
0000
0000
0000
0010
0000
1000
0000
0000
0010
0000
0000
,
1000
0000
0000
0000
0010
0000
0000
0000
0100
0000
0001
0000
0000
0100
0000
0000
,
0010
0000
0000
0000
1000
0000
0000
0000
0100
0000
1000
0000
0000
0100
0000
0000
,
1000
0000
0001
0100
0010
0100
0001
0000
,
1100
0000
0000
0000
1000
0000
0001
0000
1000
0000
0010
0000
0000
0100
0000
0000
,
0001
0000
1000
0000
0100
0000
1000
0000
0001
0000
0100
0000
0000
0010
0000
0000
,
0100
0000
0001
0000
1000
0000
0010
0000
0100
0000
0001
0000
0000
0100
0000
0000
,
0010
1000
0010
0100
0001
1000
0001
1000
,
0001
0000
0100
0000
0010
0000
0100
0000
0001
0000
0010
0000
0000
0001
0000
0000
,
1000
0000
0001
0000
0010
0000
0001
0000
1000
0000
0001
0000
0000
0100
0000
0000
,
0010
0000
1000
0000
0001
0000
0100
0000
0001
0000
1000
0000
0000
0001
0000
0000
,
1000
0001
0100
0010
0100
0001
1000
0000
,
0101
0000
0000
0000
0001
0000
0100
0000
0001
0000
1000
0000
0000
0010
0000
0000
,
0100
0000
0000
0000
0100
0000
0001
0000
0010
0000
0001
0000
0000
0010
0000
0000
,
0100
0000
1000
0000
0200
0000
0000
0000
0310
0000
0001
0000
0000
0010
0000
0000
,
0010
0100
1000
0010
0100
0001
1000
0000
,
1100
0000
0000
0000
1000
0000
0100
0000
1000
0000
0100
0000
0000
0010
0000
0000
,
0001
0000
0000
0000
0100
0000
0010
0000
0100
0000
0001
0000
0000
1000
0000
0000
,
0010
0000
0100
0000
0002
0000
0000
0000
0013
0000
0100
0000
0000
1000
0000
0000
,
0001
0100
0010
1000
0010
0100
0001
1000
,
0001
0100
0010
1000
0001
0100
0010
1000
,
0001
0010
0200
1000
0310
0001
1000
0000
,
0100
1000
0100
0010
0001
0100
0010
1000
,
0001
1000
0010
0100
0001
1000
0010
0000
,
0101
0000
0001
1000
0001
0100
0010
1000
,
0001
0010
0001
0100
0010
0100
0001
1000
,
0001
0100
0001
1000
0010
0100
0001
0100
,
0010
1000
0001
0100
0020
0030
1000
0010
,
0200
0000
0300
0000
0001
0000
0100
0000
0010
0000
1000
0000
0000
0001
0000
0000
,
0010
0000
0100
0000
1000
0000
0010
0000
0100
0000
0001
0000
0000
0001
0000
0000
,
0100
0000
0010
0000
1000
0000
0001
0000
0100
0000
0001
0000
0000
0010
0000
0000
,
0100
1000
0001
0010
0100
1000
0100
1000
,
0001
0000
0100
0000
0010
0000
1000
0000
0010
0000
0200
0000
0000
0001
0000
0300
,
0001
0000
1000
0000
0100
0000
0010
0000
0100
0000
1000
0000
0000
0001
0000
0000
,
0010
0000
0100
0000
1000
0000
0001
0000
0100
0000
0010
0000
0000
1000
0000
0000
,
0010
0100
0010
1000
0001
0100
0010
1000
,
0001
0000
0001
0100
0010
0000
0010
1000
,
0100
0100
1000
1000
,
0001
0000
0100
0010
0100
0000
0001
0100
,
0010
0000
0010
0100
0002
0000
0000
0000
,
1003
0010
0100
0001
1000
0001
1000
0010
,
1000
0001
0100
0020
0030
0100
0001
2000
,
0000
0000
0000
3200
0000
0000
0310
0100
,
0020
0000
0000
0000
0000
0000
0130
0000
0000
0000
0000
0000
0000
1000
0000
0000
,
0001
0000
1000
0010
1000
0000
0001
0100
,
0001
0000
0100
0020
0030
1000
0010
0200
,
0000
0000
0300
0000
0002
0000
0023
0000
0000
0030
0000
0000
0001
0000
2000
0000
,
0000
3000
0000
0000
0001
0000
0010
0000
0000
0000
0001
0000
0100
0000
0010
0000
,
1000
0000
1000
0100
2000
3000
0001
0010
,
0100
0000
1000
0020
0030
0100
0001
2000
,
0000
0000
0000
3020
0000
0000
0130
0010
,
0200
0000
0000
0000
0000
0000
0302
0000
0000
0000
0000
0000
0003
2000
0000
0000
,
3010
0000
1000
0100
0010
0000
0010
0001
,
0100
0000
0001
2000
3000
0100
0010
0100
,
1000
0000
1000
0001
0100
0000
0100
0010
,
0100
0001
1000
0010
1000
0001
1000
0000
,
0101
0000
0000
0000
0001
0000
0100
0000
0010
0000
1000
0000
0000
0010
0000
0000
,
0100
0000
0010
0000
0100
0000
0001
0000
1000
0000
0010
0000
0000
0100
0000
0000
,
0001
0000
0010
0000
0001
0000
1000
0000
0100
0000
0010
0000
0000
0001
0000
0000
,
0010
0000
0001
0000
1000
0000
0010
0000
1000
0000
0001
0000
0000
0010
0000
0000
,
0001
0000
1000
0000
0001
0000
0100
0000
0001
0000
1000
0000
0000
0010
0000
0000
,
0100
0000
0010
0000
1000
0000
0001
0000
0100
0000
0010
0000
1000
0000
0000
0001
,
0000
1000
0100
0010
0001
0010
0100
1000
,
0100
0010
0001
0100
0010
1000
0001
0000
,
1100
0000
0000
0000
1000
0000
0001
0000
0100
0000
0020
0000
0000
0100
0000
0000
,
1030
0000
0000
0000
0001
0000
0100
0000
0000
0001
0000
0000
1000
0000
0001
0000
,
0200
0000
0300
0000
0010
0000
0100
0000
0001
0000
0100
0000
0000
0010
0000
0000
,
1000
0010
0100
0010
1000
0001
0100
0000
,
1100
0000
0000
0000
1000
0000
0001
0000
1000
0000
0100
0000
0000
0010
0000
0000
,
0001
0000
0000
0100
0000
0000
0010
0000
0000
0010
0000
0000
1000
0000
0001
0000
,
0010
0000
0001
0000
2000
0000
0000
3000
0010
0000
1000
0000
0000
0010
0000
0000
,
0100
0001
0100
0010
1000
0010
0100
0000
,
1001
0000
0000
0000
0001
0000
0000
0000
2000
0000
0010
0000
0000
0010
0000
0000
,
3002
0000
0000
0000
0103
0000
0001
0000
0000
1000
0000
0000
0100
0000
0010
0000
,
0002
0000
0003
0000
0100
0000
0001
0000
1000
0000
0010
0000
0000
2000
0000
3000
,
0010
0100
0001
0010
0001
1000
0001
0000
,
0201
0000
0000
0000
0310
0000
0000
0000
0001
0000
1000
0000
0000
0010
0000
0000
,
1000
0000
0000
0001
0000
0000
0001
0000
0000
0100
0000
0000
0010
0000
0100
0000
,
0010
0000
1000
0000
0002
0000
0000
0000
1003
0000
0001
0000
0000
0100
0000
0000
,
0010
1000
0010
0100
0001
1000
0010
0000
,
1010
0000
0000
0000
1000
0000
0001
0000
0100
0000
0001
0000
0000
0100
0000
0000
,
0010
0000
1000
0000
0010
0000
0100
0000
0001
0000
0010
0000
0000
0100
0000
0000
,
0100
0000
1000
0000
0020
0000
0000
0030
0100
0000
0010
0000
0000
1000
0000
0000
,
0100
0010
0001
1000
0100
0010
0001
0000
,
0011
0000
0000
0000
0001
0000
0010
0000
0100
0000
1000
0000
0000
0010
0000
0000
,
0100
0000
0000
0000
0100
0000
0010
0000
1000
0000
0100
0000
0000
0010
0000
0000
,
0001
0000
0000
0000
0001
0000
1000
0000
0010
0000
0100
0000
0000
0010
0000
0000
,
1000
0010
0100
0001
1000
0010
0100
0001
,
1000
0100
0010
0001
1000
0010
0100
0001
,
1000
0100
0010
0100
1000
0100
1000
0000
,
1000
0001
0010
0100
1000
0010
0100
0001
,
1000
0010
0100
0001
0010
0100
1000
0000
,
1010
0000
1000
0001
1000
0010
0100
0001
,
0100
0000
0100
0010
1000
0100
0010
0001
,
0010
0000
0010
0001
0100
0010
1000
0010
,
0100
0001
1000
0010
0200
0300
0010
0000
,
1001
0000
0000
0000
0001
0000
1000
0000
0001
0000
0100
0000
0000
0010
0000
0000
,
1000
0000
0001
0000
0010
0000
0001
0000
1000
0000
0010
0000
0000
0100
0000
0000
,
0010
0000
1000
0000
0001
0000
0100
0000
0010
0000
1000
0000
0000
0010
0000
0000
,
0100
0001
0100
0010
1000
0001
1000
0001
,
1000
0000
0010
0000
0100
0000
0010
0000
1000
0000
0100
0000
0000
1000
0000
0000
,
0001
0000
1000
0000
0100
0000
1000
0000
0001
0000
1000
0000
0000
0010
0000
0000
,
0100
0000
0001
0000
1000
0000
0010
0000
1000
0000
0001
0000
0000
1000
0000
0000
,
0001
1000
0010
0100
0010
1000
0100
0000
;

//--------------- dance-single - RxSteps ----------------
#NOTES:
     dance-single:
     RxSteps:
     Medium:
     8:
     0,0,0,0,0:
0000
0000
0000
0000
,
1000
0000
0000
0000
0010
0000
0000
0000
0100
0000
0010
0000
0000
1000
0000
0000
,
0100
0000
0000
0000
0010
0000
0000
0000
0001
0000
0100
0000
0000
0010
0000
0000
,
1000
0000
0000
0000
0100
0000
0000
0000
1000
0000
0100
0000
0000
0010
0000
0000
,
0100
0000
1000
0000
0010
0100
0000
0000
,
0100
0000
0000
0000
0001
0000
0000
0000
0010
0000
0100
0000
0000
1000
0000
0000
,
0001
0000
0000
0000
0100
0000
0000
0000
0010
0000
1000
0000
0000
0001
0000
0000
,
0100
0000
0000
0000
0001
0000
0000
0000
0010
0000
0001
0000
0000
0100
0000
0000
,
0010
0000
1000
0010
0100
0010
1000
0000
,
0021
0000
0000
0000
0130
0000
1000
0000
0001
0000
0020
0000
0000
0100
0000
0000
,
0031
0000
1000
0000
0010
0000
0100
0000
0001
0000
0010
0000
0000
0100
0000
0000
,
0010
0000
0001
0000
1000
0000
0010
0000
0100
0000
0002
0000
0000
0100
0000
0000
,
1003
0001
0010
0100
1000
0001
1000
0100
,
1000
0000
0010
0000
0100
0000
0010
0000
1000
0000
0100
0000
0000
1000
0000
0000
,
0001
0000
0010
0000
0100
0000
0010
0000
0001
0000
1000
0000
0000
0010
0000
0000
,
0100
0000
0001
0000
1000
0000
0010
0000
1000
0000
0100
0000
0000
0010
0000
0000
,
0001
0000
1000
0000
0010
0000
0100
0010
0000
0000
0100
0000
0001
0000
0000
0000
,
1020
0000
0000
0000
0130
0000
0010
0000
1000
0000
0010
0000
0000
0101
0000
0000
,
1200
0000
0000
0000
0310
0000
0000
0000
1001
0000
0001
0000
0000
0100
0000
0000
,
0100
0000
0001
0000
0020
0000
0000
0000
0130
0000
1000
0000
0000
0001
0000
0000
,
0100
0010
1000
0010
0100
0010
1000
0000
,
0021
0000
0000
0000
0130
0000
0010
0000
0001
0000
0010
0000
0000
1010
0000
0000
,
0021
0000
0000
0000
0130
0000
0000
0000
1001
0000
1000
0000
0000
0010
0000
0000
,
0100
0000
0010
0000
2000
0000
0000
0000
3100
0000
0010
0000
0000
0001
0000
0000
,
1000
0010
0100
0001
0100
0010
1000
0001
,
1000
0100
0010
0001
1000
0010
0100
0001
,
1000
0100
0020
0001
0130
1000
0001
0010
,
0011
0001
0010
0100
1000
0010
0100
0001
,
1000
0001
0100
0010
1000
0001
0100
0000
,
1010
0010
0100
0001
1000
0010
0100
0001
,
1000
0200
0010
1300
0001
0100
0010
1000
,
1010
0010
1000
0001
0100
0010
1000
0010
,
0100
0001
1000
0010
0200
0300
0001
0100
,
0020
0000
0030
0000
1000
0000
0010
0000
0100
0000
0001
0000
0000
1000
0000
0000
,
0010
0000
0100
0000
0001
0000
0020
0000
0100
0000
0031
0000
0000
1000
0000
0000
,
0010
0000
0100
0000
0001
0000
1000
0000
0010
0000
1000
0000
0000
0100
0000
0000
,
0010
0001
1000
0100
0010
0001
0010
0001
,
1000
0000
0010
0000
0100
0000
0001
0000
0100
0000
0020
0000
0000
1000
0000
0030
,
1000
0000
0001
0000
0010
0000
0100
0000
0010
0000
0001
0000
0000
1000
0000
0000
,
0100
0000
0010
0000
0001
0000
1000
0000
0010
0000
0100
0000
0000
0001
0000
0000
,
0100
0010
0100
0001
1000
0010
0100
0001
,
1000
0000
1000
0010
0100
0000
0100
0001
,
0010
0010
0001
0001
,
1000
0000
0010
0100
0010
0000
1000
0010
,
0100
0000
0100
0010
2000
0000
0000
0000
,
3001
0100
0010
1000
0001
0010
0100
0010
,
0001
0000
1000
0000
0010
0000
0100
0010
0100
0000
0010
0000
1000
0000
0002
0000
,
0000
0000
0000
0023
0000
0000
0130
1000
,
0020
0000
0000
0000
0000
0000
0230
0000
0000
0000
0000
0000
0000
0310
0000
0000
,
1000
0000
0001
0100
0001
0000
0010
0100
,
0010
0000
0000
0000
0001
0000
0100
0001
0100
0000
0001
0000
0100
0000
0020
0000
,
0000
0000
0030
0000
1000
0001
0100
0000
0000
0000
0000
0000
0001
0010
0200
0000
,
0000
0000
1300
0100
0000
1000
0010
0100
,
0001
0000
0001
0010
0002
0003
1000
0100
,
0010
0000
0000
0000
0001
0000
0100
0010
0100
0000
0010
0000
1000
0000
0002
0000
,
0000
0000
0000
0203
0000
0000
0310
1000
,
0200
0000
0000
0000
0000
0000
1300
0000
0000
0000
0000
0000
0000
0002
0000
0000
,
0103
0000
0001
0010
0100
0000
0100
1000
,
0010
0000
0000
0000
1000
0000
0001
1000
0001
0000
0010
0000
0100
0000
0010
0000
,
0001
1000
0100
1000
0010
1000
0001
0100
,
0010
1000
0001
0100
0001
1000
0001
0000
,
0110
0000
0000
0000
2001
0000
3100
0000
0010
0000
0001
0000
0000
0100
0000
0000
,
0010
0000
1000
0000
0100
0000
0010
0000
0001
0000
0100
0000
0000
0010
0000
0000
,
1000
0000
0100
0000
1000
0000
0001
0000
0020
0000
0100
0000
0000
0001
0000
0000
,
0130
0000
1000
0000
0010
0000
0100
0000
0002
0000
1000
0000
0000
0100
0000
0000
,
0013
0000
0001
0000
1000
0000
0010
0000
1000
0000
0001
0000
0000
0100
0000
0000
,
0010
0000
0100
0000
0001
0000
1000
0000
0010
0000
0200
0000
0001
0000
0000
0010
,
0000
0302
0013
0100
1000
0100
0010
0001
,
0010
0100
1000
0010
0100
0001
1000
0000
,
0021
0000
0000
0000
0130
0000
0010
0000
0001
0000
1010
0000
0000
0110
0000
0000
,
0011
0000
0000
0001
0010
0000
0001
0000
0000
1000
0000
0000
0001
0000
1000
0000
,
0001
0100
0001
0000
0100
0000
0010
0000
1000
0000
0010
0000
0000
0100
0000
0000
,
0001
0100
0010
0100
0001
1000
0010
0000
,
0021
0000
0000
0000
0130
0000
0010
0000
0001
0000
0010
0000
0000
0100
0000
0000
,
1000
0000
0000
0010
1000
0000
0001
0000
0000
1000
0000
0000
1000
0000
0001
0000
,
0100
0000
0010
0000
1000
0000
0001
0100
0001
0000
1000
0000
0000
0001
0000
0000
,
0010
0001
0010
0100
1000
0010
0100
0000
,
1200
0000
0000
0000
0320
0000
0000
0000
0031
0000
1010
0000
0000
0110
0000
0000
,
2001
0000
0000
0000
3010
0000
1000
0000
0000
0001
0000
0000
0010
0000
0100
0000
,
1000
0000
0010
1000
0010
0000
0100
0000
0001
0000
0010
0000
0000
0002
0000
0003
,
0100
0010
1000
0010
1000
0100
1000
0000
,
1020
0000
0000
0000
0130
0000
0000
0000
1000
0000
0001
0000
0000
0100
0000
0000
,
0001
0000
0000
0010
0000
0000
0100
0000
0000
0010
0000
0000
0001
0010
0001
0000
,
0010
0000
0100
0000
2000
0000
0000
0000
3100
0000
1000
0000
0000
0010
0000
0000
,
0100
0001
0100
0010
1000
0001
0100
0001
,
0201
0000
0000
0000
0310
0000
0100
0000
0001
0000
0100
0000
0000
1010
0000
0000
,
0021
0000
0000
0000
0130
0000
0000
0000
1001
0000
1000
0000
0000
0010
0000
0000
,
0010
0000
1000
0000
0100
0000
1000
0100
1000
0000
0001
0000
0000
1000
0000
0000
,
0010
0100
0001
1000
0010
1000
0001
0000
,
1200
0000
0000
0000
0310
0000
0100
0000
1000
0000
0100
0000
0000
0101
0000
0000
,
1200
0000
0000
0000
0310
0000
0000
0000
1001
0000
0001
0000
0000
0100
0000
0000
,
1010
0000
0010
0000
1000
0000
0001
0000
0100
0000
0010
0000
0000
0100
0000
0000
,
0001
0100
0010
1000
0001
0100
0010
1000
,
0001
0010
0100
1000
0001
0100
0010
1000
,
0001
0010
0200
1000
0310
0001
1000
0100
,
1100
1000
0100
0010
0001
0100
0010
1000
,
0001
0100
0010
1000
0100
0010
0001
0000
,
0101
0100
0001
1000
0001
0010
0100
1000
,
0001
0020
0100
0031
1000
0001
0100
0001
,
0101
0100
0001
1000
0010
0100
0001
0100
,
0010
0000
1000
0000
0001
0000
0100
0000
0020
0000
0030
0000
1000
0000
0000
0001
,
0100
0000
0000
0000
0100
0000
0001
0000
1000
0000
0200
0000
0000
0010
0000
0000
,
1300
0000
0100
0000
0010
0000
0001
0000
1000
0000
0100
0000
0000
1000
0000
0000
,
0001
0000
0100
0000
0001
0000
1000
0000
0010
0000
2000
0000
0000
0010
0000
0000
,
3001
1000
0100
0010
0001
1000
0001
0010
,
0001
0000
0100
0000
0010
0000
0100
0000
0001
0000
0010
0000
0000
0001
0000
0000
,
1000
0000
0001
0000
0100
0000
0001
0000
1000
0000
0010
0000
0000
0100
0000
0000
,
0001
0000
0100
0000
0010
0000
1000
0000
0001
0000
0010
0000
0000
0100
0000
0000
,
1000
0001
0100
0010
1000
0100
0010
0000
;

//--------------- dance-single - RxSteps ----------------
#NOTES:
     dance-single:
     RxSteps:
     Hard:
     9:
     0,0,0,0,0:
0000
0000
0000
0000
,
0001
0000
0000
0000
0100
0000
0000
0000
0010
0000
0100
0000
0000
0001
0000
0000
,
0010
0000
0000
0000
0100
0000
0000
0000
1000
0000
0010
0000
0000
0100
0000
0000
,
0001
0000
0000
0000
0010
0000
0000
0000
0001
0000
0010
0000
0000
0100
0000
0000
,
0010
0000
0001
0000
0100
0010
0000
0000
,
0010
0000
0000
0000
1000
0000
0000
0000
0100
0000
0010
0000
0000
0001
0000
0000
,
1000
0000
0000
0000
0010
0000
0000
0000
0100
0000
0001
0000
0000
0020
0000
0000
,
1030
0000
0000
0000
0001
0000
0000
0000
0100
0000
1000
0000
0000
0010
0000
0000
,
0100
0000
0001
0100
1000
0100
0001
0000
,
1200
0000
0000
0000
0310
0000
0001
0000
1000
0000
0200
0000
0000
0010
0000
0000
,
1300
0000
0001
0000
0100
0000
0010
0000
1000
0000
0100
0000
0000
0001
0000
0000
,
0100
0000
1000
0000
0001
0000
0100
0000
0010
0000
2000
0000
0000
0010
0000
0000
,
3001
1000
0100
0010
0001
1000
0001
0010
,
0001
0000
0100
0000
1000
0000
0100
0000
0001
0000
0010
0000
0000
0001
0000
0000
,
1000
0000
0100
0000
0001
0000
0100
0000
1000
0000
0020
0000
0000
0031
0000
0000
,
1000
0000
0100
0000
0010
0000
1000
0000
0001
0000
0010
0000
0000
0100
0000
0000
,
1000
0000
0001
0000
0100
0000
0010
0100
0000
0001
0010
0100
1000
0000
0000
0000
,
0201
0000
0000
0000
1300
0000
0100
0000
0001
0000
0100
0000
0000
1010
0000
0000
,
0021
0000
0000
0000
0130
0000
0000
0000
1001
0000
1000
0000
0000
0010
0000
0000
,
0010
0000
1000
0000
0200
0000
0000
0000
0310
0000
0001
0000
0000
1000
0000
0000
,
0010
0100
0001
0100
1000
0100
0001
0000
,
1200
0000
0000
0000
0301
0000
0100
0000
1000
0000
0100
0000
0000
0101
0000
0000
,
1200
0000
0000
0000
0310
0000
0000
0000
1001
0000
0001
0000
0000
0100
0000
0000
,
0010
0000
0100
0000
0002
0000
0000
0000
0013
0000
0100
0000
0000
1000
0000
0000
,
0001
0100
0010
1000
0200
0301
1000
0010
,
0001
0010
0100
1000
0001
0100
0010
1000
,
0001
0010
0200
1000
0310
0001
0100
0010
,
1100
1000
0100
0010
0001
0100
0010
1000
,
0200
0301
1000
0010
0100
1000
0001
0000
,
0101
1000
0010
0100
0001
0100
1000
0100
,
0001
0020
0100
0031
1000
0010
1000
0100
,
0101
0100
0001
1000
0010
0100
0001
0100
,
0010
0000
1000
0000
0001
0010
0100
1000
0200
0000
0300
0000
1000
0100
0010
0001
,
0020
0000
0030
0000
0001
0000
0100
0000
0010
0000
1000
0000
0000
0001
0000
0000
,
0100
0000
0010
0000
1000
0000
0200
0000
0010
0000
1300
0000
0000
0001
0000
0000
,
0100
0000
0010
0000
1000
0000
0001
0000
0100
0000
0001
0000
0000
0010
0000
0000
,
0100
1000
0100
0001
0100
1000
0100
1000
,
0001
0000
0200
0000
1300
0000
0001
0000
0010
0000
0200
0000
0000
0001
0000
0300
,
0001
0000
1000
0000
0100
0000
0010
0000
0100
0000
1000
0000
0000
0001
0000
0000
,
0010
0000
0100
0000
1000
0000
0001
0000
0100
0000
0010
0000
0000
1000
0000
0000
,
0010
0100
0010
1000
0100
0001
0100
1000
,
0001
0000
0001
0100
0010
0000
0010
1000
,
0100
0100
1000
1000
,
0001
0000
0100
0010
0100
0000
0001
0100
,
0010
0000
1000
0200
0302
0000
0000
0000
,
1003
0010
0100
1000
0001
0100
0010
0100
,
0001
0000
1000
0000
0100
0000
0010
0100
0010
0000
0100
0000
1000
0000
0002
0000
,
0000
0000
0000
0203
0000
0000
0310
1000
,
0200
0000
0000
0000
0000
0000
0302
0000
0000
0000
0000
0000
0000
0103
0000
0000
,
1000
0000
0001
0010
0001
0000
0100
0010
,
0100
0000
0000
0000
0001
0000
0010
0001
0010
0000
0001
0000
0010
0000
0200
0000
,
0000
0000
0300
0000
1000
0001
0010
0000
0000
0000
0000
0000
0001
0100
0020
0000
,
0000
0000
1030
0010
0000
1000
0100
0010
,
0001
0000
0001
0100
0002
0003
0200
1300
,
0100
0000
0000
0000
0001
0000
0010
0100
0010
0000
0100
0000
1000
0000
0002
0000
,
0000
0000
0000
0023
0000
0000
0130
1000
,
0020
0000
0000
0000
0000
0000
1030
0000
0000
0000
0000
0000
0000
0020
0000
0000
,
0032
0000
1003
0100
0010
0000
0010
1000
,
0100
0000
0000
0000
1000
0000
0001
1000
0001
0000
0100
0000
0010
0000
0100
0000
,
0001
1000
0010
1000
0100
1000
0001
0010
,
0100
1000
0100
0001
0100
1000
0001
0000
,
0110
0000
0000
0000
1002
0000
0013
0000
0100
0000
1000
0000
0000
0010
0000
0000
,
0100
0000
0001
0000
0010
0000
0100
0000
1000
0000
0010
0000
0000
0100
0000
0000
,
0001
0000
0010
0000
0001
0000
1000
0000
0200
0000
0010
0000
0000
1000
0000
0000
,
0310
0000
0001
0000
0100
0000
0010
0000
2000
0000
0001
0000
0000
0010
0000
0000
,
3100
0000
1000
0000
0100
0000
0001
0000
0100
0000
1000
0000
0000
0001
0000
0000
,
0100
0000
0010
0000
1000
0000
0001
0000
0100
0000
0020
0000
1000
0000
0000
0100
,
0000
0000
2030
0000
3100
0000
0010
0001
0010
0001
0010
0000
0100
1000
0100
1000
,
0100
0000
0010
0000
0001
0000
0100
0001
1000
0010
0100
0001
1000
0000
0000
0000
,
1200
0000
0000
0000
0301
0000
0100
0000
1000
0000
0101
0000
0000
0110
0000
0000
,
1100
0000
0000
0001
0200
0000
1300
0000
0000
0100
0000
0000
0010
0000
1000
0000
,
0100
0010
0001
0000
0100
0000
0010
0000
1000
0000
0200
0000
0000
0301
0000
0000
,
1000
0010
0001
0100
1000
0100
0001
0000
,
1200
0000
0000
0000
0301
0000
0100
0000
1000
0000
0100
0000
0000
0010
0000
0000
,
0001
0000
0000
0100
0010
0000
1000
0000
0000
0001
0000
0000
0100
0001
0100
0000
,
0010
0000
0100
0000
0001
0000
0100
0010
0100
0000
0001
0000
0000
1000
0000
0000
,
0100
1000
0100
0010
0001
0100
0010
0000
,
0021
0000
0000
0000
0230
0000
0000
0000
1300
0000
0101
0000
0000
0110
0000
0000
,
1001
0000
0000
0001
0100
0000
0010
0000
0000
1000
0000
0000
0100
0000
0010
0000
,
0001
0010
0100
0000
1000
0000
0100
0000
0001
0000
0100
0000
0000
2000
0000
3000
,
0010
0200
1300
0100
0001
0010
0001
0000
,
0101
0000
0000
0000
1000
0000
0200
0000
0301
0000
1000
0000
0000
0010
0000
0000
,
0001
0000
0000
0200
0000
0000
1300
0000
0000
0100
0000
0000
0001
0100
0001
0000
,
1000
0000
0020
0000
0002
0000
0030
0000
0013
0000
1000
0000
0000
0100
0000
0000
,
1000
0010
0100
0001
1000
0010
0100
0001
,
1020
0000
0000
0000
0031
0000
0010
0000
1000
0000
0010
0000
0000
0101
0000
0000
,
1200
0000
0000
0000
0310
0000
0000
0000
1001
0000
0001
0000
0000
0100
0000
0000
,
0100
0000
0001
0000
0010
0000
0001
0010
0001
0000
1000
0000
0000
0001
0000
0000
,
0100
0010
1000
0010
0001
0010
1000
0000
,
0021
0000
0000
0000
1030
0000
0010
0000
0001
0000
0010
0000
0000
1010
0000
0000
,
0021
0000
0000
0000
0130
0000
0000
0000
1001
0000
1000
0000
0000
0010
0000
0000
,
0102
0000
0103
0000
0001
1000
0001
1000
0001
0000
0100
0000
0000
0010
0000
0000
,
1000
0010
0100
0001
0020
1030
0001
0100
,
1000
0100
0010
0001
1000
0010
0100
0001
,
1000
0100
0020
0001
0130
1000
0010
0100
,
0011
0001
0010
0100
1000
0010
0100
0001
,
0020
1030
0001
0100
0010
0001
1000
0000
,
1010
0001
0100
0010
1000
0010
0001
0010
,
1000
0200
0010
1300
0001
0100
0001
0010
,
1010
0010
1000
0001
0100
0010
1000
0010
,
0100
0000
0001
0000
1000
0100
0010
0001
0020
0000
0030
0000
0001
0010
0100
1000
,
0200
0000
0300
0000
0100
0000
1000
0000
0001
0000
0020
0000
0000
0100
0000
0000
,
0031
0000
1000
0000
0010
0000
0100
0000
0001
0000
0010
0000
0000
1000
0000
0000
,
0010
0000
0001
0000
1000
0000
0010
0000
0100
0000
0002
0000
0000
0100
0000
0000
,
1003
0001
0010
0100
1000
0001
1000
0100
,
1000
0000
0010
0000
0001
0000
0010
0000
1000
0000
0100
0000
0000
1000
0000
0000
,
0001
0000
0010
0000
1000
0000
0010
0000
0001
0000
0200
0000
0000
1300
0000
0000
,
0001
0000
0010
0000
0100
0000
0001
0000
1000
0000
0100
0000
0000
0010
0000
0000
,
0001
1000
0010
0100
0001
0010
0100
0000
;
