#TITLE:Cold December Night;
#SUBTITLE:;
#ARTIST:Michael Buble;
#TITLETRANSLIT:;
#SUBTITLETRANSLIT:;
#ARTISTTRANSLIT:;
#GENRE:;
#CREDIT:RxSteps;
#MUSIC:Cold December Night.ogg;
#BANNER:Cold December Night.png;
#BACKGROUND:Cold December Night-bg.png;
#CDTITLE:cdtitle.png;
#SAMPLESTART:51.681;
#SAMPLELENGTH:25.956;
#SELECTABLE:YES;
#OFFSET:2.605;
#BPMS:0.000=84.000
,80.000=82.000
,84.000=83.000
,104.000=84.000
,144.000=83.000
,170.000=84.000
,196.000=83.000
,240.000=84.000
;
#STOPS:;
#BGCHANGES:;
#FGCHANGES:;

//--------------- dance-single - RxSteps ----------------
#NOTES:
     dance-single:
     RxSteps:
     Beginner:
     2:
     0,0,0,0,0:
0000
0000
0000
0000
,
0001
0000
0100
0000
,
0010
0000
2000
3000
,
1000
0000
0010
0000
,
0100
0000
0020
0030
,
0010
0000
1000
0000
,
0001
0000
0010
0000
,
0010
0000
0100
0000
,
0100
0000
1000
0000
,
0001
0000
1000
0000
,
0010
0000
0200
0300
,
0100
0000
0001
0000
,
1000
0000
0100
0000
,
1000
0000
0010
0000
,
0100
0000
0100
0000
,
0001
0000
0010
0000
,
0100
0000
0010
0000
,
0001
0000
1000
0000
,
0001
0000
0010
0000
,
0001
0000
1000
0000
,
0010
0000
0010
0000
,
0010
0000
1000
0000
,
0100
0000
0100
0000
,
0100
0000
1000
0000
,
0001
0000
0010
0000
,
0001
0000
0100
0000
,
0100
0000
0010
0000
,
1000
0000
0002
0003
,
0001
0000
0010
0000
,
0100
0000
1000
0000
,
1000
0000
0001
0000
,
1000
0000
0010
0000
,
0100
0000
0001
0000
,
1000
0000
0100
0000
,
1000
0000
0001
0000
,
0010
0000
0100
0000
,
1000
0000
0001
0000
,
0100
0000
0100
0000
,
0100
0000
0001
0000
,
1000
0000
1000
0000
,
1000
0000
0010
0000
,
0100
0000
0001
0000
,
1000
0000
0100
0000
,
0010
0000
0001
0000
,
0010
0000
0200
0300
,
0100
0000
0010
0000
,
0001
0000
1000
0000
,
0001
0000
0100
0000
,
0100
0000
0010
0000
,
0010
0000
1000
0000
,
0001
0000
0001
0000
,
0001
0000
0010
0000
,
0100
0000
0100
0000
,
0100
0000
1000
0000
,
0001
0000
0010
0000
,
0001
0000
0100
0000
,
0100
0000
0010
0000
,
1000
0000
0001
0000
,
1000
0000
0100
0000
,
1000
0000
0010
0000
,
0010
0000
1000
0000
,
0001
0000
0020
0030
,
0010
0000
0001
0000
,
1000
0000
0002
0003
,
0001
0000
0010
0000
,
0100
0000
1000
0000
,
0000
0000
0000
0000
0000
0002
0000
0000
0000
0000
0000
0000
,
0003
0000
0000
0000
;

//--------------- dance-single - RxSteps ----------------
#NOTES:
     dance-single:
     RxSteps:
     Easy:
     4:
     0,0,0,0,0:
0000
0000
0000
0000
,
1000
0000
0000
0010
0000
0000
1000
0000
,
0000
0100
0000
0000
0010
0000
0010
0000
,
0001
0000
0000
0010
0000
0000
0100
0000
,
0000
1000
0000
0000
0001
0000
0001
0000
,
0100
0000
0010
1000
,
0010
0000
0100
0001
,
0100
0000
0010
0010
,
1000
0000
0100
0010
,
0001
0000
0000
1000
0000
0000
0100
0000
,
0000
0010
0000
0000
0001
0000
1000
0000
,
0100
1000
0010
0000
,
0010
1000
0001
0000
,
0010
0010
0001
1000
,
0010
0000
0100
0001
,
1000
0100
0010
0001
,
1000
0001
1000
0000
,
0010
1000
0001
0100
,
0010
1000
0100
0010
,
0001
0001
1000
0010
,
0100
0100
0010
1000
,
0001
0001
0010
0100
,
0010
0001
1000
0001
,
0100
0010
0100
0001
,
0010
0010
0100
1000
,
0100
1000
0002
0003
,
1000
0000
0000
0100
0000
0000
1000
0000
,
0000
0010
0000
0000
0100
0000
0100
0000
,
0001
1000
0010
0000
,
1000
0010
0100
0000
,
0001
0001
0010
0000
,
0001
0100
0001
1000
,
0010
1000
0010
0100
,
0001
0010
0100
0000
,
1000
0001
0100
0010
,
0100
0001
0010
0000
,
0001
0001
1000
0100
,
0010
0010
0100
1000
,
0001
0001
0100
0010
,
0100
0001
1000
0001
,
0010
0100
0010
0001
,
0100
0100
0010
1000
,
0010
1000
0002
0003
,
1000
0000
0000
0010
0000
0000
1000
0000
,
0000
0100
0000
0000
0010
0000
0010
0000
,
0001
0000
1000
0010
,
1000
0000
0010
1000
,
0001
0000
0100
0001
,
0010
0001
0010
0100
,
1000
0001
0100
0010
,
1000
0100
0010
0001
,
0001
1000
0010
0100
,
0010
1000
0100
0010
,
0001
0001
0100
0001
,
0010
0010
0001
1000
,
0100
1000
0010
0100
,
0010
1000
0100
0010
,
0001
1000
0001
1000
,
0001
0100
0010
1000
,
0010
0100
0002
0003
,
1000
0000
0000
0100
0000
0000
0010
0000
,
0000
0001
0000
0000
1000
0000
0001
0000
,
1000
0000
0000
0010
0000
0000
0100
0000
,
0000
0010
0000
0000
1000
0000
0001
0000
,
0010
0000
0000
0100
0000
0000
1000
0000
,
0000
0000
0000
0010
0000
0000
0000
0000
0000
0000
0000
0000
0100
0000
0000
0000
0000
0000
0000
0000
0000
0000
0001
0000
,
0000
0000
0000
0000
0000
2000
0000
0000
0000
0000
0000
0000
,
3000
0000
0000
0000
;

//--------------- dance-single - RxSteps ----------------
#NOTES:
     dance-single:
     RxSteps:
     Medium:
     7:
     0,0,0,0,0:
0000
0000
0000
0000
,
1000
0000
0000
0001
0000
0000
0100
0000
0001
0100
0000
0000
0010
0000
0000
1000
0000
0010
1000
0000
0000
0001
0000
0000
,
0010
0000
0001
0010
0000
0000
0100
0000
0000
1000
0000
0000
0001
0000
1000
0010
0000
1000
0010
0000
0000
0100
0000
0000
,
0001
0000
0000
1000
0000
0000
0100
0000
0010
0001
0000
0000
0010
0000
0000
0001
0000
1000
0100
0000
0000
0010
0000
0000
,
0001
0000
0010
0001
0000
0000
1000
0000
0000
0010
0000
0000
1000
0000
0010
1000
0000
0010
1000
0000
0000
0001
0000
0000
,
1000
0100
0010
0001
0100
0010
2000
3000
,
0001
0010
0100
0010
0001
0100
0010
0100
,
0001
0010
0100
1000
0010
2000
0100
3000
,
0100
0000
0000
0010
0000
0000
0002
0000
0000
0003
0000
0000
0100
0000
0000
0001
0000
0000
1000
0000
0000
0000
0000
0010
,
0100
0000
0000
0001
0000
0000
1000
0000
0010
1000
0000
0000
0010
0000
0000
0100
0000
0001
0100
0000
0000
0010
0000
0000
,
1000
0000
0010
1000
0000
0000
0001
0000
0000
0010
0000
0000
0001
0000
1000
0100
0000
1000
0100
0000
0000
0010
0000
0000
,
0001
0010
0100
1000
0010
0100
0002
0003
,
1000
0000
0000
0100
0000
0000
0010
0000
0000
0001
0000
0000
0010
0000
0000
0100
0000
0000
2000
0000
0000
0010
0000
3000
,
0001
1000
0001
0010
0100
1000
0001
0100
,
0010
2000
0001
3000
0001
0010
0100
0010
,
0001
0000
0000
0010
0000
0000
0200
0000
0000
1000
0300
0000
0010
0000
0000
0001
0000
0000
1000
0000
0000
0001
0000
0000
,
0100
0010
1000
0010
0100
0001
0010
0100
,
0010
0000
0000
0001
0000
0000
0100
0000
0000
0020
0000
0000
1000
0000
0030
0000
0000
0000
1000
0000
0000
0010
0000
0000
,
0100
0000
0000
0001
0000
0000
0020
0000
0000
0100
0030
0000
0001
0000
0000
0000
0000
0000
1000
0000
0000
0000
0000
0000
,
0001
0100
0010
1000
0100
0010
0001
0100
,
0020
0030
1000
0100
0010
0100
1000
0010
,
0200
0300
0001
0010
0100
1000
0100
0010
,
0001
0000
1000
0001
0010
0001
1000
0002
,
0010
0003
0010
0100
1000
0010
1000
0002
,
0010
0000
0003
0000
0000
0010
0001
0000
0010
0001
0000
0010
0001
0000
0000
1000
0000
0000
0010
0000
0000
0100
0000
0000
,
0010
0000
0000
1000
0000
0010
0100
0000
0001
1000
0000
0010
0100
0000
0000
0000
0000
0000
0001
0000
0000
0000
0000
0000
,
1000
0000
0000
0001
0000
0000
0100
0000
0010
0100
0000
0000
0001
0000
0000
1000
0000
0010
1000
0000
0000
0001
0000
0000
,
0100
0000
0010
0100
0000
0000
0010
0000
0000
1000
0000
0000
0100
0000
1000
0100
0000
0010
0001
0000
0000
1000
0000
0000
,
0001
0010
0001
0100
0010
1000
0200
0300
,
1000
0001
0100
0010
1000
0001
0100
0010
,
1000
0010
0100
0001
1000
0200
0010
0300
,
0010
0002
1000
0003
1000
0100
0010
0001
,
0100
0001
1000
0100
0010
0100
1000
0010
,
0100
0010
1000
0100
0010
0001
0010
0100
,
1000
0100
1000
0100
0010
0002
0100
0003
,
0100
0001
1000
0010
0100
0001
0100
0010
,
1000
0010
0100
0001
0010
0100
1000
0010
,
0200
0300
0001
0010
0100
0010
0001
0100
,
0010
0000
1000
0001
0010
0100
1000
0020
,
0100
0030
0100
0001
1000
0010
1000
0100
,
0010
0000
0001
1000
0100
0010
0001
2000
,
0100
0000
3000
0000
0000
0100
1000
0000
0100
1000
0000
0100
1000
0000
0000
0001
0000
0000
0100
0000
0000
0001
0000
0000
,
1000
0000
0000
0010
0000
1000
0010
0000
0100
0001
0000
1000
0010
0000
0000
0000
0000
0000
0100
0000
0000
0000
0000
0000
,
0001
0000
0000
1000
0000
0000
0010
0000
0100
0001
0000
0000
1000
0000
0000
0100
0000
0010
0001
0000
0000
0010
0000
0000
,
0001
0000
1000
0100
0000
0000
0010
0000
0000
0001
0000
0000
1000
0000
0001
1000
0000
0001
1000
0000
0000
0001
0000
0100
,
0010
1000
0010
1000
0100
0010
0001
1000
,
0001
0200
0010
0300
0010
1000
0100
0010
,
0001
0200
0010
0300
0010
0100
0001
0010
,
0100
1000
0001
1000
0010
0100
0001
0010
,
0001
0200
0010
0300
0010
0100
0001
1000
,
0200
0000
0000
0000
0000
0000
0010
0000
0300
0000
0000
0000
1000
0000
0000
0000
0000
0000
0001
0000
0000
2000
0000
0000
,
0100
3000
0100
0010
0001
1000
0001
0020
,
0100
0000
0030
0000
0000
0000
0100
0000
0000
1000
0000
0000
0001
0000
0000
0100
0000
0000
0010
0000
0000
2000
0000
0000
,
0001
3000
0001
1000
0010
0100
0001
0020
,
0100
0000
0030
0000
0000
0100
1000
0000
0100
1000
0000
0100
1000
0000
0000
0001
0000
0000
0100
0000
0000
0010
0000
0000
,
0100
0000
0000
0001
0000
1000
0010
0000
0100
0001
0000
1000
0010
0000
0000
0100
0000
0000
0001
0000
0000
0020
0000
0000
,
0100
0030
0100
0010
0001
1000
0001
0010
,
0100
0010
0001
1000
0001
1000
0010
0200
,
0001
0000
0000
0300
0000
0000
0001
0000
0000
0010
0000
0000
0100
0000
0000
0020
0000
0000
0001
0030
0000
0100
0000
0000
,
1000
0100
0010
0000
0001
0000
0100
0000
,
0010
0000
0000
1000
0000
0000
0010
0000
0100
0001
0000
0000
0100
0000
0000
0010
0000
1000
0010
0000
0000
1000
0000
0000
,
0001
0000
0100
0001
0000
0000
0100
0000
0000
0010
0000
0000
1000
0000
0010
1000
0000
0010
1000
0000
0000
0010
0000
0000
,
0100
0001
0100
0010
1000
0100
0010
0001
,
1000
0020
0100
0030
0100
0001
0010
0100
,
1000
0020
0100
0030
0100
0010
1000
0001
,
0010
0000
0000
0001
0000
0000
1000
0000
0000
0000
0000
0000
0020
0000
0000
0000
0000
0000
0000
0000
0030
0000
0200
0000
,
0000
0000
0000
0000
0000
0000
0300
0000
0000
0000
0002
2000
0000
0000
0000
0000
0000
0000
0000
0000
0000
0000
0000
0000
,
3003
0000
0000
0000
;

//--------------- dance-single - RxSteps ----------------
#NOTES:
     dance-single:
     RxSteps:
     Hard:
     8:
     0,0,0,0,0:
0000
0000
0000
0000
,
1000
0000
0000
0001
0000
0000
0100
0000
0010
0100
0000
0000
0001
0000
0000
1000
0000
0010
1000
0000
0000
0100
0000
0000
,
0010
0000
0001
1000
0000
0000
0010
0000
0000
0100
0000
0000
0001
0000
1000
0010
0000
0100
0001
0000
0000
0010
0000
0000
,
0001
0000
0000
1000
0000
0000
0100
0000
0010
0001
0000
0000
1000
0000
0000
0010
0000
0100
0010
0000
0000
1000
0000
0000
,
0001
0000
0010
0100
0000
0000
1000
0000
0000
0100
0000
0000
0010
0000
0001
1000
0000
0010
0100
0000
0000
0001
0000
0000
,
1000
0000
0000
0100
0000
0000
0010
0000
0000
0001
0000
0000
0100
0000
0020
0000
0000
1000
0000
0000
0000
0030
0000
1000
,
0100
0000
0000
0010
0000
0000
0001
0000
0000
0200
0300
0000
1000
0000
0000
0100
0000
0000
0001
0000
0000
0010
0000
0000
,
0001
0000
1000
0010
0000
0100
0001
0000
0000
0010
0000
0000
0100
0000
1000
0000
0000
0010
0000
0000
0000
0100
0000
0001
,
0000
0100
0000
0010
0000
2000
0000
0000
3000
0000
0001
0000
0010
0000
0100
0000
0000
2000
0000
0000
0100
3000
0000
0100
,
0010
0000
0000
0001
0000
0000
0100
0000
0010
1000
0000
0000
0001
0000
0000
0010
0000
0100
1000
0000
0000
0010
0000
0000
,
0100
0000
0010
1000
0000
0000
0001
0000
0000
0010
0000
0000
0001
0000
1000
0100
0000
0010
0001
0000
0000
1000
0000
0000
,
0200
0300
0000
0001
0000
0000
0100
0000
0000
1000
0000
0000
0010
0000
0200
0000
0000
0001
0000
0000
0300
0000
0000
0001
,
0010
0000
0000
0100
0000
0000
1000
0000
0000
0001
0000
0000
0200
0300
0000
1000
0000
0000
0100
0000
0000
0001
0000
1000
,
0010
0000
0000
0100
0000
0000
0001
0000
0000
0010
0000
0000
0100
0000
2000
0000
0000
0010
3000
0000
0000
0010
0100
0000
,
0001
0000
2000
0000
0000
0100
0000
0000
3000
0000
0000
0100
0010
0000
0000
0001
0000
1000
0000
0000
0010
0000
0100
0000
,
0001
0000
0000
0010
0000
0000
0200
0000
0000
1000
0300
0000
0010
0000
0000
0001
0000
0000
1000
0000
0000
0010
0000
0000
,
0100
0000
0001
0000
0000
0000
1000
0000
0010
0000
0000
0000
0100
0000
0000
0001
0000
0000
0020
0030
0000
1000
0000
0000
,
0010
0000
0000
0001
0000
0000
0100
0000
0000
0020
0000
0000
1000
0000
0030
0000
0000
1000
0010
0000
0000
0100
0000
0000
,
0001
0000
0000
1000
0000
0000
0100
0000
0000
0020
0000
0001
0000
0000
0000
0000
0030
0000
0100
0000
0000
0000
1000
0000
,
0001
0000
0000
0100
0000
0000
0010
0000
0000
1000
0000
0000
0100
0000
0000
0010
0000
0000
0001
0000
0000
0100
0000
0020
,
0000
0000
0000
0030
0000
0000
1000
0000
0000
0200
0300
0000
0001
0000
0000
0100
0000
0000
1000
0000
0000
0010
0000
0000
,
0100
0000
0000
0000
0000
0010
1000
0000
0000
0001
0000
0100
0010
0000
0000
1000
0000
0000
0100
0000
0000
0010
0000
0002
,
0000
0000
0000
0003
0000
0000
1000
0000
0000
0200
0300
0000
0001
0000
0000
0100
0000
0000
1000
0000
0000
0001
0000
0100
,
0020
0000
0000
0030
0000
0000
1000
0000
0000
0020
0030
0000
0001
0000
0000
0010
0000
0000
1000
0000
0000
0200
0000
0000
,
0010
0000
0300
0000
0000
0010
0001
0000
1000
0100
0000
0010
0001
0000
0000
1000
0000
0000
0010
0000
0000
0100
0000
0000
,
0010
0000
0000
1000
0000
0001
0100
0000
0010
1000
0000
0001
0100
0000
0000
0000
0010
0000
0000
1000
0000
0010
0000
0000
,
0100
0000
0000
0001
0000
0000
0010
0000
0100
1000
0000
0000
0001
0000
0000
0100
0000
0010
0100
0000
0000
0001
0000
0000
,
0010
0000
0001
1000
0000
0000
0010
0000
0000
0100
0000
0000
0010
0000
1000
0001
0000
0100
0010
0000
0000
1000
0000
0000
,
0100
0000
0000
0010
0000
0000
0001
0000
0000
0100
0000
0000
0010
0000
2000
0000
0000
0100
0000
0000
3000
0000
0000
0100
,
0010
0000
0001
0000
0000
0100
0000
0000
0010
0000
0000
1000
0000
0000
0000
0001
0000
0020
0000
0000
0100
0000
0000
0030
,
0000
0000
0100
1000
0000
0001
0010
0000
0000
0001
0000
0000
1000
0000
0020
0000
0000
0100
0000
0000
0030
0000
0000
0000
,
0100
0000
0002
0000
0000
0010
0000
0003
0000
0000
0010
0000
0100
0000
1000
0000
0000
0001
0000
0000
0100
0000
0000
0010
,
1000
0000
0000
0001
0000
0000
1000
0000
0000
0200
0300
0000
0001
0000
0000
0100
0000
0000
1000
0000
0000
0010
0000
0000
,
0100
0000
0000
0010
0000
0000
1000
0000
0010
0000
0000
0100
0000
0000
0000
0001
0000
0000
0010
0000
0000
0100
0000
1000
,
0001
0000
0100
0010
0000
0000
1000
0000
0000
0010
0000
0100
0001
0000
0020
0000
0000
0100
0000
0000
0030
0000
0000
0100
,
0010
0000
0000
0001
0000
0000
1000
0000
0010
0000
0000
0100
0001
0000
0000
1000
0000
0000
0010
0000
0000
0100
0000
0001
,
1000
0000
0000
0010
0000
0000
0100
0000
0000
0001
0000
0000
0010
0000
0000
0100
0000
0000
1000
0000
0000
0010
0000
0200
,
0000
0000
0000
0300
0000
0000
0001
0000
0000
0020
0030
0000
1000
0000
0000
0010
0000
0000
0001
0000
0000
0100
0000
0000
,
0010
0000
0000
0000
0000
0100
0001
0000
0000
1000
0000
0010
0100
0000
0000
0001
0000
0000
0010
0000
0000
0100
0000
2000
,
0000
0000
0000
3000
0000
0000
0001
0000
0000
0020
0030
0000
1000
0000
0000
0010
0000
0000
0001
0000
0000
1000
0000
0010
,
0200
0000
0000
0300
0000
0000
0001
0000
0000
0200
0300
0000
1000
0000
0000
0100
0000
0000
0001
0000
0000
0020
0000
0000
,
0100
0000
0030
0000
0000
0100
1000
0000
0001
0010
0000
0100
1000
0000
0000
0001
0000
0000
0100
0000
0000
0010
0000
0000
,
0100
0000
0000
0001
0000
1000
0010
0000
0100
0001
0000
1000
0010
0000
0000
0000
0100
0000
0000
0001
0000
1000
0000
0000
,
0010
0000
0000
1000
0000
0000
0100
0000
0010
0001
0000
0000
1000
0000
0000
0010
0000
0100
0010
0000
0000
1000
0000
0000
,
0100
0000
1000
0001
0000
0000
0100
0000
0000
0010
0000
0000
0100
0000
0001
1000
0000
0010
0100
0000
0000
0001
0000
1000
,
0010
0000
0000
0100
0000
0010
1000
0000
0000
0001
0000
0100
0010
0000
0000
1000
0000
0001
0010
0000
0000
0001
0000
0000
,
1000
0000
0000
0200
0000
0000
0010
0000
0000
0300
0000
0000
0010
0000
0000
0001
0000
1000
0100
0000
0000
0010
0000
0000
,
0001
0000
0000
0100
0000
0000
0010
0000
0000
0000
0000
1000
0010
0000
0000
0100
0000
0001
1000
0000
0000
0100
0000
0000
,
0010
0000
0000
0100
0000
0000
1000
0000
0000
0100
0000
0000
1000
0000
0010
0200
0000
0001
0000
0300
0000
0001
0000
0100
,
0010
0000
1000
0200
0000
0000
0010
0000
0000
0300
0000
0000
0010
0000
0000
0100
0000
1000
0000
0000
0000
0001
0000
0100
,
0020
0000
0000
0000
0000
0000
1000
0000
0000
0030
0000
0000
0100
0000
0000
0000
0000
0000
0001
0000
0000
1000
0000
0200
,
0010
0000
0300
0000
0000
0010
0100
0000
0000
1000
0000
0010
0100
0000
0000
0001
0000
0000
0010
0000
0000
0100
0000
2000
,
0000
0000
0000
3000
0000
0000
0001
0000
0000
0020
0030
0000
1000
0000
0000
0010
0000
0000
0001
0000
0000
1000
0000
0010
,
0200
0000
0000
0300
0000
0000
0001
0000
0000
0200
0300
0000
1000
0000
0000
0100
0000
0000
0001
0000
0000
0020
0000
0000
,
0100
0000
0030
0000
0000
0100
1000
0000
0001
0010
0000
0100
1000
0000
0000
0001
0000
0000
0100
0000
0000
0010
0000
0000
,
0100
0000
0000
0001
0000
1000
0010
0000
0100
0001
0000
1000
0010
0000
0000
0100
0000
0000
0001
0000
0000
1000
0020
0000
,
0100
0000
0030
0000
0000
0100
0010
0000
1000
0000
0000
0000
0100
0000
0000
0010
0000
0000
0001
0000
0000
1000
0000
0000
,
0010
0000
0000
0100
0000
0000
0001
0000
0000
1000
0000
0010
0100
0000
0000
0001
0000
0000
0010
0000
0000
0100
0000
2000
,
0000
0000
3000
0000
0000
0001
0010
0000
0000
0100
0000
1000
0200
0000
0000
0010
0300
0000
1000
0000
0000
0001
0000
0100
,
0000
0000
0010
0000
0000
0100
0001
0000
1000
0010
0000
0100
0001
0000
0000
0010
0000
0000
0100
0000
0000
1000
0000
0000
,
0001
0000
0000
1000
0000
0000
0100
0000
1000
0001
0000
0000
0010
0000
0000
0100
0000
0010
0001
0000
0000
0100
0000
0000
,
0010
0000
1000
0001
0000
0000
0010
0000
0000
0100
0000
0000
1000
0000
0001
0010
0000
0100
1000
0000
0000
0010
0000
0000
,
1000
0000
0000
0001
0000
0100
0001
0000
0000
1000
0000
0010
0100
0000
0000
0001
0000
1000
0100
0000
0000
1000
0000
0000
,
0001
0000
0000
0020
0000
0000
0100
0000
0000
0030
0000
0000
0100
0000
0000
1000
0000
0001
0010
0000
0000
0100
0000
0000
,
1000
0000
0000
0010
0000
0000
0100
0000
0000
0000
0000
0001
0100
0000
0000
0010
0000
1000
0001
0000
0000
0010
0000
0000
,
0100
0000
0000
0010
0000
0000
0001
0000
0000
0000
0000
1000
0000
0200
0000
0000
0000
0000
0000
0000
0300
0000
0020
0000
,
0000
0000
0000
0000
0000
0000
0030
0000
0000
0000
0002
2000
0000
0000
0000
0000
0000
0000
0000
0000
0000
0000
0000
0000
,
3003
0000
0000
0000
;
