#TITLE:CRAZY;
#SUBTITLE:;
#ARTIST:LE SSERAFIM;
#TITLETRANSLIT:;
#SUBTITLETRANSLIT:;
#ARTISTTRANSLIT:;
#GENRE:;
#CREDIT:RxSteps;
#MUSIC:CRAZY.ogg;
#BANNER:CRAZY.png;
#BACKGROUND:CRAZY-bg.png;
#CDTITLE:cdtitle.png;
#SAMPLESTART:77.812;
#SAMPLELENGTH:25.385;
#SELECTABLE:YES;
#OFFSET:1.573;
#BPMS:0.000=130.000;
#STOPS:;
#BGCHANGES:;
#FGCHANGES:;

//--------------- dance-single - RxSteps ----------------
#NOTES:
     dance-single:
     RxSteps:
     Beginner:
     4:
     0,0,0,0,0:
0000
0000
0000
0000
,
1000
0000
0000
0000
0000
0000
0001
0000
0000
0000
0000
0100
0000
0000
0000
0000
,
0000
0001
0000
0000
1000
0000
0000
0010
,
1000
0000
0000
0000
0000
0000
0001
0000
0000
0000
0000
0100
0000
0000
0000
0000
,
0001
0000
0100
0100
,
0001
0010
0100
0100
,
1000
0100
0010
0010
,
0001
1000
0001
0001
,
0100
0000
0010
0000
1000
0000
0000
0001
,
0100
0000
0000
0000
0000
0000
0100
0000
0000
0000
0000
0001
0000
0000
0000
0000
,
0000
1000
0000
0000
0010
0000
0000
0100
,
0010
0000
0000
1000
0000
0000
0000
0000
,
0001
0000
0100
0000
0010
0000
1000
0010
,
1000
0000
0000
0001
0100
0000
0000
0000
,
0000
0000
0010
0000
0000
0000
0000
0000
1000
0000
0000
0010
0000
0000
0100
0000
,
0010
0000
0000
1000
0000
0000
0000
0002
,
0000
0003
1000
1000
,
0010
0100
0001
1000
,
0100
0010
0001
1000
,
0001
1000
0001
0000
0100
0000
0010
0000
,
1000
1000
0001
0001
,
0100
0001
0010
0100
,
1000
0100
1000
1000
,
0001
0100
0020
0030
,
2000
3000
0001
0001
,
2002
0000
0000
3003
0000
0000
1000
0000
,
0010
0100
0001
0001
,
0100
0010
1000
0001
,
0001
0010
0001
0010
,
0100
0100
2000
3000
,
0001
1000
0010
0200
,
0300
0000
0001
0001
,
1000
0000
0010
0000
0100
0010
0100
0010
,
2000
0000
3002
0000
,
0203
0000
0320
0000
,
2030
0000
3002
0000
,
0203
0000
0300
0000
0001
0100
0001
1000
,
0010
0000
0000
0000
0000
0000
1000
0000
0010
0000
0000
1000
0000
0000
0000
0000
,
0000
0000
0001
0000
0000
0000
0000
0100
0000
0000
0000
0000
0000
0000
0010
0000
,
0100
0000
0000
0010
1000
0000
0000
0000
,
0002
0000
0003
0000
0100
0001
0100
0010
,
0100
0000
0000
0000
0000
0000
0001
0000
0000
0000
0000
1000
0000
0000
0000
0000
,
0000
0010
0000
0000
0100
0000
0000
0100
,
0010
0000
0000
0000
0000
0000
1000
0000
0000
0000
0000
0100
0000
0000
0000
0000
,
1000
0000
0000
0000
0000
0000
0000
0001
0000
0000
0000
0000
0000
0000
0001
0000
,
0100
0001
0010
0010
,
0100
1000
0100
0100
,
1000
0001
0100
0100
,
0010
0000
1000
0000
0001
0000
0000
0100
,
0001
0001
1000
0100
,
1000
1000
0001
0100
,
0010
0010
1000
0100
,
1000
0000
0001
0000
0010
0000
0000
0001
,
0010
0000
0001
0000
,
1000
1000
0010
0000
,
0100
0000
0001
0000
,
1000
0000
1000
0000
0100
0000
1000
0100
,
1000
0000
0001
1000
0001
0000
0100
0000
,
0100
0010
1000
0000
,
0001
0000
0100
0000
0010
0000
0010
0100
,
0010
0100
0010
0000
1000
0000
1000
0000
,
0220
0000
0000
0330
0000
0000
0001
0000
,
1000
0010
0100
0100
,
0001
1000
0100
1000
,
0001
0000
0100
0000
0010
0100
0010
0000
,
1000
0001
0010
0001
,
0001
1000
0001
0000
1000
0001
1000
0010
,
0000
0000
1000
0010
,
0100
0100
0001
1000
,
0020
0000
0230
0000
,
0302
0000
2003
0000
,
3020
0000
2030
0000
,
3001
0000
0000
0000
1000
0010
1000
0001
,
0100
0000
0000
0000
0000
0000
0001
0000
0100
0000
0000
0001
0000
0000
0000
0000
,
0000
0000
1000
0000
0000
0000
0000
0010
0000
0000
0000
0000
0000
0000
0100
0000
,
0010
0000
0000
0100
0001
0000
0000
0000
,
2000
0000
3000
0000
0010
1000
0010
0100
,
0010
0000
0000
0000
0000
0000
1000
0000
0000
0000
0000
0001
0000
0000
0000
0000
,
0000
0100
0000
0000
0010
0000
0000
0010
,
0100
0000
0000
0000
0000
0000
0001
0000
0000
0000
0000
0010
0000
0000
0000
0000
,
0001
0000
0000
0000
0000
0000
0000
1000
0000
0000
0000
0000
0000
0000
1000
0000
,
0010
1000
0100
0100
,
0010
0001
0010
0010
,
0001
1000
0010
0010
,
0100
0000
0001
0000
1000
0000
0000
0010
,
1000
1000
0001
0010
,
0001
0001
1000
0010
,
0100
0100
0001
0010
,
0001
0000
1000
0000
0100
0000
0000
0010
;

//--------------- dance-single - RxSteps ----------------
#NOTES:
     dance-single:
     RxSteps:
     Easy:
     6:
     0,0,0,0,0:
0000
0000
0000
0000
,
1000
0000
0000
0000
0000
0000
0001
0000
0010
0000
0000
0001
0000
0000
0000
0000
,
0000
0000
0100
0000
0010
0000
0000
0000
0100
0000
0000
0010
0000
0000
1000
0000
,
0001
1000
0010
0100
0001
1000
0010
0100
,
0002
0000
0003
0000
1000
0010
1000
0010
,
0100
0000
0100
0000
0001
0100
0001
0100
,
0001
0000
1000
0000
0010
0100
0010
0100
,
0010
0000
1000
0000
0001
1000
0001
1000
,
0001
0000
0100
0000
0010
0000
0000
1000
,
0100
0000
0000
0000
0000
0000
0100
0000
1000
0000
0000
0001
0000
0000
0000
0000
,
0000
0000
0100
0000
0010
0000
0000
0000
1000
0000
0000
0001
0000
0000
0100
0000
,
0020
0000
0000
0000
0030
0000
1000
0000
0001
0000
0000
0100
0000
0000
0000
0000
,
0002
0000
0000
0000
0103
0001
0100
0010
,
0100
0000
0000
0000
0001
0000
0100
0000
0000
0000
0000
0010
0000
0000
0000
0000
,
1000
0000
0010
0000
1000
0000
0000
0000
0001
0000
0000
0100
0000
0000
0001
0000
,
1000
0000
0000
0000
0010
0000
0100
0000
0000
0000
0000
0001
0000
0000
2000
0000
,
0000
0000
0000
0000
3001
0010
0100
1000
,
0100
0000
0010
0000
0001
0010
0100
1000
,
0100
0000
0100
0000
1000
0001
0100
0010
,
1000
0001
1000
0000
0001
0100
0010
1000
,
0020
0000
0130
0002
1000
0000
1003
0000
,
0001
0100
0001
0100
0010
1000
0010
1000
,
0000
0001
1000
0001
0100
0001
0100
0001
,
0000
1000
0010
1000
0002
0000
0100
0000
,
2003
0000
0000
0000
3010
0000
0010
0100
,
0001
1000
0010
0100
0001
0000
0100
0000
,
0001
1000
0100
1000
0100
1000
0010
0000
,
0000
1000
0100
0010
0001
0000
0100
0000
,
0001
0100
0001
0100
0001
1000
0010
1000
,
0000
0001
1000
0001
0200
0000
0010
0000
,
0301
0100
0001
0000
1000
0001
1000
0010
,
0000
0000
1001
0000
1000
0001
1000
0010
,
0200
0000
0000
0000
0301
0100
0010
1000
,
0002
1000
0203
0010
,
0302
0010
2003
0100
,
3002
0100
2003
0010
,
3002
0000
0003
0000
1000
0001
0100
0000
,
1100
0000
0000
0000
0000
0000
0001
0000
0100
0000
0000
0010
0000
0000
0000
0000
,
0100
0000
0001
0000
2000
0000
0000
0100
0000
0000
3100
0000
0000
0000
1000
0000
,
0001
0110
1100
0011
,
2000
0000
3000
0001
0100
0010
0100
0001
,
1000
0000
0000
0000
0001
0000
0010
0000
0001
0000
0000
2000
0000
0000
0000
0000
,
0000
0000
3001
0000
0200
0000
0000
0000
0010
0000
0000
0310
0000
0000
0100
0000
,
0001
0000
1000
0000
0010
0000
1000
0000
0001
0000
0000
0100
0000
0000
0000
0000
,
0001
0000
1000
0000
0002
0000
0000
0010
0000
0000
0010
0003
0000
0000
0001
0000
,
0100
0000
0100
0010
0100
0010
0100
0010
,
1000
0000
1000
0001
0100
0001
0100
0001
,
0010
0000
0010
0001
1000
0001
1000
0001
,
0100
0000
0000
0000
0010
0000
0000
0000
1000
0000
0000
0100
0000
0000
0100
0000
,
1000
0000
1000
0100
0010
0001
0010
0001
,
0010
0000
0010
0100
1000
0100
1000
0100
,
1000
0000
0001
0100
0010
0100
0010
0100
,
0010
0000
1000
0000
0100
0000
0000
0010
,
0001
0010
0000
0000
0001
0100
0010
0000
,
1000
0000
0001
1000
0010
0000
0000
0000
,
0100
0001
0100
0000
0001
1000
0010
0000
,
0100
0000
0001
1000
0001
0000
1000
0100
,
1000
0000
0001
0100
0001
0000
2000
0000
,
0010
0000
3001
1000
0001
0000
0000
0100
,
0001
0100
0001
0000
1000
0000
0010
1000
,
0001
1000
0001
0000
0100
0000
0100
0000
,
2002
0000
0000
3003
0000
0000
0110
0000
,
0001
1000
0001
1000
0010
0100
0010
0000
,
0000
1000
0010
0100
0001
0000
0001
0000
,
0100
0010
0100
0010
1000
0010
0100
0001
,
1000
0001
1000
0001
0100
0000
0010
0000
,
0010
1000
0001
0100
0010
1000
0010
0200
,
0000
0300
0001
0100
0001
0100
0001
1000
,
0020
0000
0030
1000
0100
0010
0001
0100
,
0002
1000
0203
0010
,
0320
1000
0230
0010
,
0302
0010
2003
0100
,
3020
0000
0000
0030
1000
0001
0100
0000
,
0011
0000
0000
0000
0000
0000
1000
0000
0010
0000
0000
0100
0000
0000
0000
0000
,
0010
0000
1000
0000
0002
0000
0000
0010
0000
0000
0013
0000
0000
0000
0001
0000
,
1000
0110
0011
1100
,
0002
0000
0003
1000
0010
0100
0010
1000
,
0001
0000
0000
0000
1000
0000
0100
0000
1000
0000
0000
0002
0000
0000
0000
0000
,
0000
0000
1003
0000
0020
0000
0000
0000
0100
0000
0000
0130
0000
0000
0010
0000
,
1000
0000
0001
0000
0100
0000
0001
0000
1000
0000
0000
0010
0000
0000
0000
0000
,
1000
0000
0001
0000
2000
0000
0000
0100
0000
0000
0100
3000
0000
0000
1000
0000
,
0010
0000
0010
0100
0010
0100
0010
0100
,
0001
0000
0001
1000
0010
1000
0010
1000
,
0100
0000
0100
1000
0001
1000
0001
1000
,
0010
0000
0000
0000
0100
0000
0000
0000
0001
0000
0000
0010
0000
0000
0010
0000
,
0001
0000
0001
0010
0100
1000
0100
1000
,
0100
0000
0100
0010
0001
0010
0001
0010
,
0001
0000
1000
0010
0100
0010
0100
0010
,
0100
0000
0001
0000
0010
0000
0000
0100
;

//--------------- dance-single - RxSteps ----------------
#NOTES:
     dance-single:
     RxSteps:
     Medium:
     8:
     0,0,0,0,0:
0000
0000
0000
0000
,
1000
0000
0000
0000
0000
0000
0001
0000
0010
0000
0000
0100
0000
0000
0000
0000
,
0000
0000
0100
0000
0010
0000
0000
0000
0001
0000
0000
0010
0000
0000
0001
0000
,
1000
0100
0010
0100
1000
0010
0100
0001
,
0010
0100
1000
0001
0100
0010
1000
0100
,
0010
0000
0000
0001
0100
0000
0010
0000
1000
0000
0100
0000
1000
0000
0100
0000
,
0010
0000
0000
0100
1000
0000
0001
0000
0100
0000
0010
0000
0100
0000
0001
0000
,
1000
0000
0000
0100
0010
0000
0001
0000
1000
0000
0100
0000
0010
0000
0100
0000
,
1000
0000
0000
0001
0100
0000
0000
0020
2000
0000
0030
0000
0000
0000
3100
0000
,
0020
0000
0000
0000
0000
0000
0130
0000
1000
0000
0000
0001
0000
0000
0000
0000
,
0000
0000
0100
0000
0010
0000
0000
0000
1000
0000
0000
0001
0000
0000
0100
0000
,
0020
0000
0000
0000
0030
0000
1000
0000
0001
0000
0000
0100
0000
0000
0000
0000
,
0001
0010
0100
1000
0010
0100
0001
0010
,
0100
0000
1000
0010
1000
0100
0010
0100
,
1000
0000
0010
0000
0100
0000
0001
0000
1000
0000
0000
0010
0000
0000
0100
0000
,
0001
0010
0100
0010
0001
1000
0100
0020
,
0000
0001
0100
0000
0031
0010
0100
0010
,
0001
1000
0010
1000
0001
0000
1100
0000
,
0110
0000
1010
0000
1000
0001
0100
0010
,
1000
0100
1000
0000
0001
0100
0010
1000
,
0020
0000
0130
0002
1000
0000
0103
0000
,
1200
0310
0001
0100
0010
1000
0010
1000
,
0010
0100
0001
0100
0010
1000
0100
0010
,
0001
0010
0100
2000
0001
0000
3020
0000
,
0100
0000
0000
0000
1030
0000
0010
1000
0000
0001
0100
0000
0010
0000
0100
0000
,
0001
1000
0010
0100
0001
0000
0010
0000
,
0001
1000
0100
0010
0100
1000
0010
0100
,
0001
1000
0001
0020
0100
0000
0130
0000
,
1000
0001
0100
0010
0100
0001
0010
0100
,
1000
0001
1000
0001
0100
0000
0010
0100
,
0001
0010
0100
0010
0100
1000
0010
0200
,
0000
0300
0000
0000
1001
0000
0001
0000
0010
0000
0100
0000
1000
0000
0100
0000
,
0010
0100
1000
0010
0100
0001
0010
0001
,
1000
0100
1000
0100
0010
0100
0010
0100
,
1000
0001
1000
0001
0010
0001
0010
0001
,
0010
0100
0010
0001
0100
0010
1000
0100
,
2000
0000
3002
0000
0103
0001
0010
0000
,
2100
0000
0000
0000
3000
0000
0001
0000
0100
0000
0000
0010
0000
0000
0000
0000
,
0100
0000
0001
0000
0020
0000
0000
0100
0000
0000
0130
0000
0000
0000
1000
0000
,
0001
0110
1100
0011
,
1000
0001
0010
0100
1000
0010
0100
0001
,
0010
0000
0000
0000
1002
0000
0013
0000
0100
0000
0000
2000
0000
0000
0000
0000
,
0000
0000
3001
0000
0200
0000
0000
0000
0010
0000
0000
0310
0000
0000
0100
0000
,
0001
0000
1000
0000
0100
0000
1000
0000
0001
0000
0000
0010
0000
0000
0000
0000
,
0100
0000
1000
0000
0200
0000
0000
0010
0000
0000
0310
0000
0000
0000
0001
0000
,
0100
0000
0000
0010
1000
0000
0001
0000
0010
0000
0001
0000
0010
0000
0001
0000
,
1000
0000
0000
0010
0100
0000
0010
0000
1000
0000
0010
0000
1000
0000
0010
0000
,
0100
0000
0000
0001
1000
0000
0100
0000
0010
0000
0100
0000
1000
0000
0100
0000
,
0010
0000
0000
0001
0100
0000
0010
0000
1000
0000
0000
0100
0000
0000
0100
0000
,
1000
0000
0000
0001
0100
0000
0000
0000
1100
0000
1000
0000
0010
0000
0100
0000
,
0001
0000
0000
0010
0001
0000
0000
0000
1020
0000
0130
0000
0010
0000
1000
0000
,
0001
0000
0000
0100
0001
0000
0000
0000
1010
0000
1000
0000
0001
0000
0100
0000
,
0010
0000
0000
1000
0010
0000
0100
0000
0001
0000
0000
0100
0000
0000
0010
0000
,
0100
0001
2000
3000
0001
0100
0010
0000
,
1000
0010
0000
0000
1000
0001
0000
0100
0010
0000
0000
0000
0010
0000
0000
0000
,
0100
0001
0100
0000
0001
1000
0010
0000
,
0010
1000
0000
0000
1000
0010
0000
0100
0001
0000
0000
0000
0010
0000
0100
0000
,
1000
0000
0000
0100
1000
0000
0100
0000
1000
0000
0000
0000
0010
0100
0000
0001
,
0100
0000
0000
0100
0010
0000
0000
0001
1000
0000
0000
0000
1000
0000
0010
0000
,
0100
0001
0010
0001
0010
0001
0100
0010
,
1000
0001
1000
0010
0100
0000
0100
0001
,
0010
0100
1000
0100
0010
0000
0101
0000
,
1000
0010
0100
0001
0010
0001
0020
0030
,
0100
1000
0010
0100
0001
0000
1020
0000
,
0130
0010
0100
0001
0010
0001
0010
0100
,
1000
0100
1000
0100
0101
0000
0110
0000
,
1100
1000
0001
0100
0010
1000
0010
0200
,
0000
0300
0001
1000
0100
0010
0100
1000
,
0001
0010
0001
1000
0100
1000
0010
0100
,
0001
0100
0010
0100
0001
0010
0001
1000
,
0100
1000
0001
0100
0010
1000
0100
0010
,
0100
1000
0010
0100
0001
1000
0100
0010
,
0100
1000
0010
0100
0001
0010
0001
1000
,
0001
0000
0000
0000
1000
0000
0001
0000
0100
0000
0000
0100
0000
0000
0000
0000
,
0001
0000
0010
0000
0100
0000
0000
0000
1000
0000
0000
0100
0000
0000
1000
0000
,
0001
0000
0100
0000
0010
0000
0100
0000
0001
0000
0000
0020
0000
0000
0000
0000
,
0130
0010
0001
1000
0010
0100
0010
1000
,
0102
0000
0000
0000
0003
0000
1000
0000
0001
0000
0000
0010
0000
0000
0000
0000
,
0010
0000
0001
0000
0200
0000
0000
0010
0000
0000
0310
0000
0000
0000
1000
0000
,
0001
0000
0010
0000
0100
0000
1000
0000
0100
0000
0000
0010
0000
0000
0000
0000
,
0001
0000
1000
0000
0100
0000
0000
0000
1000
0000
0000
0001
0000
0000
0100
0000
,
0010
0000
0000
0100
0001
0000
1000
0000
0100
0000
1000
0000
0100
0000
1000
0000
,
0001
0000
0000
0100
0010
0000
0100
0000
0001
0000
0100
0000
0001
0000
0100
0000
,
0010
0000
0000
1000
0001
0000
0010
0000
0100
0000
0010
0000
0001
0000
0010
0000
,
0100
0000
0000
1000
0010
0000
0100
0000
0001
0000
0000
0010
0000
0000
0010
0000
,
0001
0000
0000
1000
0010
0000
0000
0000
0011
0000
0001
0000
0100
0000
0010
0000
,
1000
0000
0000
0100
1000
0000
0000
0000
0201
0000
0310
0000
0100
0000
0001
0000
,
0010
0000
0000
0001
1000
0000
0000
0000
0101
0000
0001
0000
1000
0000
0010
0000
,
0100
0000
0000
0001
0100
0000
0010
0000
1000
0000
0000
0001
0000
0000
0100
0000
;

//--------------- dance-single - RxSteps ----------------
#NOTES:
     dance-single:
     RxSteps:
     Hard:
     9:
     0,0,0,0,0:
0000
0000
0000
0000
,
1000
0000
0000
0000
0000
0000
0001
0000
0010
0000
0000
0100
0000
0000
0000
0000
,
0000
0000
0100
0000
0010
0000
0000
0000
0001
0000
0000
0010
0000
0000
0001
0000
,
1000
0200
0301
0100
1000
0010
0100
0001
,
0010
0100
1000
0001
0200
1300
0100
0001
,
0010
0000
0000
0001
0100
0000
0010
0000
1000
0000
0100
0000
1000
0000
0100
0000
,
0010
0000
0000
0100
1000
0000
0001
0000
0200
0000
1300
0000
0100
0000
0001
0000
,
1000
0000
0000
0100
0010
0000
0001
0000
1000
0000
0100
0000
0010
0000
0100
0000
,
1000
0000
0000
0001
0100
0000
0000
0020
2000
0000
0030
0000
0000
0000
3100
0000
,
0020
0000
0000
0000
0000
0000
0130
0000
1000
0000
0000
0001
0000
0000
0000
0000
,
0000
0000
0100
0000
0010
0000
0000
0000
1000
0000
0000
0200
0000
0000
0301
0000
,
0200
0000
0000
0000
0300
0000
1000
0000
0010
0000
0000
0100
0000
0000
0000
0000
,
0001
0010
0100
1000
0020
0031
1000
0001
,
0010
0000
0100
0001
1000
0100
0010
0100
,
1000
0000
0010
0000
0100
0000
0001
0000
0200
0000
0000
1300
0000
0000
0100
0000
,
0001
0010
0100
0010
0001
1000
0100
0020
,
0000
0001
0100
0000
0031
0010
0100
0010
,
0001
0020
1030
0010
0001
0000
1100
0000
,
0110
0000
1020
0000
1030
0020
0031
0010
,
1000
0100
1000
0000
0001
0200
1300
0001
,
0020
0000
0130
0002
1000
0000
0103
0000
,
1200
0310
0001
0100
0010
1000
0010
1000
,
0010
0100
0001
0200
1300
0100
0001
0010
,
0100
0000
0010
0000
0100
0000
1000
0000
0001
1000
0001
1000
0001
0000
0100
0000
,
0010
0100
0010
0100
0010
0000
1000
0010
0000
0100
0001
0000
0200
0000
1300
0000
,
0100
0001
0010
0002
0100
0000
0103
0000
,
0001
1000
0100
0010
0100
1000
0010
0100
,
0001
1000
0001
0020
0100
0000
0130
0000
,
1000
0001
0200
1300
0100
0001
0010
0100
,
1000
0001
1000
0001
0100
0000
0010
0100
,
0001
0020
1030
0001
0100
1000
0010
0200
,
0000
0300
0000
0000
1001
0000
0001
0000
0010
0000
0100
0000
1000
0000
0200
0000
,
0301
0100
1000
0010
0200
1300
0001
0010
,
1000
0100
0010
0100
1000
0001
1000
0010
,
0100
0001
0200
1300
0100
0001
0010
0100
,
0010
0001
0100
0010
1000
0200
0301
1000
,
0010
0100
1000
0000
1000
0001
0010
0100
,
2100
0000
0000
0000
3000
0000
0001
0000
0200
0000
0000
1000
0000
0000
0300
0000
,
0100
0000
0001
0000
0020
0000
0000
0100
0000
0000
0130
0000
0000
0000
1000
0000
,
0001
0110
1100
0011
,
1000
0001
0010
0100
1000
0020
0031
1000
,
0100
0000
0000
0000
0011
0000
0010
0000
0100
0000
0000
2000
0000
0000
0000
0000
,
0000
0000
3001
0000
0200
0000
0000
0000
0010
0000
0000
0310
0000
0000
0100
0000
,
0001
0000
0200
0000
1300
0000
0100
0000
0001
0000
0000
0010
0000
0000
0000
0000
,
0100
0000
1000
0000
0200
0000
0000
0010
0000
0000
0310
0000
0000
0000
0001
0000
,
0100
0000
0000
0010
1000
0000
0001
0000
0010
0000
0001
0000
0010
0000
0001
0000
,
1000
0000
0000
0010
0100
0000
0010
0000
1000
0000
0010
0000
1000
0000
0010
0000
,
0100
0000
0000
0001
1000
0000
0100
0000
0010
0000
0100
0000
1000
0000
0100
0000
,
0010
0000
0000
0001
0100
0000
0010
0000
1000
0000
0000
0100
0000
0000
0100
0000
,
1000
0000
0000
0001
0100
0000
0000
0000
1100
0000
1000
0000
0010
0000
0100
0000
,
0001
0000
0000
0010
0001
0000
0000
0000
1020
0000
0130
0000
0010
0000
1000
0000
,
0100
0000
0000
0100
0001
0000
0000
0000
1010
0000
1000
0000
0001
0000
0100
0000
,
0010
0000
0000
1000
0010
0000
0100
0000
0001
0000
0000
0200
0000
0000
1300
0000
,
0100
0001
0200
0300
0001
0100
0010
0000
,
1000
0010
0000
0000
1000
0001
0000
0100
0010
0000
0000
0000
0010
0000
0000
0000
,
0100
0001
0100
0000
0200
1300
0100
0000
,
0010
1000
0000
0000
1000
0010
0000
0100
0001
0000
0000
0000
0010
0000
0100
0000
,
1000
0000
0000
0100
1000
0000
0001
0000
0100
0000
0000
0000
0010
0100
0000
0001
,
1000
0000
0000
0100
0010
0000
0000
0001
1000
0000
0000
0000
1000
0000
0010
0000
,
0100
0001
0020
1030
0010
0001
0010
0100
,
1000
0001
1000
0010
1000
0200
0301
1000
,
0010
0100
1000
0100
0010
0000
0102
0000
,
0203
1300
0100
0001
0010
0001
0020
0030
,
0100
1000
0200
0301
0100
0000
1020
0000
,
0230
1300
0100
0001
0010
0001
0010
0100
,
1000
0100
1000
0100
0101
0000
0110
0000
,
1200
0310
0001
0200
1300
0001
0010
0200
,
0000
0300
0001
1000
0100
0010
0100
1000
,
0001
0010
0001
0200
1300
0001
0010
0100
,
0001
0200
1300
0100
0001
0010
0001
1000
,
0100
1000
0001
0100
0010
1000
0200
0301
,
0100
1000
0010
0100
0001
1000
0100
0010
,
0100
1000
0010
0100
0001
0020
1030
0001
,
0100
0000
0000
0000
1000
0000
0001
0000
0100
0000
0000
0100
0000
0000
0000
0000
,
0001
0000
0010
0000
0100
0000
0000
0000
1000
0000
0000
0100
0000
0000
1000
0000
,
0001
0000
0100
0000
0010
0000
0100
0000
0001
0000
0000
0020
0000
0000
0000
0000
,
0130
0010
0001
1000
0020
0031
0010
1000
,
0102
0000
0000
0000
0003
0000
1000
0000
0020
0000
0000
0001
0000
0000
0030
0000
,
0010
0000
1000
0000
0200
0000
0000
0010
0000
0000
0310
0000
0000
0000
0001
0000
,
1000
0000
0010
0000
0100
0000
0001
0000
1000
0000
0000
0010
0000
0000
0000
0000
,
0010
0000
1000
0000
0100
0000
0000
0000
1000
0000
0000
0001
0000
0000
0100
0000
,
0010
0000
0000
0100
0001
0000
1000
0000
0100
0000
1000
0000
0100
0000
1000
0000
,
0001
0000
0000
0100
0010
0000
0100
0000
0001
0000
0100
0000
0001
0000
0100
0000
,
0010
0000
0000
1000
0001
0000
0010
0000
0100
0000
0010
0000
0001
0000
0010
0000
,
0100
0000
0000
1000
0010
0000
0100
0000
0001
0000
0000
0010
0000
0000
0010
0000
,
0001
0000
0000
1000
0010
0000
0000
0000
0011
0000
0001
0000
0100
0000
0010
0000
,
1000
0000
0000
0100
1000
0000
0000
0000
0201
0000
0310
0000
0100
0000
0001
0000
,
0010
0000
0000
0001
1000
0000
0000
0000
0101
0000
0001
0000
1000
0000
0010
0000
,
0100
0000
0000
0001
0100
0000
0010
0000
1000
0000
0000
0001
0000
0000
0100
0000
;
