#TITLE:CLINGY;
#SUBTITLE:;
#ARTIST:Lights;
#TITLETRANSLIT:;
#SUBTITLETRANSLIT:;
#ARTISTTRANSLIT:;
#GENRE:;
#CREDIT:RxSteps;
#MUSIC:CLINGY.ogg;
#BANNER:Clingy.png;
#BACKGROUND:Clingy-bg.png;
#CDTITLE:cdtitle.png;
#SAMPLESTART:48.297;
#SAMPLELENGTH:26.182;
#SELECTABLE:YES;
#OFFSET:1.885;
#BPMS:0.000=110.000;
#STOPS:;
#BGCHANGES:;
#FGCHANGES:;

//--------------- dance-single - RxSteps ----------------
#NOTES:
     dance-single:
     RxSteps:
     Beginner:
     3:
     0,0,0,0,0:
0000
0000
0000
0000
,
1000
0000
0000
0010
0000
0000
0000
0000
,
0100
0000
0000
0001
0000
0000
0000
0000
,
0100
0000
0000
0010
0000
0000
0000
0000
,
0100
0000
0000
0001
0000
0000
1000
0000
,
0001
0000
0000
0100
0000
0000
0000
0000
,
0010
0000
0000
1000
0000
0000
0000
0000
,
0001
0000
0000
0010
0000
0000
0000
0000
,
0010
0000
0000
0001
0000
0000
0000
0000
,
1000
0000
0000
0010
0000
0000
0000
0000
,
0100
0000
0000
0010
0000
0000
0000
0000
,
1000
0000
0000
0100
0000
0000
0000
0000
,
1000
0000
0000
0001
0000
0000
0000
0000
,
0001
0000
0000
1000
0000
0000
0000
0000
,
1000
0000
0000
0100
0000
0000
0000
0000
,
1000
0000
0000
0001
0000
0000
0000
0000
,
0010
0000
0000
0001
0000
0000
0000
0000
,
0100
0000
0000
0001
0000
0000
0000
0000
,
0001
0000
0000
1000
0000
0000
0000
0000
,
0010
0000
0000
0100
0000
0000
0000
0000
,
0010
0000
0000
1000
0000
0000
0000
0000
,
1000
0000
0010
0000
,
1000
0000
0000
0100
0000
0000
0000
0000
,
0100
0000
1000
0000
,
0010
0000
0000
0100
0000
0000
0000
0000
,
1001
0000
0000
0000
,
1000
0000
0000
0010
0000
0000
0000
0000
,
0010
0000
0100
0000
,
0001
0000
0000
0010
0000
0000
0000
0000
,
0010
0000
0000
0001
0000
0000
0000
0000
,
0010
0000
0000
0001
0000
0000
0000
0000
,
1000
0000
0000
0100
0000
0000
0000
0000
,
1000
0000
0000
0001
0000
0000
0000
0000
,
0010
0000
0000
0002
0000
0003
0000
0000
,
1000
0000
0000
0010
0000
0000
0000
0000
,
0010
0000
0000
0100
0000
0000
0000
0000
,
0010
0000
0000
1000
0000
0000
0000
0000
,
0001
0000
0000
0010
0000
0000
0000
0000
,
0010
0000
0000
0001
0000
0000
0000
0000
,
0010
0000
0000
0100
0000
0000
0000
0000
,
1000
0000
0000
0001
0000
0000
0000
0000
,
0001
0000
0000
0100
0000
0000
0000
0000
,
0100
0000
0000
0010
0000
0000
0000
0000
,
1000
0000
0000
0001
0000
0000
0000
0000
,
1000
0000
0000
0010
0000
0000
0000
0000
,
0010
0000
0000
0100
0000
0000
0000
0000
,
0100
0000
0000
0001
0000
0000
0000
0000
,
0001
0000
0000
0010
0000
0000
0000
0000
,
0010
0000
0000
0001
0000
0000
0000
0000
,
1000
0000
0100
0000
,
1000
0000
0010
0000
,
0010
0000
1000
0000
,
0100
0000
0000
1000
0000
0000
0000
0000
,
0110
0000
0000
0000
,
0001
0000
0000
0010
0000
0000
0000
0000
,
0001
0000
0000
1000
0000
0000
0000
0000
,
1000
0000
0000
0100
0000
0000
0000
0000
,
1001
0000
0000
1000
,
0001
0000
0000
0010
0000
0000
0000
0000
,
0001
0000
0000
0100
0000
0000
0000
0000
,
0010
0000
0000
0100
0000
0000
0000
0000
,
0001
0000
0000
1000
0000
0000
0000
0000
,
0010
0000
0100
0000
,
0010
0000
0000
1000
0000
0000
0000
0000
,
0001
0000
0000
0010
0000
0000
0000
0000
,
0001
0000
0000
0010
0000
0000
0000
0000
,
0100
0000
0010
0000
,
0001
0000
0000
1000
0000
0000
0000
0000
,
0010
0000
0000
0100
0000
0000
0000
0000
,
0010
0000
0000
1000
0000
0000
0000
0000
,
0100
0000
0000
0010
0000
0000
0000
0000
,
0100
0000
0000
1000
0000
0000
0000
0000
,
0001
0000
0000
0100
0000
0000
0000
0000
,
0010
0000
0000
0100
0000
0000
0000
0000
,
0001
0000
0000
0010
0000
0000
0000
0000
,
0001
0000
0000
1000
0000
0000
0000
0000
,
0100
0000
0000
1000
0000
0000
0000
0000
,
0001
0000
0000
0010
0000
0000
0000
0000
,
0001
0000
0000
2000
0000
0000
0000
0000
,
3000
0000
0000
0000
,
0010
0000
0000
0100
0000
0000
0000
0000
,
1001
0000
0000
0000
,
1000
0000
0000
0001
0000
0000
0000
0000
,
0010
0000
0000
0001
0000
0000
0000
0000
,
1000
0000
0000
0100
0000
0000
0000
0000
,
0110
0000
0000
0000
,
0001
0000
0000
0010
0000
0000
0000
0000
,
0001
0000
0000
1000
0000
0000
0000
0000
,
0100
0000
0000
1000
0000
0000
0000
0000
,
0010
0000
0000
0100
0000
0000
0000
0000
,
0001
0000
0000
0010
0000
0000
0000
0000
,
0010
0000
0000
0001
0000
0000
0000
0000
,
2000
0000
0000
0200
0000
0000
0000
0000
,
3300
0000
0000
0000
;

//--------------- dance-single - RxSteps ----------------
#NOTES:
     dance-single:
     RxSteps:
     Easy:
     6:
     0,0,0,0,0:
0000
0000
0000
0000
,
0001
0000
0000
0200
0000
0300
0000
0000
,
0010
0000
0000
2000
0000
3000
0000
0000
,
0001
0000
0000
0020
0000
0030
0000
0000
,
0001
0000
0000
1000
0000
0000
0100
0000
,
1000
0000
0001
0100
0001
0100
0010
1000
,
0010
0100
0001
0010
,
0100
0000
0100
1000
0100
0010
0001
0010
,
0001
0000
1000
0000
0100
0000
1000
0001
,
0100
0000
0010
0100
0001
0100
0010
0100
,
0001
1000
0100
0010
,
0010
0000
0001
0010
0100
1000
0100
0010
,
0001
0000
1000
0000
0010
0000
1000
0001
,
0100
0000
0100
0010
1000
0010
1000
0001
,
0100
0010
2000
3000
,
0001
0000
0001
0010
0100
1000
0001
1000
,
0010
1000
0010
0200
0000
0000
0300
0000
,
0001
0000
0001
1000
0010
1000
0010
0100
,
0001
0010
0100
0010
,
0001
0000
0001
0010
0001
1000
0100
0010
,
0001
0010
0001
2000
0000
0000
3000
0000
,
0010
0000
0000
1000
0000
0000
0010
0000
0200
0000
0000
0000
0300
0000
0000
0000
,
0001
0000
0000
0010
0000
0000
0001
0000
2000
0000
0000
0000
3000
0000
0000
0000
,
0010
0000
0000
0100
0000
0000
0001
0000
2000
0000
0000
0000
3000
0000
0000
0000
,
0001
0000
0000
0100
0000
0000
0001
0000
1000
0000
0020
0000
0130
0000
0000
0000
,
1001
0000
0000
1000
0010
0100
0010
0000
,
1000
0000
0000
0001
0000
0000
1000
0000
0010
0000
0100
0000
0001
0000
0000
0000
,
0010
0000
0000
0001
0000
0000
0010
0000
0100
0000
0000
0000
1000
0000
0100
0000
,
0010
0000
0000
0001
0000
0000
1000
0000
0000
0000
0000
0000
0000
0000
0000
0000
,
0110
0000
0000
0001
1000
0001
0010
0000
,
0010
0000
0000
0100
0000
0000
1000
0000
0001
0000
0100
0000
0001
0000
0000
0000
,
1000
0000
0000
0100
0000
0000
1000
0000
0001
0000
1000
0000
0010
0000
0000
0000
,
0100
0000
0000
0001
0000
0000
1000
0000
0010
0000
0100
0000
0000
0000
0000
0000
,
0002
0000
0000
0010
0000
0000
0000
0000
,
2003
0000
0000
0100
0000
0000
3000
0000
,
1000
0000
0001
0100
0001
0100
0001
1000
,
0010
0100
0001
0010
,
0001
0000
0001
1000
0100
1000
0100
1000
,
0001
0010
0100
1000
,
0010
0000
0010
0100
0010
0100
0001
1000
,
0001
0000
0100
0000
0010
0000
0100
0001
,
0100
0000
0010
1000
0010
0100
0001
1000
,
0010
0100
0001
0000
,
1000
0000
1000
0010
1000
0001
0100
0010
,
1000
0001
0100
0010
0000
0000
1000
0000
,
0100
0000
1000
0100
0010
0001
1000
0100
,
0010
0001
1000
0010
,
0010
0000
0100
0001
0100
0001
0100
0001
,
1000
0001
1000
0200
0000
0000
0300
0000
,
1000
0000
0000
0001
0000
0000
0100
0000
0020
0000
0000
0000
0030
0000
0000
0000
,
1000
0000
0000
0100
0000
0000
1000
0000
0002
0000
0000
0000
0003
0000
0000
0000
,
0100
0000
0000
0010
0000
0000
1000
0000
0002
0000
0000
0000
0003
0000
0000
0000
,
1000
0000
0000
0010
0000
0000
1000
0000
0001
0000
0200
0000
0310
0000
0000
0000
,
1001
0000
0000
0001
0100
0010
0100
0000
,
0001
0000
0000
1000
0000
0000
0001
0000
0100
0000
0010
0000
1000
0000
0000
0000
,
0100
0000
0000
1000
0000
0000
0100
0000
0010
0000
0000
0000
0001
0000
0010
0000
,
0100
0000
0000
2000
0000
0000
0002
0000
0000
0000
3003
0000
0000
0000
0000
0000
,
0110
0000
0000
1000
0001
1000
0100
0000
,
0100
0000
0000
0010
0000
0000
0001
0000
1000
0000
0010
0000
1000
0000
0000
0000
,
0001
0000
0000
0010
0000
0000
0001
0000
1000
0000
0001
0000
0100
0000
0000
0000
,
0010
0000
0000
1000
0000
0000
0001
0000
0100
0000
0010
0000
0000
0000
0000
0000
,
1000
0000
0010
0100
0010
0100
0010
1000
,
0001
0010
0100
1000
,
0001
0000
0001
0010
0001
0010
0001
1000
,
0001
0100
0010
1000
0000
0010
0000
0200
,
0000
0000
0300
0000
0001
1000
0010
0100
,
0001
1000
0100
1000
,
0001
0000
0000
0100
0010
1000
0010
0100
,
0001
0100
0001
1000
0000
0010
0000
0100
,
0010
0000
0010
0100
0001
0100
0010
0100
,
0001
1000
0100
1000
,
0001
0000
0001
0100
0010
1000
0001
0100
,
0010
1000
0010
0100
0000
0001
0000
0100
,
0001
0000
0001
0100
0001
0100
0010
1000
,
0001
0010
0100
0010
,
0001
0000
0001
1000
0100
0010
0001
1000
,
0100
0010
0100
1000
0000
0001
0000
0100
,
0010
0000
0000
1000
0000
0000
0100
0000
0020
0000
0000
0000
0030
0000
0000
0000
,
0001
0000
0000
0100
0000
0000
0001
0000
2000
0000
0000
0000
3000
0000
0000
0000
,
0000
0000
0000
1000
0000
0000
0001
0000
0200
0000
0000
0000
0300
0000
0000
0000
,
0001
0000
0000
0020
0000
0000
0200
0000
0000
0000
0330
0000
0000
0000
0000
0000
,
1001
0000
0000
1000
0100
0010
0100
0000
,
1000
0000
0000
0001
0000
0000
1000
0000
0100
0000
0010
0000
0001
0000
0000
0000
,
0100
0000
0000
0001
0000
0000
0100
0000
0010
0000
0000
0000
1000
0000
0010
0000
,
0100
0000
0000
0002
0000
0000
2000
0000
0000
0000
3003
0000
0000
0000
0000
0000
,
0110
0000
0000
0001
1000
0001
0100
0000
,
0100
0000
0000
0010
0000
0000
1000
0000
0001
0000
0010
0000
0001
0000
0000
0000
,
1000
0000
0000
0010
0000
0000
1000
0000
0001
0000
1000
0000
0100
0000
0000
0000
,
0010
0000
0000
0001
0000
0000
1000
0000
0100
0000
0010
0000
0000
0000
0000
0000
,
0010
0000
0000
0001
0000
0000
0010
0000
0200
0000
0000
0000
0300
0000
0000
0000
,
1000
0000
0000
0010
0000
0000
1000
0000
0002
0000
0000
0000
0003
0000
0000
0000
,
0010
0000
0000
0100
0000
0000
1000
0000
0002
0000
0000
0000
0003
0000
0000
0000
,
1000
0000
0000
0100
0000
0000
1000
0000
0002
0000
0020
0000
0000
0000
0000
0000
,
0033
0000
0000
0000
;

//--------------- dance-single - RxSteps ----------------
#NOTES:
     dance-single:
     RxSteps:
     Medium:
     8:
     0,0,0,0,0:
0000
0000
0000
0000
,
0002
0000
0003
0200
0000
0000
0300
0000
,
0001
0000
0000
0020
0000
0000
0030
0000
,
0200
0000
0000
2000
0000
0300
0000
0000
,
0020
3000
0000
0200
0330
0000
1100
0000
,
0201
0300
0010
0000
1000
0000
0100
0000
1000
0000
0010
0000
0100
0000
0001
0000
,
0020
0100
0032
0103
,
1020
0030
0100
0000
0001
0000
0010
0000
0001
0000
0100
0000
0010
0000
1000
0000
,
0200
0000
0010
0000
2300
3000
0010
0100
,
0001
1000
0100
0010
0100
1000
0001
0020
,
0100
0030
0002
0003
0200
0000
0310
0000
,
1200
0300
0010
0000
0001
0000
1000
0000
0100
0000
0010
0000
0100
0000
1000
0000
,
0001
0000
0200
0000
0310
0000
1000
0010
,
0100
0001
0010
0001
0100
0010
1000
0100
,
0010
0100
1000
0100
0020
0000
0031
0000
,
1020
0030
0100
0000
0001
0000
1000
0000
0010
0000
0100
0000
0001
0000
1000
0000
,
0010
1000
0100
0020
0000
0000
0031
0000
,
1100
0001
0100
0010
1000
0010
0100
0001
,
0020
0100
0032
0103
,
1020
0030
0100
0000
0010
0000
1000
0000
0001
0000
0010
0000
0100
0000
1000
0000
,
0100
0010
0002
2000
0000
0000
3003
0000
,
0001
0000
0000
0100
0010
0000
1000
0000
0100
0000
0010
0000
0001
0000
1000
0000
,
0010
0000
0000
0100
0001
0000
1000
0000
0100
0000
0010
0000
0001
0000
0000
0000
,
0110
0000
0000
0001
1000
0000
0010
0000
0100
0000
0001
0000
0010
0000
0100
0000
,
1000
0000
0000
0100
0010
0000
0001
0000
1000
0000
0010
0000
0011
0000
0000
0000
,
1020
0030
0000
0100
0001
0000
1000
0000
0010
0000
0100
0000
0001
0000
0010
0000
,
1010
0000
0000
0001
0100
0000
0010
0000
1000
0000
0100
0000
1000
0000
0000
0000
,
0201
0300
0000
0010
0100
0000
0001
0000
0010
0000
0100
0000
1000
0000
0010
0000
,
0100
0000
0000
0001
0020
0000
0200
0000
0000
0000
0330
0000
1001
0000
0110
0000
,
1010
0000
0000
0100
0001
0000
0010
0000
0100
0000
1000
0000
0001
0000
0100
0000
,
0010
0000
0000
1000
0100
0000
0010
0000
0001
0000
0010
0000
0100
0000
1000
0000
,
0001
0000
0000
1000
0010
0000
0100
0000
0001
0000
0010
0000
0001
0000
1000
0000
,
0100
0000
0000
0010
0000
0000
0001
0000
2000
0000
0020
0000
0000
3030
0000
0000
,
0202
0300
0003
1000
0010
0100
0010
1000
,
0200
0000
0000
0000
0010
0000
0000
0000
2000
0300
0000
0000
3001
0000
0000
0000
,
0110
0000
0000
0000
2001
3000
0010
0000
0100
0000
0001
0000
0100
0000
0020
0000
,
1000
0100
2030
3001
,
0110
0001
1000
0010
0100
0001
0100
0020
,
1030
0201
0010
0301
,
1020
0030
0100
0000
0001
0000
0010
0000
0100
0000
1000
0000
0100
0000
0020
0000
,
0031
0000
1200
0000
0010
0000
1300
0001
,
0100
0010
0100
0001
0010
0001
1000
0010
,
0200
0001
0320
1030
,
0101
1000
0100
0010
0001
0100
0010
0100
,
0001
0010
0200
2000
3300
0000
0110
0000
,
1002
0003
0100
0000
0010
0000
1000
0000
0001
0000
0010
0000
0100
0000
0010
0000
,
0002
0010
0103
1100
,
0011
1000
0010
0100
0001
1000
0100
1000
,
0001
0010
0200
0010
0000
0000
0000
0000
,
1300
0000
0000
0100
0010
0000
0001
0000
0100
0000
0010
0000
1000
0000
0001
0000
,
0100
0000
0000
0010
1000
0000
0001
0000
0010
0000
0001
0000
1000
0000
0000
0000
,
0110
0000
0000
1000
0001
0000
0100
0000
0010
0000
1000
0000
0100
0000
0010
0000
,
0001
0000
0000
0010
0100
0000
1000
0000
0001
0000
0100
0000
0110
0000
1001
0000
,
0201
0300
0000
0010
1000
0000
0001
0000
0100
0000
0010
0000
1000
0000
0100
0000
,
0101
0000
0000
1000
0010
0000
0100
0000
0001
0000
0010
0000
0100
0000
0000
0000
,
1020
0030
0000
0100
0010
0000
1000
0000
0100
0000
0010
0000
0001
0000
0100
0000
,
0010
0000
0000
1000
0200
0000
0020
0000
0000
0000
0330
0000
1001
0000
0110
0000
,
0101
0000
0000
0010
1000
0000
0100
0000
0010
0000
0001
0000
0010
0000
0100
0000
,
1000
0000
0000
0001
0010
0000
0100
0000
0010
0000
0001
0000
1000
0000
0010
0000
,
0100
0000
0000
0001
0100
0000
0010
0000
1000
0000
0100
0000
1000
0000
0100
0000
,
0010
0000
0000
0100
0000
0000
1000
0000
0002
0000
0200
0000
0000
0303
0000
0000
,
1020
0030
0100
0010
1000
0100
1000
0010
,
0200
0001
0320
1030
,
0201
0300
0010
1000
0100
1000
0001
0010
,
0100
0010
0001
2000
3000
0010
0000
0100
,
0010
0000
0000
0100
0001
0000
1000
0000
0010
0000
0100
0000
0001
0000
1000
0000
,
0200
0000
0000
0000
0010
0000
0000
0000
2000
0300
0000
0000
3001
0000
0000
0000
,
0110
0000
0000
0001
1000
0000
0100
0000
0010
0000
0100
0000
1000
0000
0001
0000
,
0010
0001
1000
0020
0000
0130
0000
0001
,
0010
0000
0000
0001
1000
0000
0100
0000
0010
0000
0100
0000
1000
0000
0001
0000
,
0100
0010
1000
0010
0100
0002
0013
0000
,
1200
0300
0000
0010
0001
0000
1000
0000
0001
0000
0100
0000
0010
0000
1000
0000
,
0100
0010
0001
0010
0100
1000
0010
1000
,
0100
0000
0000
1000
0001
0000
0100
0000
0010
0000
1000
0000
0100
0000
0010
0000
,
0100
0010
0001
1000
0001
0100
0010
1000
,
0010
0000
0000
0100
0010
0000
1000
0000
0001
0000
0100
0000
0010
0000
1000
0000
,
0100
0010
0001
0200
0000
0310
0000
1000
,
0001
0000
0000
0010
0000
0000
0100
0000
1000
0000
0100
0000
0010
0000
0001
0000
,
0100
0000
0000
0010
0000
0000
1000
0000
0100
0000
0010
0000
0200
0000
0000
0000
,
0000
0300
0000
1000
0000
0000
0001
0000
0010
0000
0001
0000
0100
0000
0010
0000
,
1000
0000
0000
0020
0000
0000
0200
0000
0000
0000
0000
0000
0330
0000
0000
0000
,
1200
0300
0000
0010
0001
0000
1000
0000
0100
0000
0010
0000
0001
0000
0100
0000
,
1100
0000
0000
0001
0010
0000
0100
0000
0010
0000
0100
0000
1000
0000
0000
0000
,
0021
0030
0000
0100
0010
0000
0001
0000
0100
0000
0010
0000
1000
0000
0100
0000
,
0010
0000
0000
0001
0200
0000
0020
0000
0000
0000
0330
0000
1001
0000
0110
0000
,
1100
0000
0000
0010
0001
0000
0100
0000
0010
0000
1000
0000
0010
0000
0100
0000
,
0001
0000
0000
1000
0010
0000
0100
0000
0001
0000
0100
0000
0010
0000
1000
0000
,
0001
0000
0000
1000
0100
0000
0010
0000
0001
0000
0010
0000
0100
0000
1000
0000
,
0010
0000
0000
0100
0000
0000
0001
0000
1000
0000
0010
0000
0110
0000
0101
0000
,
2000
3000
0000
0010
0100
0000
0001
0000
0100
0000
0010
0000
1000
0000
0001
0000
,
0010
0000
0000
0100
0000
0000
0010
0000
0100
0000
1000
0000
0001
0000
0010
0000
,
0100
0000
0000
1000
0000
0000
0001
0000
0100
0000
0010
0000
1000
0000
0010
0000
,
0100
0000
0000
0001
0000
0000
1000
0000
0020
0000
0200
0000
0000
0000
0000
0000
,
0330
0000
0000
0000
;

//--------------- dance-single - RxSteps ----------------
#NOTES:
     dance-single:
     RxSteps:
     Hard:
     9:
     0,0,0,0,0:
0000
0000
0000
0000
,
0002
0000
0003
0200
0000
0000
0300
0000
,
0001
0000
0000
0020
0000
0000
0030
0000
,
0200
0000
0000
2000
0000
0300
0000
0000
,
0020
3000
0000
0002
0033
0000
1100
0000
,
0201
0300
0010
0000
1000
0000
0100
0000
1000
0000
0010
0000
0100
0000
0001
0000
,
0020
1000
0031
0100
,
1020
0030
0100
0000
0001
0000
0010
0000
0001
0000
0100
0000
0010
0000
1000
0000
,
0200
0000
0001
0000
2300
3000
0010
0100
,
0001
1000
0100
0010
0100
1000
0020
0031
,
2000
3000
0200
0300
0002
0003
0010
0000
,
1200
0300
0010
0000
0001
0000
1000
0000
0100
0000
0010
0000
0100
0000
2000
0000
,
3020
0000
0000
0000
0032
0000
0000
0000
2000
0003
0000
3000
0100
0000
0010
0000
,
1000
0000
0100
0000
0010
0000
0001
0000
0100
0000
0010
0000
1000
0000
0200
0300
,
0001
0000
0100
0000
1000
0000
0200
0000
0002
0300
0000
0000
0103
0000
0000
0000
,
1020
0030
0100
0000
0001
0000
1000
0000
0010
0000
0100
0000
0001
0000
1000
0000
,
0200
0300
0001
0000
2000
0000
0020
0000
3000
0000
0000
0000
0031
0000
0000
0000
,
1100
0001
0100
0010
1000
0010
0100
0002
,
0023
1000
0032
0103
,
1020
0030
0100
0000
0010
0000
1000
0000
0001
0000
0010
0000
0200
0300
0001
0000
,
0100
0010
0002
2000
0000
0000
3003
0000
,
0001
0000
0000
0100
0010
0000
1000
0000
0100
0000
0010
0000
0001
0000
1000
0000
,
0010
0000
0000
0100
0001
0000
1000
0010
0100
0010
1000
0000
0001
0000
0000
0000
,
0110
0000
0000
0001
1000
0000
0010
0000
0100
0000
0001
0000
0010
0000
0100
0000
,
1000
0000
0000
0100
0010
0000
0001
0000
1000
0000
0010
0000
0011
0000
0000
0000
,
1020
0030
0000
0100
0001
0000
1000
0000
0010
0000
0100
0000
0001
0000
0010
0000
,
1010
0000
0000
0001
0100
0000
0010
0000
1000
0001
0100
0010
1000
0000
0000
0000
,
0201
0300
0000
0010
0100
0000
0001
0000
0010
0000
0100
0000
1000
0000
0010
0000
,
0100
0000
0000
0001
0020
0000
0200
0000
0000
0000
0330
0000
1001
0000
0110
0000
,
1010
0000
0000
0100
0001
0000
0010
0000
0200
0300
0001
0000
0100
0000
0010
0000
,
0001
0000
0000
1000
0100
0000
0020
0030
1000
0000
0010
0000
0100
0000
1000
0000
,
0001
0000
0000
1000
0010
0000
0200
0300
1000
0000
0100
0000
0001
0000
0010
0000
,
0100
0000
0000
0010
0000
0000
0001
0000
2000
0000
0020
0000
0000
3030
0000
0000
,
0202
0300
0003
1000
0010
0100
0010
2000
,
3200
0000
0000
0000
0001
0000
0000
0000
2000
0300
0000
0000
3001
0000
0000
0000
,
0110
0000
0000
0000
2001
3000
0010
0000
0100
0000
0001
0000
0100
0000
0020
0000
,
1000
0001
2030
3001
,
0110
0000
0001
0000
1000
0000
0010
0000
0200
0300
1000
0000
0100
0000
0020
0000
,
1030
0201
1000
0301
,
1020
0030
0100
0000
0001
0000
0010
0000
0100
0000
1000
0000
0100
0000
0020
0000
,
0031
0000
1200
0000
0001
0000
1300
0001
,
0100
0010
0100
0001
0010
0001
1000
0020
,
0230
1000
0302
0013
,
1200
0300
0010
0000
0001
0000
1000
0000
0001
0000
0100
0000
0010
0000
0100
0000
,
0001
0020
2030
0002
3003
0000
0110
0000
,
1002
0003
0100
0000
0010
0000
1000
0000
0020
0030
0001
0000
1000
0000
0100
0000
,
0002
0010
0103
1100
,
0011
0000
1000
0000
0010
0000
0100
0000
0001
0000
0200
0300
1000
0000
0100
0000
,
0001
0010
0200
0001
0000
0000
0000
0000
,
1300
0000
0000
0100
0010
0000
0001
0000
0100
0000
0010
0000
1000
0000
0001
0000
,
0100
0000
0000
0010
1000
0000
0001
0100
0010
0100
0001
0000
1000
0000
0000
0000
,
0110
0000
0000
1000
0001
0000
0100
0000
0010
0000
1000
0000
0100
0000
0010
0000
,
0001
0000
0000
0010
0100
0000
1000
0000
0001
0000
0100
0000
0110
0000
1001
0000
,
0201
0300
0000
0010
1000
0000
0001
0000
0100
0000
0010
0000
1000
0000
0100
0000
,
0101
0000
0000
1000
0010
0000
0100
0000
0001
1000
0010
0100
0001
0000
0000
0000
,
1020
0030
0000
0100
0010
0000
1000
0000
0100
0000
0010
0000
0001
0000
0100
0000
,
0010
0000
0000
1000
0200
0000
0020
0000
0000
0000
0330
0000
1001
0000
0110
0000
,
0101
0000
0000
0010
1000
0000
0100
0000
0020
0030
1000
0000
0010
0000
0100
0000
,
1000
0000
0000
0001
0010
0000
0200
0300
0001
0000
0100
0000
0010
0000
0001
0000
,
1000
0000
0000
0001
0100
0000
0020
0030
0001
0000
0010
0000
1000
0000
0100
0000
,
0010
0000
0000
0100
0000
0000
1000
0000
0002
0000
0200
0000
0000
0303
0000
0000
,
1020
0030
0100
0010
1000
0100
1000
0020
,
0230
0000
0000
0000
1000
0000
0000
0000
0002
0300
0000
0000
1003
0000
0000
0000
,
0110
0000
0000
0000
0001
0000
0200
0300
1000
0000
0100
0000
0001
0000
0010
0000
,
0200
0300
0001
0000
1000
0000
0020
0000
0000
0000
0031
0000
0000
0000
1000
0000
,
0010
0000
0000
0100
0001
0000
1000
0000
0010
0000
0100
0000
0001
0000
1000
0000
,
0200
0000
0000
0000
0001
0000
0000
0000
2000
0300
0000
0000
3001
0000
0000
0000
,
0110
0000
0000
0001
1000
0000
0100
0000
0010
0000
0100
0000
1000
0000
0001
0000
,
0200
0300
1000
0000
0001
0000
0020
0000
0000
0000
1030
0000
0000
0000
0100
0000
,
0010
0000
0000
0001
1000
0000
0200
0300
0001
0000
0100
0000
0010
0000
0001
0000
,
0100
0000
0020
0030
0001
0000
0010
0000
0100
0000
0002
0000
0013
0000
0000
0000
,
1200
0300
0000
0010
0001
0000
1000
0000
0001
0000
0100
0000
0010
0000
1000
0000
,
0200
0300
0001
0000
1000
0000
0010
0000
0001
0000
0100
0000
0010
0000
1000
0000
,
0100
0000
0000
1000
0001
0000
0100
0000
0010
0000
1000
0000
0100
0000
0020
0030
,
1000
0000
0010
0000
0100
0000
1000
0000
0001
0000
0200
0300
1000
0000
0001
0000
,
0010
0000
0000
1000
0010
0000
0100
0000
0001
0000
0100
0000
0010
0000
1000
0000
,
0200
0300
0001
0000
1000
0000
0020
0000
0000
0000
0031
0000
0000
0000
1000
0000
,
0001
0000
0000
0010
0000
0000
0100
0000
1000
0000
0100
0000
0010
0000
0001
0000
,
0100
0000
0000
0010
0000
0000
1000
0000
0200
0300
0001
0000
0200
0000
0000
0000
,
0000
0300
0000
1000
0000
0000
0001
0000
0010
0000
0001
0000
0100
0000
0010
0000
,
2000
0000
3000
0020
0000
0000
0002
0000
0000
0000
0000
0000
0033
0000
0000
0000
,
1200
0300
0000
0010
0001
0000
1000
0000
0100
0000
0010
0000
0001
0000
0100
0000
,
1100
0000
0000
0001
0010
0000
0100
0000
1000
0001
0010
0100
1000
0000
0000
0000
,
0021
0030
0000
0100
0010
0000
0001
0000
0100
0000
0010
0000
1000
0000
0100
0000
,
0010
0000
0000
0001
0200
0000
0020
0000
0000
0000
0330
0000
1001
0000
0110
0000
,
1100
0000
0000
0010
0001
0000
0100
0000
0020
0030
0001
0000
0010
0000
0100
0000
,
0001
0000
0000
1000
0010
0000
0200
0300
1000
0000
0100
0000
0010
0000
1000
0000
,
0001
0000
0000
1000
0100
0000
0020
0030
1000
0000
0010
0000
0001
0000
0100
0000
,
0010
0000
0000
0100
0000
0000
0001
0000
1000
0000
0010
0000
0110
0000
0101
0000
,
2000
3000
0000
0010
0100
0000
0001
0000
0100
0000
0010
0000
1000
0000
0001
0000
,
0010
0000
0000
0200
0000
0300
0001
0000
0100
0000
1000
0000
0020
0030
0001
0000
,
1000
0000
0000
0100
0000
0000
0001
0000
0010
0000
0200
0300
0001
0000
0100
0000
,
0010
0000
0000
0001
0000
0000
1000
0000
0020
0000
0200
0000
0000
0000
0000
0000
,
0330
0000
0000
0000
;
