#TITLE:CASUALTY;
#SUBTITLE:;
#ARTIST:MOTHICA;
#TITLETRANSLIT:;
#SUBTITLETRANSLIT:;
#ARTISTTRANSLIT:;
#GENRE:;
#CREDIT:RxSteps;
#MUSIC:CASUALTY.ogg;
#BANNER:CASUALTY.png;
#BACKGROUND:CASUALTY-BG.png;
#CDTITLE:cdtitle.png;
#SAMPLESTART:30.721;
#SAMPLELENGTH:22.500;
#SELECTABLE:YES;
#OFFSET:0.529;
#BPMS:0.000=96.000;
#STOPS:;
#BGCHANGES:;
#FGCHANGES:;

//--------------- dance-single - RxSteps ----------------
#NOTES:
     dance-single:
     RxSteps:
     Beginner:
     1:
     0,0,0,0,0:
0000
0000
0001
0000
,
0001
0000
0100
0000
,
0100
0000
0010
0000
,
1000
0000
0000
0000
,
1000
0000
0010
0000
,
0000
0000
0100
0000
,
0000
0000
0010
0000
,
0000
0000
0010
0000
,
0000
0000
0001
0000
,
0000
0000
1000
0000
,
0001
0000
0001
0000
,
0000
0100
0000
0000
,
0100
0000
1000
0000
,
0000
0000
1000
0000
,
0000
0000
1001
0000
,
0000
0000
0010
0000
,
0010
0000
1000
0000
,
1000
0000
0001
0000
,
0001
0000
1001
0000
,
0000
0000
0010
0000
,
0000
1000
0000
0000
,
0001
0000
0001
0000
,
0000
0000
1001
0000
,
0000
0000
0100
0000
,
0100
0000
0001
0000
,
0000
0000
0010
0000
,
0010
0000
0020
0000
,
0030
0000
0100
0000
,
0000
0000
1000
0000
,
0001
0000
1000
0000
,
0000
0000
0010
0000
,
0000
0000
0100
0000
,
0000
0000
0001
0000
,
0000
0000
0001
0000
,
0000
0000
0110
0000
,
0000
0000
1000
0000
,
1000
0000
0010
0000
,
0000
0000
0001
0000
,
0001
0000
1000
0000
,
0000
0000
0010
0000
,
0000
0100
0000
0000
,
0001
0000
0001
0000
,
0100
0000
0100
0000
,
0000
0000
1000
0000
,
0000
0000
1000
0000
,
0000
0000
0010
0000
,
0000
0000
0001
0000
,
0001
0000
0001
0000
,
0000
0000
2000
0000
,
0000
0000
0000
0000
,
3000
0000
1001
0000
,
0000
0000
0001
0000
,
1000
0000
0100
0000
,
0000
0000
1000
0000
,
0010
0000
1000
0000
,
0010
0000
1000
0000
,
1000
0000
0010
0000
,
0000
0000
0100
0000
,
0100
0000
0110
0000
,
0000
0000
1000
0000
,
0000
0001
0000
0000
,
0100
0000
0100
0000
,
0000
0000
0001
0000
;

//--------------- dance-single - RxSteps ----------------
#NOTES:
     dance-single:
     RxSteps:
     Easy:
     3:
     0,0,0,0,0:
0000
1000
0010
0010
,
1000
0001
1000
0100
,
1000
0100
1100
0000
,
1000
0000
0001
0010
,
0001
0010
0001
0001
,
1000
1000
0010
0010
,
0100
0010
2000
0000
,
0000
3000
0001
0010
,
0100
1000
0200
0300
,
2000
3000
0001
1000
,
0001
0000
0100
0000
,
0010
0000
1000
1000
,
0001
1000
0000
0010
,
0000
0100
0001
0001
,
1000
0010
1010
0000
,
1000
0000
0001
0010
,
0001
0010
0001
0000
,
0100
0000
0010
0100
,
0010
0100
0001
0001
,
1000
1000
0010
0000
,
1000
0010
1000
0100
,
0010
0001
0000
0000
,
1000
0000
1001
0000
,
0001
0000
1000
0010
,
1000
0010
0100
0000
,
0001
0000
1000
0010
,
1000
0010
2000
0000
,
3000
0000
0001
0001
,
0100
0001
0100
0010
,
1000
0010
0010
0100
,
0000
0001
1000
0100
,
1000
0100
0010
0001
,
0010
0000
0001
0010
,
0100
1000
0100
1000
,
0000
0000
0110
0000
,
0001
0000
1000
1000
,
0010
0010
0100
0000
,
0001
0000
0010
0010
,
0100
0100
1000
0001
,
0100
0001
1000
1000
,
0010
0100
0001
0100
,
0010
1000
0000
0000
,
0001
0100
0020
0000
,
0000
0000
2030
0000
,
0000
0000
3002
0000
,
0000
0000
0203
0000
,
0000
0000
0301
0100
,
0001
0010
0001
0010
,
0001
1000
0002
0000
,
0203
0000
0320
0000
,
0030
0000
1001
0000
,
1000
0100
1000
0010
,
0100
0010
1000
1000
,
0001
0001
0100
0100
,
0001
0001
1000
0100
,
0010
0001
1000
1000
,
0100
0100
1000
0001
,
0100
0010
0100
0100
,
0001
0001
2000
0000
,
3020
0030
1000
0001
,
0100
0100
0001
0100
,
0010
1000
0010
0010
,
1000
0100
0010
0000
;

//--------------- dance-single - RxSteps ----------------
#NOTES:
     dance-single:
     RxSteps:
     Medium:
     6:
     0,0,0,0,0:
0000
0000
0001
1000
0001
0000
0001
0000
,
0100
0010
0100
0000
0100
0010
1000
0000
,
0001
0010
0000
0000
0110
0000
1000
0000
,
0010
0100
0010
0000
1000
0100
0010
0000
,
0010
0001
0010
0000
1001
0000
0001
0000
,
0100
0010
0100
0000
0100
0010
1000
0000
,
0001
0000
0010
0000
0100
0000
0000
0000
2000
0000
0000
0000
0000
0000
0000
3020
,
0000
0000
0000
0000
0000
0000
0000
0200
0030
0000
0000
0000
0310
0000
0000
0000
,
1000
0000
0010
0010
0100
0000
0001
0000
,
1000
0001
1000
0010
0100
0000
0002
0000
,
0013
0000
0001
0001
1000
0001
0100
0000
,
0010
1000
0010
0000
1000
0100
0010
0001
,
1000
0000
1000
0000
0001
0010
0100
1000
,
0000
0001
0001
1000
0020
0000
0230
0000
,
0001
0000
0310
0000
1000
0100
0010
0001
,
0010
0001
0020
0000
0230
0000
0320
0000
,
0032
0000
2003
3000
0001
0010
0100
1000
,
0100
1000
0100
2000
0000
3020
0000
0230
,
0000
0301
0000
0000
0220
0000
0330
0000
,
2200
0000
3300
0000
0001
1000
0001
0000
,
0200
0000
0310
0000
1000
0100
0010
0001
,
1000
0001
1000
0000
0010
0000
1000
0020
,
0000
1030
1010
0001
,
0100
0001
0100
0000
0010
1000
0010
0000
,
1000
0001
0100
0010
0100
0000
0100
0000
,
0001
0010
0001
0000
1000
0100
1000
0100
,
1000
0100
0010
0001
2000
0000
0000
0000
,
0000
3020
0000
0000
0130
0000
0002
0000
,
0003
1000
0000
0000
1000
0000
0010
0000
,
0100
0001
0010
0100
,
1000
0000
0001
0001
1000
1000
0001
2000
,
3000
0020
1030
0010
0100
0010
0100
0002
,
0000
0000
0003
0100
0001
0100
0010
0100
,
0000
0001
1000
0100
0020
0000
0000
0031
,
0000
1000
0001
0010
0001
0010
0100
1000
,
0100
1000
0100
1000
1000
0100
0100
1000
,
1000
0001
0001
0000
2000
0000
3020
0000
,
2030
3000
0002
1003
1000
0001
0001
0100
,
0100
0001
0001
0000
0202
0000
0303
0000
,
0022
0000
0033
0000
1000
0100
1000
0000
,
0002
0000
0013
0000
0001
0010
0100
1000
,
0001
1000
0001
0000
0100
0000
0010
0100
,
0100
0010
0010
0100
0200
0000
0000
0000
,
0302
0000
2003
0000
,
3020
0000
2030
0000
,
3200
0000
0320
0000
,
0032
0000
1000
1000
,
0100
1003
0001
0010
,
0001
0001
0200
0001
,
0010
0002
0000
0303
,
2000
3000
2020
3030
,
0220
0330
0022
0033
,
0001
0010
0001
0000
1000
0000
1000
0000
,
0001
0010
0100
0000
0100
1000
0100
0000
,
0010
0001
0010
0000
0001
0010
0100
1000
,
0100
0010
0001
0000
0100
0001
0100
0000
,
0001
1000
0001
0000
1000
0100
0010
0001
,
0010
0100
1000
0000
0001
0100
0001
0000
,
0100
0010
0100
0000
2002
0000
3003
0000
,
2200
0000
3300
0000
0001
1000
0001
0000
,
0100
0000
0010
0000
1000
0100
0010
0001
,
0010
0100
1000
0000
0010
1000
0010
1000
,
0001
1000
0001
1000
0010
0000
0000
0000
;

//--------------- dance-single - RxSteps ----------------
#NOTES:
     dance-single:
     RxSteps:
     Hard:
     7:
     0,0,0,0,0:
0000
0000
0000
0000
0001
0000
0100
0010
0100
0000
0001
0000
1000
0000
0010
0100
,
0000
0010
0100
0000
0001
0000
0010
0001
0000
0010
0001
0000
1000
0000
0001
0100
,
0000
0001
0100
0000
0000
0000
0000
0000
1100
0000
0000
0000
0110
0000
0000
0000
,
0001
0000
0100
0001
1000
0000
0010
0100
0000
0010
1000
0000
0100
0000
1000
0001
,
0000
0010
0001
0000
0010
0000
0001
0000
0110
0000
0000
0000
1010
0000
0000
0000
,
1000
0000
0001
0010
0000
0001
0000
1000
0100
0000
1000
0010
0000
1000
0001
0000
,
0010
0000
0001
1000
0000
0100
1000
0100
1000
0000
0010
0100
0000
0001
0000
0100
,
0000
0001
0000
0010
0000
0001
0000
1000
0000
0100
0000
1000
0000
0010
0000
0100
,
0000
0002
0000
0000
0010
0000
0013
0000
0001
0000
0100
0001
0000
1000
0000
0100
,
0000
1000
0000
0001
0000
0010
0000
0001
0000
1000
0000
0100
0000
0010
0000
0001
,
0000
0200
0000
0000
0010
0000
0310
0000
1000
0000
0001
0000
0100
0000
0001
1000
,
0000
0010
0100
0001
0010
0001
0010
0100
,
2000
0000
0010
0000
3002
0000
0103
0000
0001
0000
1000
0000
0010
0000
0100
0010
,
0000
1000
0001
0000
0010
0000
0001
0000
0100
0000
0010
0000
1000
0000
0001
0000
,
0200
0000
0020
0330
0101
1000
0010
0100
,
0001
0010
0002
1000
0203
0010
0302
0010
,
1003
0010
0100
0001
0010
0001
0010
0100
,
1000
0010
0200
0001
0320
1000
0230
0010
,
0301
1000
0100
0010
2200
0300
0002
3003
,
0110
0000
0000
0000
0011
0000
0000
0000
1000
0000
0010
0100
0000
0001
0000
1000
,
0100
0000
0101
0000
1000
0001
0100
0010
,
1000
0000
0001
0000
0020
0000
0030
0000
0001
0000
1000
0001
0000
1000
0001
0010
,
0001
0010
0100
1000
0110
0000
0012
0000
,
1003
0000
0001
0100
0000
0001
0000
1000
0010
0000
0100
0010
0000
1000
0010
1000
,
0010
0100
0001
0010
1100
0000
2010
0000
,
3001
0000
1000
0010
0000
0100
0000
0001
1000
0000
0010
1000
0000
0001
0010
0001
,
0010
0000
0001
0000
0100
0000
0010
0000
1000
0000
0001
0000
0100
0010
0000
0000
,
0000
0000
1000
0010
1000
0010
1000
0010
0100
0000
0001
0000
0010
0001
0000
0000
,
0000
0000
1000
0001
1000
0000
0100
0000
0010
0000
0100
1000
0100
1000
0100
1000
,
0001
0000
0100
0000
0010
0100
0010
0000
1000
0000
0001
0100
0001
0200
0000
0000
,
0000
0000
0010
0301
1000
0010
0100
0020
,
0000
1000
0130
0001
0010
0001
1000
0200
,
1000
0320
0001
0130
1000
0001
0100
0002
,
0010
0103
2000
0010
0001
3100
1000
0020
,
0030
0100
0001
0010
1100
0001
0100
0010
,
1000
0100
2000
0001
3020
0100
2030
0100
,
3001
0100
0010
1000
0100
1000
0100
0010
,
0001
0100
0020
1000
0230
0001
0320
0100
,
1030
0001
0010
0100
0022
0030
2000
3003
,
0110
0000
0000
0000
1100
0000
0000
0000
0001
0000
0100
0010
0000
1000
0000
0001
,
0010
0000
1010
0000
0001
1000
0010
0100
,
0001
0000
1000
0000
0200
0000
0300
0000
1000
0000
0001
1000
0000
0001
1000
0100
,
1000
0100
0010
0001
2000
0000
3020
0000
,
0200
0000
0300
0000
2000
0030
0000
0000
0200
3000
0000
0000
0020
0000
0300
0000
,
0002
0003
0200
0330
2000
0000
0020
3000
,
0200
0000
0300
0000
2030
0000
0000
0000
3002
0000
0003
0000
0010
0000
0001
1000
,
0001
0000
0010
0000
0100
0000
1000
0000
0020
0000
0000
0000
0200
0030
0000
0000
,
0002
0300
0000
0000
0010
0000
0003
0000
0001
0000
1000
0001
0000
1000
0000
0010
,
0100
0000
0000
0000
1100
0000
0000
0000
0001
0000
0000
0020
0000
0000
0100
0000
,
0030
1000
0000
0000
0020
0000
0000
0000
0100
0000
0000
0000
1030
0000
0010
0100
,
0010
1000
0100
0010
1001
0000
0110
0000
,
0001
0000
0010
0001
0000
0010
0000
0001
1000
0000
0010
0100
0000
0010
0000
1000
,
0001
0000
0100
0001
0000
0010
0000
0002
1000
0000
0000
0000
0013
0000
0000
0001
,
0000
0100
0001
0000
0100
0000
0010
1000
0000
0001
0100
0000
0001
0000
1000
0100
,
0000
1000
0010
0000
1000
0000
0001
0000
0010
0000
0001
0000
0010
0000
0100
0000
,
1000
0010
2000
0001
3200
0010
2300
0010
,
3001
0010
0100
1000
0010
1000
0010
0100
,
0001
0010
0200
1000
0320
0001
0230
0010
,
1300
0001
0100
0010
0202
0300
2000
3003
,
0110
0000
0000
0000
1010
0000
0000
0000
0001
0000
0010
0100
0000
1000
0000
0001
,
0100
0000
1100
0000
0001
1000
0100
0010
,
0001
0000
1000
0000
0020
0000
0030
0000
1000
0000
0001
1000
0000
0001
1000
0010
,
1000
0010
0100
0001
2000
0000
3000
0000
;
