#TITLE:Body Language;
#SUBTITLE:;
#ARTIST:Grafix;
#TITLETRANSLIT:;
#SUBTITLETRANSLIT:;
#ARTISTTRANSLIT:;
#GENRE:;
#CREDIT:RxSteps;
#MUSIC:Body Language.ogg;
#BANNER:Body Language.png;
#BACKGROUND:Body Language-bg.png;
#CDTITLE:cdtitle.png;
#SAMPLESTART:52.441;
#SAMPLELENGTH:24.828;
#SELECTABLE:YES;
#OFFSET:1.352;
#BPMS:0.000=174.000;
#STOPS:;
#BGCHANGES:;
#FGCHANGES:;

//--------------- dance-single - RxSteps ----------------
#NOTES:
     dance-single:
     RxSteps:
     Beginner:
     4:
     0,0,0,0,0:
0000
0000
0000
0000
,
1000
0000
0001
0000
,
0100
0000
0000
0000
,
0100
0000
0001
0000
,
1000
0000
0000
0000
,
0010
1000
0010
0000
,
0100
0000
0000
0000
,
0001
0000
0010
0000
,
0100
0000
0000
0000
,
0100
1000
0100
0000
,
1000
0000
0001
0000
,
1000
0010
1000
0000
,
0001
0000
0010
0000
,
0001
0010
0001
0000
,
1000
0000
0100
0000
,
0100
1000
0100
0000
,
1000
0000
0001
0000
,
0100
0000
0000
0000
,
0010
0000
0100
0000
,
0010
0000
0000
0000
,
1000
0000
0001
0000
,
1000
0010
1000
0000
,
0001
0000
0100
0000
,
0100
0000
0001
0000
,
0010
0001
0000
0000
,
0001
0000
1000
0000
,
0010
1000
0000
0000
,
0001
0100
0001
0000
,
1000
0010
0000
0000
,
0010
1000
0010
0000
,
0100
0001
0100
0000
,
0100
0000
0001
0000
,
1000
0001
0000
0000
,
1000
0010
1000
0010
,
0000
0100
0000
0100
,
0000
0001
0100
0001
,
0000
0100
0000
0100
,
0000
0000
0010
0000
,
1000
0010
1000
0000
,
1000
0000
0001
0000
,
0100
0001
0100
0001
,
0100
0000
0010
0000
,
1000
0000
0010
0000
,
0010
1000
0010
0000
,
0100
0000
0001
0000
,
0001
0100
0001
0000
,
1000
0000
0010
0000
,
0010
1000
0010
0000
,
0100
0001
0000
0000
,
1000
0100
1000
0000
,
0001
0010
0001
0000
,
0001
0010
0001
0000
,
1000
0000
0010
0000
,
0010
1000
0010
0000
,
0100
0000
0001
0000
,
0001
0000
1000
0000
,
0100
1000
0000
0000
,
0001
0000
0100
0000
,
0010
0100
0010
0000
,
1000
0000
0001
0000
,
0010
0001
0010
0000
,
0010
0001
0010
0000
,
0100
1000
0100
0000
,
0010
0000
0001
0000
,
0010
0001
0000
0000
,
1000
0010
1000
0010
,
0000
0100
0000
0100
,
0001
0100
0001
0100
,
0000
0010
0000
0010
,
1000
0010
1000
0000
,
0001
0000
0100
0000
,
0100
0000
0001
0000
,
1000
0010
1000
0010
,
1000
0000
0001
0000
,
1000
0000
0100
0000
,
0100
1000
0100
0000
,
0010
0000
0001
0000
,
0001
0010
0001
0000
,
1000
0000
0100
0000
,
0100
1000
0100
0000
,
0010
0001
0000
0000
,
1000
0000
0000
0000
,
0001
0000
0100
0000
,
0001
0000
0100
0010
,
0100
0010
0100
0000
,
0001
0000
0000
0000
,
0100
0000
0001
0000
,
0100
0000
0000
0000
,
0100
0000
0001
0000
,
1000
0000
0000
0000
,
1000
0000
0001
0000
,
0001
0000
0100
0001
,
0100
0001
0100
0000
,
0010
0000
0000
0000
,
0010
0000
1000
0000
,
0001
0000
0000
0000
,
0001
0000
0010
0000
,
0100
0000
0000
0000
,
0100
1000
0000
0000
,
0001
0000
0000
0000
,
1000
0001
0000
0000
,
0100
0000
0000
0000
,
0010
0100
0010
0000
,
0010
0000
1000
0000
,
0010
1000
0000
0000
,
0001
0100
0001
0100
,
0000
0010
0000
0010
,
0000
1000
0010
1000
,
0000
0010
0000
0010
,
0000
0000
0100
0000
,
0001
0100
0001
0000
,
0001
0000
1000
0000
,
0010
1000
0010
1000
,
0010
0000
0100
0000
,
0001
0000
0100
0000
,
0100
0001
0100
0000
,
0010
0000
1000
0000
,
1000
0010
1000
0000
,
0001
0000
0100
0000
,
0100
0001
0100
0000
,
0010
1000
0000
0000
,
0001
0010
0001
0000
,
1000
0010
1000
0000
,
1000
0010
1000
0000
,
0001
0000
0100
0000
,
0100
0001
0100
0000
,
0010
0000
1000
0000
,
1000
0000
0001
0000
,
0010
0001
0000
0000
,
1000
0100
1000
0100
,
0000
0010
0000
0010
,
0001
0010
0001
0010
,
0000
0100
0000
0100
,
1000
0100
1000
0100
,
0000
0010
0000
0010
,
0001
0010
0001
0000
,
1000
0000
0010
0000
,
0010
1000
0010
1000
,
0000
0010
0000
0100
,
0001
0100
0001
0100
,
0000
0001
0000
0001
,
0100
0001
0000
1000
,
0010
1000
0010
0000
,
0010
1000
0010
0000
,
0100
0001
0200
0000
,
0300
0000
0000
0000
;

//--------------- dance-single - RxSteps ----------------
#NOTES:
     dance-single:
     RxSteps:
     Easy:
     7:
     0,0,0,0,0:
0000
0000
0000
0000
,
1000
0001
0100
0001
,
1000
0010
0000
0010
,
1000
0100
0010
0001
,
1000
0001
0000
0100
,
0010
0000
1000
0010
1000
0000
0001
1000
,
0001
0100
0000
0100
,
0001
0000
0010
0000
0001
0000
1000
0001
,
1000
0010
0000
0010
,
1000
0000
0010
0000
0100
0000
0001
0100
,
0001
0100
0010
1000
,
0100
0000
1000
0000
0001
0000
0010
0001
,
0010
0001
1000
0010
,
0100
0000
0010
0000
1000
0000
0001
1000
,
0001
0100
0010
0000
,
0010
0000
0100
0000
0001
0000
0100
0001
,
0100
0010
1000
0010
,
0100
0000
0001
0000
0000
0100
0000
0000
,
0010
1000
0010
0100
,
0001
0000
1000
0000
0000
0010
0000
0000
,
0100
0010
1000
0010
,
0100
0000
0001
0000
1000
0000
0100
1000
,
0100
1000
0010
0000
,
0010
0000
1000
0000
0001
0000
0100
0001
,
0100
0001
0010
0100
,
1000
1000
0100
0010
,
0001
1000
0000
1000
,
0010
0000
0100
0000
0001
0000
0100
0001
,
0100
0010
1000
0010
,
0100
0000
0001
0000
1000
0000
0010
0100
,
0010
1000
0001
0000
,
0001
0000
1000
0000
0001
0000
0010
0001
,
0010
0001
1000
0010
,
0010
1000
1000
0001
,
0000
0001
0010
0100
,
1000
0001
1000
0010
,
0000
0010
1000
0001
,
0100
0010
1000
0001
,
1000
0100
0010
0000
,
0010
0000
0001
0000
0010
0000
0100
1000
,
0100
0010
0001
1000
,
0010
0100
0010
0000
1000
0000
0010
0000
,
0100
0001
0100
0100
,
0010
1000
0001
0100
,
0010
1000
0010
0010
,
1000
0001
0010
0100
,
0010
0001
1000
1000
,
0001
0000
0010
0000
0100
0000
1000
0100
,
1000
0002
0003
0000
,
0100
0001
0010
0001
,
1000
0001
1000
0000
0010
0000
0010
0000
,
1000
0001
0100
0010
,
1000
0001
0100
0001
,
1000
0000
0001
0000
0100
0000
0010
0100
,
0010
0100
0001
0000
,
0001
0000
0100
0000
0010
0000
1000
0010
,
1000
0000
0020
0000
0000
0030
0000
0000
,
1000
0100
0010
0001
,
1000
0001
0100
0001
,
1000
0100
0010
0001
,
1000
0100
1000
0001
,
1000
0010
0100
0010
,
1000
0001
0100
0000
,
0100
0000
0001
0000
1000
0000
0010
0100
,
0010
0000
2000
0000
0000
3000
0000
0000
,
0001
0100
0100
0010
,
0000
1000
0010
1000
,
0010
0100
0100
0001
,
1000
0010
1000
0010
,
0100
0000
0010
0100
0010
0000
0100
0000
,
0001
0010
0100
0000
,
0100
0000
0010
0000
0001
0000
1000
0001
,
1000
0002
0003
0000
,
1000
0010
1000
0000
0001
0000
0100
0000
,
0010
1000
0010
0010
,
0100
0001
1000
0010
,
0100
0001
0100
0100
,
0001
1000
0100
0010
,
0100
1000
0001
0001
,
1000
0000
0100
0000
0010
0000
0001
0010
,
0001
1000
0010
0000
,
0010
0000
0100
0000
,
0001
0000
0010
0000
,
0010
0000
0001
0010
,
0001
0010
0001
0000
,
0100
0000
0010
0000
,
1000
0000
0100
0000
,
1000
0000
0010
0000
0000
1000
0000
0000
,
0001
0000
0010
0000
,
0001
0000
1000
0000
,
0010
0000
0100
0000
,
0001
0000
1000
0010
,
1000
0010
0100
0000
,
0001
1000
0010
1000
,
0100
0010
0001
0000
,
1000
0000
0001
0000
0000
0100
0000
0000
,
0001
0000
1000
0000
,
0010
1000
0001
0000
,
0100
0001
0000
0001
,
0100
0010
1000
0010
,
0100
0001
0000
0001
,
1000
0100
0010
0001
,
1000
0001
0100
0000
,
0100
0001
0010
0100
,
1000
0001
0000
0000
,
0001
1000
1000
0001
,
0000
0001
0100
0010
,
1000
0001
1000
0100
,
0000
0100
1000
0001
,
0010
0100
1000
0001
,
1000
0010
0100
0000
,
0100
0000
0001
0000
0100
0000
0010
1000
,
0010
0100
0001
1000
,
0100
0010
0100
0000
1000
0000
0100
0000
,
0010
0001
0010
0010
,
0100
1000
0001
0010
,
0100
1000
0100
0100
,
1000
0001
0100
0010
,
0100
0001
1000
1000
,
0001
0000
0100
0000
0010
0000
1000
0010
,
1000
0002
0003
0000
,
0010
0001
0100
0001
,
0010
0001
0010
0000
0100
0000
0100
0000
,
1000
0001
0010
0100
,
1000
0001
0010
0010
,
0100
1000
0001
0100
,
0010
1000
0001
0000
,
0001
0000
1000
0000
0100
0000
1000
0100
,
1000
0000
0200
0000
0000
0300
0000
0000
,
1000
0010
0100
0001
,
1000
0001
0000
0001
,
1000
0010
0100
0001
,
1000
0010
0000
0010
,
1000
0001
0010
0100
,
1000
0100
0000
0100
,
0010
0001
1000
0010
,
0100
0010
2000
3000
,
0001
0010
0010
0100
,
0000
0100
1000
0001
,
0010
0100
0100
1000
,
0001
0100
0001
1000
,
0100
0000
0010
0100
0010
0000
0100
0000
,
1000
0010
0100
0000
,
0100
0000
0010
0000
1000
0000
0001
1000
,
0001
2000
0200
0000
,
3300
0000
0000
0000
;

//--------------- dance-single - RxSteps ----------------
#NOTES:
     dance-single:
     RxSteps:
     Medium:
     9:
     0,0,0,0,0:
0000
0000
0000
0000
,
0001
1000
0100
1000
,
0020
0100
0030
0100
,
0010
1000
0100
0010
,
0002
1000
0003
1000
,
0001
0000
0000
0000
0100
0000
0020
0000
0100
0030
0000
0000
0100
0000
0010
0000
,
1000
0100
0010
0100
,
0010
0000
0000
0000
0002
0000
0000
0000
1000
0003
0000
0000
1000
0000
0010
0000
,
0100
0001
1000
0100
,
0010
0000
0100
0000
1000
0000
0002
0000
0100
0003
0000
0000
0100
0000
0010
0000
,
1000
0000
0100
0000
0010
0001
1000
0000
,
0010
0000
0000
0000
0100
0000
0002
0000
0010
0003
0000
0000
0010
0000
0001
0000
,
1000
0000
0010
0000
0100
0010
1000
0000
,
0001
0000
0000
0000
0010
0000
0200
0000
1000
0300
0000
0000
1000
0000
0100
0000
,
0010
0001
0100
0010
,
0100
0000
0001
0000
1000
0000
0100
0020
,
0001
0030
0100
0000
1000
0010
0100
0000
,
0001
0000
0020
0000
0000
0100
0030
0000
,
0001
0000
1000
0000
0010
0100
0001
0000
,
1000
0000
0200
0000
0000
0010
0300
0000
,
1000
0000
0001
0000
0010
0001
1000
0000
,
0010
0000
0000
0000
0100
0000
0002
0000
0010
0003
0000
0000
0010
0000
0001
0000
,
1000
0020
0100
0030
,
0100
0000
0001
0000
0010
0000
0100
1000
,
0010
0000
0100
0000
0010
1000
0100
0000
,
0201
0300
0010
0000
1000
0000
0002
0000
0010
0003
0000
0000
0010
0000
0001
0000
,
1000
0000
0010
0000
0100
0010
1000
0000
,
0100
0000
0010
0000
0001
0000
0100
0010
,
0100
0000
0001
0000
1000
0010
0100
0000
,
0001
0000
0000
0000
1000
0000
0020
0000
0100
0030
0000
0000
0100
0000
0001
0000
,
0010
0001
0010
0100
,
1000
0000
0001
0000
1000
0000
0100
1000
,
0001
0000
0010
0000
0100
0020
0031
0000
,
1020
0000
0100
0030
1000
0000
0001
0000
,
0020
0000
0100
0030
0001
0000
1000
0000
,
0001
0100
0010
0000
1000
0000
0100
0000
,
0020
0000
0001
0030
0100
1000
0100
0000
,
0010
0000
0000
0000
0001
0000
0200
0000
0010
0300
0000
0000
0010
0000
1000
0000
,
0001
0010
0100
1000
,
0100
0000
1000
0000
0001
0000
0100
0010
,
1000
0010
0100
0001
1000
0010
0100
0001
,
0010
0001
0010
0100
1000
0010
1000
0100
,
0010
0000
0100
0000
0010
0000
0002
0000
1000
0003
0000
0000
0010
0000
0200
0000
,
1000
0300
0010
0001
1000
0010
1000
0001
,
0010
0100
0010
0100
2000
3000
0001
0100
,
0010
1000
0010
0100
0001
1000
0010
0100
,
0010
1000
0100
0020
0001
0030
0100
2000
,
0001
3000
0100
0010
0001
1000
0001
0010
,
0100
0010
0001
0100
0010
1000
0100
0020
,
0031
0000
0000
0000
1020
0030
0100
0000
0001
0000
1000
0000
0010
0000
0100
0000
,
0001
0010
0001
1000
0200
0300
0010
0001
,
1000
0001
0010
0001
1000
0010
0100
0001
,
1000
0000
0100
0000
0010
0000
0002
0000
1000
0003
0000
0000
0010
0000
0200
0000
,
1000
0000
0300
0000
0010
0000
0002
0000
1000
0003
0000
0000
1000
0000
0001
0000
,
0100
0010
1000
0100
0010
0100
1000
0001
,
0200
0300
0010
0000
1000
0000
0100
0010
,
0200
0000
2000
0000
0000
3300
0000
0000
,
0201
0300
0010
0000
1000
0000
0100
0000
0010
0000
0001
0000
1000
0000
0010
0000
,
0100
0010
1000
0001
0100
0010
0100
0001
,
1000
0100
0010
0001
1000
0001
0010
0100
,
1000
0010
0100
0010
1000
0001
0100
0010
,
0100
0000
0001
0000
1000
0000
0200
0000
0010
0300
0000
0000
0010
0000
0001
0000
,
1000
0000
0100
0000
0010
0000
0001
0000
0020
0000
0000
0000
0000
0030
0000
0000
,
0100
1000
0100
0010
0001
0100
0001
0010
,
0100
1000
0001
1000
0001
0010
0100
0020
,
0031
0000
0000
0000
1200
0300
0010
0000
0001
0000
0020
0000
0130
0000
0000
0000
,
1001
0110
0021
0130
,
0201
0300
0010
0000
1000
0000
0010
0000
0100
0000
0002
0000
0010
0003
0000
0000
,
0010
0100
1000
0100
0010
0100
1000
0100
,
0010
0000
0001
0000
1000
0000
0020
0000
0100
0030
0000
0000
0100
0000
0010
0000
,
1000
0001
0100
0010
2000
0000
3000
0000
,
1000
0000
0010
0000
1000
0000
0001
0010
,
0001
0000
1000
0000
0100
0010
0001
0100
,
0010
1000
0100
0010
0001
0100
0001
0010
,
0100
0000
0010
0000
0100
0000
2000
0000
0001
3000
0000
0000
0100
0000
0020
0000
,
0001
0030
0100
1000
0001
0100
0001
1000
,
0100
0010
0100
0010
0002
0003
1000
0010
,
0100
0001
0100
0010
1000
0001
1000
0010
,
0100
0001
0010
0200
1000
0300
0010
0002
,
1000
0003
0010
0000
0001
0000
0100
0010
,
0100
0001
0020
0000
,
0031
0000
0010
0000
0100
1000
0100
0010
,
0001
0000
1000
0000
0020
0000
0030
0100
,
0000
0000
0000
0000
0001
0000
0000
0000
0010
0000
0200
0000
1000
0300
0000
0000
,
1000
0100
0020
0000
0001
0030
0000
0100
,
1000
0000
0001
0000
0100
0010
0100
0001
,
1000
0000
0200
0000
0010
0300
0000
0010
,
0100
0000
1000
0001
0000
0100
0010
0000
,
0100
0001
0020
0000
0100
0000
0030
0001
,
0010
0000
0100
1000
0010
0100
0001
0100
,
0001
0000
1000
0000
0200
0000
0300
0010
,
0001
0000
0000
0000
1000
0000
0000
0000
0010
0000
2000
0000
0100
3000
0000
0000
,
0100
1000
0020
0000
0100
0000
0030
1000
,
0010
0000
0100
0001
0010
0100
0010
0100
,
1000
0000
0002
0000
0010
0000
0003
0100
,
0001
0000
1000
0010
0000
0100
0001
0000
,
1000
0100
0020
0000
0001
0000
0030
0100
,
1000
0001
0100
0010
1000
0000
0100
0010
,
0001
0000
1000
0000
0010
0100
0001
0000
,
0010
0000
0001
0000
1000
0000
0100
0010
,
0001
0000
1000
0000
0010
1000
0100
0000
,
0010
0000
0000
0000
0100
0000
2000
0000
0001
3000
0000
0000
0001
0000
1000
0000
,
0010
0100
0002
0003
,
0010
0000
0100
0000
1000
0000
0001
0010
,
0001
0000
1000
0000
0001
0020
0130
0000
,
1002
0003
0100
0000
0200
0300
0020
0000
,
1000
0000
0100
0030
2000
3000
0100
0000
,
0010
0001
0010
0000
0100
0000
1000
0000
,
0010
0000
0100
0000
0010
0100
0001
0000
,
0010
0000
0001
0000
1000
0000
0020
0000
0100
0030
0000
0000
0100
0000
0001
0000
,
0010
0000
0200
0000
1000
0300
0010
0000
,
0001
0000
1000
0000
0010
0000
0100
0001
,
0100
0000
0010
0000
0100
0001
0010
0000
,
1100
0001
0010
0100
1000
0100
1000
0010
,
0100
0000
0010
0000
0100
0000
0002
0000
1000
0003
0000
0000
0100
0000
0020
0000
,
1000
0030
0100
0001
1000
0100
1000
0001
,
0100
0010
0100
0010
2000
3000
0001
0010
,
0100
0010
0001
1000
0001
0100
0010
1000
,
0100
1000
0001
0200
0001
0300
0010
2000
,
0001
3000
0010
0100
0001
1000
0001
0100
,
0010
0100
0001
0010
0100
1000
0010
0200
,
0301
0000
0000
0000
1200
0300
0010
0000
0001
0000
1000
0000
0100
0000
0010
0000
,
0001
0100
0001
1000
0020
0030
0100
0001
,
1000
0001
0100
0001
1000
0100
0010
0001
,
1000
0000
0010
0000
0100
0000
0002
0000
1000
0003
0000
0000
0100
0000
0020
0000
,
1000
0000
0030
0000
0100
0000
0002
0000
1000
0003
0000
0000
1000
0000
0001
0000
,
0010
0100
1000
0001
0100
0001
1000
0001
,
0020
0030
0100
0000
1000
0000
0010
0100
,
0020
0000
2000
0000
0000
3030
0000
0000
,
0011
0000
0000
0000
1200
0300
0010
0000
0001
0000
0200
0000
0310
0000
0000
0000
,
1001
0110
1200
0310
,
1020
0030
0100
0000
0001
0000
0100
0000
0010
0000
2000
0000
0100
3000
0000
0000
,
0100
0010
0001
0010
0100
0010
0001
0010
,
0100
0000
1000
0000
0001
0000
0200
0000
0010
0300
0000
0000
0010
0000
0100
0000
,
0001
1000
0010
0100
0001
1000
0100
1000
,
0001
0100
0010
0100
0001
0010
0100
1000
,
0100
0010
0001
1000
0001
1000
0010
1000
,
0100
0010
0001
1000
0010
0100
0010
2000
,
3001
0110
0201
0310
,
0021
0030
0100
0000
1000
0000
0100
0000
0010
0000
0002
0000
0013
0000
0000
0000
,
1010
0011
0110
1001
,
1200
0300
0010
0000
0001
0000
0200
0000
0010
0300
0000
0000
0010
0000
0100
0000
,
0001
1000
0001
0010
0200
0000
1000
0300
,
0010
0000
0001
0000
1000
0000
0001
0100
,
0001
1000
0200
0020
,
0000
0000
0330
0000
;

//--------------- dance-single - RxSteps ----------------
#NOTES:
     dance-single:
     RxSteps:
     Hard:
     10:
     0,0,0,0,0:
0000
0000
0000
0000
,
0001
1000
0100
1000
,
0020
0100
0030
0100
,
0010
1000
0100
0010
,
0002
1000
0003
1000
,
0001
0000
0000
0000
0100
0000
0020
0000
0100
0030
0000
0000
0100
0000
0010
0000
,
1000
0100
0010
0100
,
0010
0000
0000
0000
0002
0000
0000
0000
1000
0003
0000
0000
1000
0000
0010
0000
,
0100
0001
1000
0100
,
0010
0000
0100
0000
1000
0000
0002
0000
0100
0003
0000
0000
0100
0000
0010
0000
,
1000
0000
0100
0000
0010
0001
1000
0000
,
0010
0000
0000
0000
0100
0000
0002
0000
0010
0003
0000
0000
0010
0000
0001
0000
,
1000
0000
0010
0000
0100
0010
1000
0000
,
0001
0000
0000
0000
0010
0000
0200
0000
1000
0300
0000
0000
1000
0000
0100
0000
,
0010
0000
0001
0000
0200
0300
1000
0000
,
0100
0000
0001
0000
1000
0000
0100
0020
,
0001
0030
0100
0000
1000
0010
0100
0000
,
0001
0000
0020
0000
0000
0100
0030
0000
,
0001
0000
1000
0000
0010
0100
0001
0000
,
1000
0000
0200
0000
0000
0010
0300
0000
,
1000
0000
0001
0000
0010
0001
1000
0000
,
0010
0000
0000
0000
0100
0000
0002
0000
0010
0003
0000
0000
0010
0000
0001
0000
,
1000
0000
0000
0000
0200
0000
0000
0300
0001
0000
0000
0000
0100
0000
0000
0000
,
1000
0000
0001
0000
0010
0000
0100
1000
,
0010
0000
0100
0000
0010
1000
0100
0000
,
0201
0300
0010
0000
1000
0000
0002
0000
0010
0003
0000
0000
0010
0000
0001
0000
,
1000
0000
0010
0000
0100
0010
1000
0000
,
0100
0000
0000
0000
0010
0000
0000
0000
0001
0000
0000
0000
0200
0300
1000
0000
,
0100
0000
0001
0000
1000
0010
0100
0000
,
0001
0000
0000
0000
1000
0000
0020
0000
0100
0030
0000
0000
0200
0300
1000
0000
,
0100
0001
0010
0100
,
1000
0000
0001
0000
1000
0000
0100
1000
,
0001
0000
0010
0000
0100
0020
0031
0000
,
1020
0000
0100
0030
1000
0000
0001
0000
,
0020
0000
0100
0030
0001
0000
1000
0000
,
0001
0100
0010
0000
1000
0000
0100
0000
,
0020
0000
0001
0030
0100
1000
0100
0000
,
0010
0000
0000
0000
0001
0000
0200
0300
0010
0000
0000
0000
0020
0030
0001
0000
,
0010
0000
0000
0000
1000
0000
0000
0000
0200
0000
0000
0300
0001
0000
0000
0000
,
0100
0000
1000
0000
0001
0000
0100
0010
,
1000
0010
0100
0001
1000
0010
0100
0001
,
0010
0001
0010
0100
1000
0010
1000
0100
,
0010
0000
0100
0000
0010
0000
0002
0000
1000
0003
0000
0000
0010
0000
0200
0000
,
1000
0300
0010
0001
1000
0010
1000
0001
,
0010
0100
0010
0100
2000
3000
0001
0100
,
0010
0000
0200
0300
1000
0000
0100
0000
0001
0000
0200
0300
1000
0000
0100
0000
,
0010
1000
0100
0020
0001
0030
0100
2000
,
0001
3000
0100
0010
0001
1000
0001
0010
,
0100
0010
0001
0100
0010
1000
0100
0020
,
0031
0000
0000
0000
1020
0030
0100
0000
0001
0000
1000
0000
0010
0000
0100
0000
,
0001
0010
0001
1000
0200
0300
0010
0001
,
1000
0001
0010
0001
1000
0010
0100
0001
,
1000
0000
0100
0000
0010
0000
0002
0000
1000
0003
0000
0000
0010
0000
0200
0000
,
1000
0000
0300
0000
0010
0000
0002
0000
1000
0003
0000
0000
1000
0000
0001
0000
,
0100
0000
0010
0000
1000
0000
0200
0300
0001
0000
0100
0000
1000
0000
0001
0000
,
0200
0000
0300
0000
0010
0000
0000
0000
1000
0000
0000
0000
0200
0300
0001
0000
,
0200
0000
2000
0000
0000
3300
0000
0000
,
0201
0300
0010
0000
1000
0000
0100
0000
0010
0000
0001
0000
1000
0000
0020
0030
,
0001
0010
1000
0001
0100
0010
0100
0001
,
1000
0100
0010
0001
1000
0001
0010
0100
,
1000
0000
0200
0300
0001
0000
0100
0000
1000
0000
0010
0000
0100
0000
0001
0000
,
0100
0000
0010
0000
1000
0000
0200
0000
0010
0300
0000
0000
0010
0000
0001
0000
,
1000
0000
0100
0000
0010
0000
0001
0000
0020
0000
0000
0000
0000
0030
0000
0000
,
0100
1000
0100
0010
0001
0100
0001
0010
,
0100
1000
0001
1000
0001
0010
0100
0020
,
0031
0000
0000
0000
1200
0300
0010
0000
0001
0000
0020
0000
0130
0000
0000
0000
,
1001
0110
0021
0130
,
0201
0300
0010
0000
1000
0000
0010
0000
0100
0000
0002
0000
0010
0003
0000
0000
,
0010
0100
1000
0100
0010
0100
1000
0100
,
0010
0000
0001
0000
1000
0000
0020
0000
0100
0030
0000
0000
0100
0000
0010
0000
,
1000
0001
0100
0010
2000
0000
3000
0000
,
1000
0000
0000
0000
0010
0000
0000
0000
1000
0000
0000
0000
0200
0300
0001
0000
,
0100
0000
1000
0000
0100
0010
0001
0100
,
0010
1000
0100
0010
0001
0100
0001
0010
,
0100
0000
0010
0000
0100
0000
2000
0000
0001
3000
0000
0000
0100
0000
0020
0000
,
0001
0030
0100
1000
0001
0100
0001
1000
,
0100
0010
0100
0010
0002
0003
1000
0010
,
0100
0000
0020
0030
0001
0000
0010
0000
1000
0000
0020
0030
0001
0000
0010
0000
,
0100
0001
0010
0200
1000
0300
0010
0002
,
1000
0000
0003
0000
0010
0000
0000
0000
0001
0000
0000
0000
0200
0300
1000
0000
,
0100
0001
0020
0000
,
0031
0000
0010
0000
0100
1000
0100
0010
,
0001
0000
1000
0000
0020
0000
0030
0100
,
0000
0000
0000
0000
0001
0000
0000
0000
0010
0000
0200
0000
1000
0300
0000
0000
,
1000
0100
0020
0000
0001
0030
0000
0100
,
1000
0000
0001
0000
0100
0010
0100
0001
,
1000
0000
0200
0000
0010
0300
0000
0010
,
0100
0000
1000
0001
0000
0100
0010
0000
,
0100
0001
0020
0000
0100
0000
0030
0001
,
0010
0000
0100
1000
0010
0100
0001
0100
,
0001
0000
1000
0000
0200
0000
0300
0010
,
0001
0000
0000
0000
1000
0000
0000
0000
0010
0000
2000
0000
0100
3000
0000
0000
,
0100
1000
0020
0000
0100
0000
0030
1000
,
0010
0000
0100
0001
0010
0100
0010
0100
,
1000
0000
0002
0000
0010
0000
0003
0100
,
0001
0000
1000
0010
0000
0100
0001
0000
,
1000
0100
0020
0000
0001
0000
0030
0100
,
1000
0001
0100
0010
1000
0000
0100
0010
,
0001
0000
1000
0000
0010
0100
0001
0000
,
0010
0000
0001
0000
1000
0000
0100
0010
,
0001
0000
1000
0000
0010
1000
0100
0000
,
0010
0000
0000
0000
0100
0000
2000
0000
0001
3000
0000
0000
0001
0000
1000
0000
,
0010
0100
0002
0003
,
0010
0000
0000
0000
0100
0000
0000
0000
1000
0000
0000
0000
0200
0300
0001
0000
,
0100
0000
1000
0000
0001
0020
0130
0000
,
1002
0003
0100
0000
0200
0300
0020
0000
,
1000
0000
0100
0030
2000
3000
0100
0000
,
0010
0001
0010
0000
0100
0000
1000
0000
,
0020
0000
0031
0000
0010
0100
0001
0000
,
0010
0000
0001
0000
1000
0000
0020
0000
0100
0030
0000
0000
0100
0000
0001
0000
,
0010
0000
0200
0000
1000
0300
0010
0000
,
0001
0000
0000
0000
1000
0000
0000
0000
0010
0000
0000
0000
0200
0300
1000
0000
,
0100
0000
0010
0000
0100
0001
0010
0000
,
1100
0001
0010
0100
1000
0100
1000
0010
,
0100
0000
0010
0000
0100
0000
0002
0000
1000
0003
0000
0000
0100
0000
0020
0000
,
1000
0030
0100
0001
1000
0100
1000
0001
,
0100
0010
0100
0010
2000
3000
0001
0010
,
0100
0000
0020
0030
1000
0000
0010
0000
0001
0000
0020
0030
1000
0000
0010
0000
,
0100
1000
0010
0200
0001
0300
0010
2000
,
0001
3000
0010
0100
0001
1000
0001
0100
,
0010
0100
0001
0010
0100
1000
0010
0200
,
0301
0000
0000
0000
1200
0300
0010
0000
0001
0000
1000
0000
0100
0000
0010
0000
,
0001
0100
0001
1000
0020
0030
0100
0001
,
1000
0001
0100
0001
1000
0100
0010
0001
,
1000
0000
0010
0000
0100
0000
0002
0000
1000
0003
0000
0000
0100
0000
0020
0000
,
1000
0000
0030
0000
0100
0000
0002
0000
1000
0003
0000
0000
1000
0000
0001
0000
,
0010
0000
0100
0000
1000
0000
0020
0030
0001
0000
0010
0000
1000
0000
0001
0000
,
0020
0000
0030
0000
0100
0000
0000
0000
1000
0000
0000
0000
0020
0030
0001
0000
,
0020
0000
2000
0000
0000
3030
0000
0000
,
0011
0000
0000
0000
1200
0300
0010
0000
0001
0000
0200
0000
0310
0000
0000
0000
,
1001
0110
1200
0310
,
1020
0030
0100
0000
0001
0000
0100
0000
0010
0000
2000
0000
0100
3000
0000
0000
,
0100
0010
0001
0010
0100
0010
0001
0010
,
0100
0000
1000
0000
0001
0000
0200
0000
0010
0300
0000
0000
0010
0000
0100
0000
,
0001
0000
1000
0000
0010
0000
0100
0000
0001
0000
0200
0300
1000
0000
0100
0000
,
0001
0100
0010
0100
0001
0010
0100
1000
,
0100
0010
0001
1000
0001
1000
0010
1000
,
0100
0010
0001
1000
0010
0100
0010
2000
,
3001
0110
0201
0310
,
0021
0030
0100
0000
1000
0000
0100
0000
0010
0000
0002
0000
0013
0000
0000
0000
,
1010
0011
0110
1001
,
1200
0300
0010
0000
0001
0000
0200
0000
0010
0300
0000
0000
0010
0000
0200
0300
,
1000
0100
0001
0010
0200
0000
1000
0300
,
0010
0000
0000
0000
0001
0000
0000
0000
1000
0000
0000
0000
0020
0030
0001
0000
,
0010
1000
0200
0002
,
0000
0000
0303
0000
;
