#TITLE:Bee-Sting;
#SUBTITLE:;
#ARTIST:The Wombats;
#TITLETRANSLIT:;
#SUBTITLETRANSLIT:;
#ARTISTTRANSLIT:;
#GENRE:;
#CREDIT:RxSteps;
#MUSIC:Bee-Sting.ogg;
#BANNER:Bee-Sting.png;
#BACKGROUND:Bee-Sting-BG.png;
#CDTITLE:cdtitle.png;
#SAMPLESTART:40.969;
#SAMPLELENGTH:17.739;
#SELECTABLE:YES;
#OFFSET:1.814;
#BPMS:0.000=115.000;
#STOPS:;
#BGCHANGES:;
#FGCHANGES:;

//--------------- dance-single - RxSteps ----------------
#NOTES:
     dance-single:
     RxSteps:
     Beginner:
     1:
     0,0,0,0,0:
0000
0000
0000
0000
,
0001
0000
0000
0000
,
0001
0000
0000
0000
,
1000
0000
0000
0000
,
0010
0000
0000
0000
,
0100
0000
0000
0000
,
0100
0000
0000
0000
,
0010
0000
0000
0000
,
0001
0000
0000
0000
,
0010
0000
0000
0000
,
0001
0000
0000
0000
,
0100
0000
0000
0000
,
0010
0000
0000
0000
,
0010
0000
0000
0000
,
1000
0000
0000
0000
,
1000
0000
0000
0000
,
0001
0000
0000
0000
,
0010
0000
0000
0000
,
0010
0000
0000
0000
,
0001
0000
0000
0000
,
0100
0000
0000
0000
,
1001
0000
0000
0000
,
1000
0000
0000
0000
,
1000
0000
0000
0000
0000
0000
0000
0001
,
0000
0000
0000
0000
,
0110
0000
0000
0000
,
0010
0000
0000
0000
,
1000
0000
0000
0000
0000
0000
0000
0010
,
0000
0000
0000
0000
,
1000
0000
0000
0000
,
0100
0000
0000
0000
,
0010
0000
0000
0000
,
0001
0000
0000
0000
,
0001
0000
0000
0000
,
1000
0000
0000
0000
,
0010
0000
0000
0000
,
0100
0000
0000
0000
,
1001
0000
0000
0000
,
0001
0000
0000
0000
,
1000
0000
0000
0000
0000
0000
0000
0100
,
0000
0000
0000
0000
,
0001
0000
0000
0000
,
0010
0000
0000
0000
,
1000
0000
0000
0000
0000
0000
0000
0010
,
0000
0000
0000
0000
,
1000
0000
0000
0000
0000
0000
0000
0001
,
0000
0000
0000
0000
,
0100
0000
0000
0000
0000
0000
0000
0010
,
0000
0000
0000
0000
,
1000
0000
0000
0000
0000
0000
0000
0001
,
0000
0000
0000
0000
,
0010
0000
0000
0000
0000
0000
0000
0100
,
0000
0000
0000
0000
,
2000
0000
0000
0000
,
0000
0000
0000
0000
,
0000
0000
0000
0000
,
3000
0000
0000
0000
,
0020
0000
0000
0000
,
0000
0000
0000
0000
,
0000
0000
0000
0000
,
0030
0000
0000
0000
,
0200
0000
0000
0000
,
0300
0000
0000
0000
,
0002
0000
0000
0000
,
0003
0000
0000
0000
,
0020
0000
0000
0000
,
0030
0000
0000
0000
,
2000
0000
0000
0000
,
3000
0000
0000
0000
,
0100
0000
0000
0000
,
0100
0000
0000
0000
,
0010
0000
0000
0000
0000
0000
0000
1000
,
0000
0000
0000
0000
,
0001
0000
0000
0000
,
0001
0000
0000
0000
,
0010
0000
0000
0000
0000
0000
0000
0010
,
0000
0000
0000
0000
,
1001
0000
0000
0000
,
0010
0000
0000
0000
,
1000
0000
0000
0000
0000
0000
0000
0001
,
0000
0000
0000
0000
,
1001
0000
0000
0000
,
0110
0000
0000
0000
,
1000
0000
0000
0000
0000
0000
0000
0010
,
0000
0000
0000
0000
,
0100
0000
0000
0000
0000
0000
0000
0100
,
0000
0000
0000
0000
,
0001
0000
0000
0000
0000
0000
0000
0010
,
0000
0000
0000
0000
,
0010
0000
0000
0000
0000
0000
0000
1000
,
0000
0000
0000
0000
,
0100
0000
0000
0000
0000
0000
0000
0010
,
0000
0000
0000
0000
0000
0000
0000
0002
,
0000
0000
0000
0000
,
0000
0000
0000
0000
,
0000
0000
0000
0000
,
0000
0000
0000
0000
,
0003
0000
0000
0000
,
0010
0000
0000
0000
,
2000
0000
0000
0000
,
0000
0000
0000
0000
,
0000
0000
0000
3000
;

//--------------- dance-single - RxSteps ----------------
#NOTES:
     dance-single:
     RxSteps:
     Easy:
     4:
     0,0,0,0,0:
0000
0000
0000
0000
,
0001
0000
0001
0000
0000
0001
0100
0001
,
0100
0000
0100
0000
0000
0100
0010
0100
,
0010
0000
0010
0000
1000
0001
1000
0002
,
0000
0000
0003
0100
0000
0020
0030
0000
,
1010
0000
1000
0000
0000
0001
0100
0001
,
0010
0000
0010
0000
0000
0010
0001
0010
,
0100
0000
0100
0000
0000
1000
0100
1000
,
0001
0000
0001
0000
0000
0001
0010
0100
,
0010
0000
0010
0000
0000
0001
1000
0001
,
0100
0000
0100
0000
0000
0001
0100
0001
,
0010
0000
0010
0000
0000
0001
1000
0001
,
0100
0000
0100
0000
0000
0001
0010
0100
,
2000
0000
3000
0020
0000
0030
0000
0200
,
0000
0300
0000
0001
0000
0010
0000
0001
,
0000
0000
1000
0000
0010
0000
0000
0100
,
0000
0010
1000
0100
,
0010
0000
0100
0000
2000
0000
3000
0010
,
0000
0000
0010
1000
0000
0010
0000
1000
,
0000
0001
1000
0000
0010
0000
0000
1000
,
0001
1000
0010
0100
0001
0000
0001
0000
,
0101
0000
0001
0000
0100
0001
0100
0000
,
0010
0000
1000
0100
1000
0100
1000
0000
,
0001
0000
0001
0000
0100
0010
0100
0020
,
0000
2030
0000
3020
0000
0130
0000
0100
,
0010
0000
0000
0000
0010
0000
0000
0000
1000
0000
0000
0001
0000
0000
0010
0000
,
0000
0001
0001
1000
,
0010
0000
0010
1000
0010
1000
0000
0002
,
0003
0200
0300
0020
0030
2000
3000
0100
,
1000
0000
1000
0001
0100
0001
0000
0200
,
0000
0300
0000
0100
0000
0100
0000
0001
,
0000
1000
0001
0000
1000
0010
0000
2000
,
0000
0000
3100
0000
0100
1000
0000
0000
,
0001
0100
0001
0000
0010
0001
0000
0010
,
0000
0000
0001
0000
0001
0000
0000
2000
,
0000
3000
0000
0001
1000
0001
0000
0000
,
0100
0100
0001
0001
,
1100
0000
1000
0000
0010
1000
0010
0000
,
0100
0000
0001
0010
0001
0010
0001
0000
,
1000
0000
1000
0000
0010
0100
0010
0200
,
0000
0302
0000
0203
0000
0310
0000
0010
,
0100
0000
0000
0000
0100
0000
0000
0000
0001
0000
0000
1000
0000
0000
0100
0000
,
0000
1000
1000
0001
,
0100
0000
0100
0001
0100
0001
0000
2000
,
3000
0020
0030
0200
0300
0002
0003
0010
,
0001
0010
0001
0000
1000
0001
0000
1000
,
0010
1000
0010
0000
0010
0100
0000
0001
,
0000
0100
0001
0000
0100
0001
0000
2000
,
0000
3020
0000
2030
0000
3002
0000
0203
,
0300
0001
0100
0000
0001
1000
0000
0010
,
1000
0010
1000
0000
1000
0100
0000
1000
,
0000
0001
0010
0000
0010
0001
0000
1000
,
0001
1000
0001
0000
0001
0100
0000
0000
,
0002
0000
0000
0000
,
0003
0000
0000
2000
0000
0000
0000
0000
,
0000
0000
0000
0000
,
0000
0000
3000
0000
,
0020
0000
0000
0000
0000
0000
0030
0000
0000
0000
0000
0000
0000
2000
0000
0000
,
0000
0000
0000
0000
0000
3000
0000
0000
,
0200
0000
0000
0000
,
0300
0000
0000
0000
0000
0000
0000
0002
,
0000
0000
0000
0000
0003
0000
0000
2000
,
0000
0000
0000
0000
3000
0000
0000
0010
,
0000
0000
0000
0000
0000
0000
0000
0100
0000
0000
0000
0000
0000
0000
0002
0000
,
0000
0000
0000
0000
0000
0003
0000
0000
,
2000
0000
0000
0000
3000
0000
0000
0020
,
0000
0000
0000
0000
0000
0030
0000
0000
,
2000
0000
0000
0000
,
0000
0000
0000
0000
0000
3000
0000
0000
,
0001
0001
0100
0010
,
1000
0100
0010
0001
,
1000
0000
0001
0000
0020
0030
0000
0001
,
0000
1000
0000
0100
0000
1000
0000
0001
,
0000
0000
0100
0000
0000
0000
0000
0000
0001
0000
0000
1000
0000
0000
0010
0000
,
0000
0100
0100
0001
,
1000
0100
0010
0001
,
0010
0100
1000
0001
,
0011
0000
0001
0000
0010
0001
0010
0000
,
0100
0000
1000
0010
1000
0010
1000
0000
,
0001
0000
0001
0000
0010
0100
0010
0200
,
0000
2300
0000
3200
0000
0310
0000
0010
,
0100
0000
0000
0000
0100
0000
0000
0000
1000
0000
0000
0001
0000
0000
0100
0000
,
0000
0001
0001
1000
,
0100
0000
0100
1000
0100
1000
0000
0002
,
0003
0020
0030
0200
0300
2000
3000
0010
,
1000
0100
1000
0000
0001
1000
0000
0001
,
0100
0001
0100
0000
0100
0010
0000
1000
,
0000
0010
1000
0000
0010
1000
0000
0002
,
0000
0203
0000
0302
0000
2003
0000
3020
,
0030
1000
0010
0000
1000
0001
0000
0100
,
0001
0100
0001
0000
0001
0010
0000
0001
,
0000
1000
0100
0000
0100
1000
0000
0001
,
1000
0001
1000
0000
1000
0010
0000
0200
,
0000
0300
0000
0002
0000
0003
0000
0000
,
2000
0000
0000
0000
,
0000
0000
0000
0000
,
3000
0000
0020
0000
,
0000
0000
0030
0000
,
0200
0000
0000
0000
0000
0300
0000
0000
,
0002
0000
0000
0000
,
0003
0000
2000
0000
,
0000
0000
0000
3000
;

//--------------- dance-single - RxSteps ----------------
#NOTES:
     dance-single:
     RxSteps:
     Medium:
     6:
     0,0,0,0,0:
0000
0000
0000
0000
,
0001
0000
0001
1000
0000
0010
0100
0010
,
1000
0000
1000
0001
0100
0010
0100
0001
,
0010
0000
0010
0001
0010
0001
0100
0010
,
1000
0001
0000
1000
0001
0100
0001
1000
,
0110
0000
0001
0100
0000
0010
0100
1000
,
0001
0000
0001
1000
0000
0010
0100
0001
,
1000
0000
0001
1000
0000
0001
0010
0100
,
1000
0000
0010
0100
0001
1000
0010
0100
,
0001
0000
1000
0100
0000
1000
0010
1000
,
0001
0000
0001
0100
0000
0001
1000
0010
,
1000
0000
0010
0001
0000
1000
0100
0010
,
0001
0000
1000
0001
0000
0100
0001
0010
,
0001
0100
0001
1000
0010
1000
0010
0200
,
0000
0000
0300
0001
0000
1000
0000
0010
,
1000
0001
0010
0000
0001
0010
0000
0100
,
0000
0000
1000
0001
0000
1000
0010
0100
,
0001
1000
0010
0100
0010
2000
0000
0002
,
3000
0003
1000
0010
0000
1000
0000
0001
,
0000
0100
0001
0000
1000
0001
0000
0100
,
0001
0010
0100
1000
0001
0100
0001
0000
,
1010
0000
0001
0100
0001
1000
0010
0100
,
0010
1000
0010
0100
0001
1000
0001
0000
,
1100
0000
1000
0001
0100
0001
1000
0020
,
0000
2030
0000
0002
3000
1003
0000
0010
,
1010
0000
1000
0000
0100
0000
0010
0000
0100
0000
0000
0010
0000
0000
0100
0000
,
1000
0000
0001
0000
0010
0000
0100
0000
1000
0000
0000
0001
1000
0000
0000
0000
,
0010
1000
0010
0100
0001
2000
0000
3002
,
0000
0203
0000
0302
0000
2003
3000
0100
,
1000
0000
0001
1000
0010
1000
0000
0001
,
0000
0000
0000
0100
0000
0010
0000
1000
,
0000
0001
1000
0000
0010
0100
0000
0001
,
1000
0000
0010
0000
0010
1000
0100
0010
,
0001
1000
0001
0100
0001
1000
0000
0010
,
0000
0000
1000
0001
1000
0010
0000
0100
,
0000
0001
1000
0001
1000
0100
0010
0001
,
1000
0100
1000
0000
1100
0000
1001
0000
,
0110
0000
0001
1000
0001
1000
0010
0000
,
0101
0000
0010
0100
0001
0010
0100
0000
,
1001
0000
1000
0010
0100
0001
1000
0020
,
0000
2030
0000
3002
0000
0203
0300
0010
,
1000
0000
0001
0000
0010
0000
0100
0000
0010
0000
0000
0100
0000
0000
0010
0000
,
0001
0000
1000
0000
0100
0000
0010
0000
0001
0000
0000
1000
0001
0000
0000
0000
,
1000
0010
1000
0100
1000
0002
0000
2003
,
0000
3020
0000
0230
0000
0302
0000
2003
,
3000
0001
1000
0000
0010
1000
0000
0001
,
0100
0010
0100
0000
0010
1000
0000
0100
,
0000
1000
0001
0000
0100
0001
0000
1000
,
0010
1000
0010
0000
0100
0001
0000
1000
,
0000
0010
0100
0000
0010
0100
0000
0001
,
1000
0001
0100
0000
0001
0100
0000
0010
,
0000
1000
0001
0000
0100
0010
0000
1000
,
0010
1000
0100
0000
1000
0001
0000
0200
,
0000
0000
0000
0000
,
0320
0000
0000
0000
,
0000
0000
0000
0000
,
0000
0000
0000
0000
0030
2000
0000
0000
,
0000
0000
0000
3000
,
0002
0000
0000
0003
,
0000
2000
0000
0000
0000
0000
0000
0000
,
0000
0000
0000
3000
0000
0002
0000
0000
,
0000
0000
0000
0003
,
0200
0000
0000
0000
0000
0300
0000
0010
,
1000
0010
0100
0000
0010
0000
0001
0000
,
0020
0000
0000
0030
,
0001
0100
0010
0000
1000
0100
0000
2000
,
0000
3000
0000
0010
0100
0002
0000
0000
,
0000
2000
0000
0000
0000
0000
0000
0000
,
0000
0000
0000
3003
,
0000
1000
0010
1000
0010
0100
0010
0000
,
1000
0000
0001
0010
0100
1000
0100
0000
,
1000
0000
0010
0100
0010
0100
0001
2000
,
0000
3020
0000
0230
0000
0302
0000
0023
,
0030
0000
0001
0000
0010
0000
0001
0000
0100
0000
0000
0001
0000
0000
1000
0000
,
0000
0000
0000
0000
0010
0000
1000
0000
0010
0000
0000
1000
0001
0000
0000
0000
,
1000
0010
0100
0001
1000
0010
0100
0001
,
1000
0001
0010
0002
0000
2000
3003
0000
,
0101
0000
1000
0010
1000
0001
0100
0010
,
0100
0001
0100
0010
1000
0001
1000
0000
,
0011
0000
0001
1000
0010
1000
0001
0200
,
0000
0302
0000
2000
0003
3001
0000
0100
,
0101
0000
0001
0000
0010
0000
0100
0000
0010
0000
0000
0100
0000
0000
0010
0000
,
0001
0000
1000
0000
0100
0000
0010
0000
0001
0000
0000
1000
0001
0000
0000
0000
,
0100
0001
0100
0010
1000
0002
0000
2003
,
0000
3020
0000
2030
0000
3002
0003
0010
,
0001
1000
0001
0000
0100
0001
0000
1000
,
0010
0100
0010
0000
0100
0001
0000
0010
,
0000
0001
1000
0000
0010
1000
0000
0001
,
0100
0001
0100
0000
0010
1000
0000
0001
,
0000
0100
0010
0000
0100
0010
0000
1000
,
0001
1000
0010
0000
1000
0010
0000
0100
,
0000
0001
1000
0000
0010
0100
0000
0001
,
0100
0001
0010
0000
0001
1000
0000
0020
,
0000
0000
0000
0200
0000
0000
0030
0000
,
0002
0000
0000
0000
,
0000
0000
0000
0000
,
0000
0000
0000
0300
2000
0000
0000
0003
,
0020
0000
0000
3000
,
0200
0000
0000
0030
,
0002
0000
0000
0000
,
0000
0300
2000
0000
,
0000
0000
0000
0000
0000
3003
0000
0000
;

//--------------- dance-single - RxSteps ----------------
#NOTES:
     dance-single:
     RxSteps:
     Hard:
     8:
     0,0,0,0,0:
0000
0000
0000
0000
,
1000
0000
0100
1000
0001
0100
0010
0200
,
2300
3000
0200
0301
0100
1000
0100
1000
,
0100
0000
0010
1000
0000
0001
0010
0100
,
1000
0200
0301
0200
1300
0100
1000
0000
,
0101
0000
1000
0010
0100
0001
0010
0001
,
1020
0000
0100
1030
0000
0001
0010
0100
,
1002
0000
0100
2003
3000
0010
0100
0001
,
0010
0000
0010
0001
0200
1300
0100
0001
,
1100
0000
1000
0020
0000
0031
0010
1000
,
1100
0000
1000
0001
0000
0010
0100
1000
,
0110
0000
0001
0200
0000
1300
0100
0001
,
1010
0000
1000
0100
0000
1000
0010
0100
,
0001
0100
0010
1000
0100
1000
0200
0010
,
0000
0000
0000
1000
0000
0310
0000
0001
,
0000
0200
2300
0000
3001
0010
0000
0200
,
0000
0300
0100
0010
1000
0100
0010
0001
,
1000
0010
0100
0010
1000
0200
0000
0002
,
0300
0000
1003
0020
0000
0230
0000
1300
,
0000
0001
0100
0000
0001
1000
0000
0100
,
1000
0100
1000
0100
0101
0000
1100
0000
,
0110
1000
0001
0100
0010
0200
1300
0000
,
1100
0000
0100
1000
0100
0010
0001
0000
,
0101
0001
1000
0010
0100
0020
0032
2003
,
3000
0200
0000
0302
0000
0023
0000
0130
,
1010
1000
0001
0200
2300
3001
0000
0010
,
1100
0000
0000
0000
1000
0000
0000
0001
0010
0000
0000
1000
0020
0000
0000
0000
,
0130
0010
0001
1000
0100
0020
0000
2030
,
0000
3200
0000
0302
0000
2003
0000
3000
,
0020
0000
0031
1000
0001
0010
0000
0002
,
0000
0003
1000
0020
0000
0100
0030
2000
,
3000
0200
0001
0300
0100
2000
0000
3020
,
0000
0030
0100
0000
0100
0001
0010
0001
,
1000
0200
0302
0000
2003
3020
0030
0002
,
0000
0000
0003
0000
1000
0000
0001
1000
0001
0000
0100
0000
0000
0000
0020
0000
,
0030
1000
0100
1000
0001
0010
0100
1000
,
0001
0100
0001
0100
1010
0000
0011
0000
,
0110
0001
1000
0010
0100
0020
0031
0000
,
0011
0000
0010
0001
0010
0100
1000
0000
,
1010
1000
0001
0100
0010
0200
2300
3002
,
0003
0020
0000
2030
0000
3200
0000
0310
,
0101
0001
1000
0020
0032
1003
0000
0100
,
0011
0000
0000
0000
0001
0000
0000
1000
0100
0000
0000
0001
0200
0000
0000
0000
,
0310
0200
1300
0001
0010
0200
0000
0302
,
0000
0023
0000
2030
0000
3002
0000
0003
,
0100
1000
0100
0000
0010
0001
0000
0200
,
1300
0100
0001
0000
0010
0001
0000
0100
,
0000
0100
0010
0000
1000
0100
0000
0020
,
0031
0010
1000
0000
0010
0100
0000
1000
,
0000
1000
0010
0000
0100
0001
0000
0200
,
1300
0100
0001
0000
0010
0100
0000
1000
,
0000
0001
1000
0000
0010
0100
0000
0020
,
1030
0010
0001
0000
0010
0200
0000
0301
,
0100
0001
0010
0000
0001
0100
0000
0020
,
0000
0000
0030
1000
0010
0200
0000
0000
,
0000
0000
0000
0000
,
0000
0000
0000
0000
0000
0000
0300
0001
,
0010
0000
0100
0000
2000
0000
0000
0000
3100
0000
1000
0000
0000
0020
0000
0000
,
0000
0000
0000
0130
0000
0000
0001
0000
0010
0000
0002
0000
0000
0000
0000
0000
,
2000
0000
0000
0000
,
0000
0000
0003
0000
0000
0000
3000
0010
,
1000
0100
0000
0010
0000
0001
0000
0200
,
0000
0000
0000
0310
0000
0000
1000
0010
,
0000
0100
0001
0020
0000
1030
0000
0020
,
0000
0030
0002
0003
,
0100
0001
0010
0000
0001
1000
0000
0020
,
0000
0000
0030
0100
0020
0002
0030
0000
,
2000
0000
0000
0000
,
0000
0000
0000
3003
,
0110
1000
0001
0010
0100
1000
0200
0000
,
0320
0000
0031
0020
1030
0010
0002
0000
,
0203
0000
1300
0100
0001
0100
1000
0200
,
0000
0320
0000
2030
0000
3200
0000
0301
,
0000
0000
0100
0000
1000
0000
0100
0000
2000
0000
3000
0020
0000
0030
0200
0000
,
0300
0000
0000
0000
0001
0000
0000
1000
0100
0000
0000
0001
0100
0000
0000
0000
,
1000
0100
0010
0001
1000
0100
0010
0001
,
0100
0010
1000
0100
1000
0010
0100
0000
,
0011
1000
0001
0100
0010
0200
1300
0000
,
1100
0000
0100
1000
0100
0010
0001
0000
,
0101
0001
1000
0010
0100
0020
0032
2003
,
3000
0200
0000
0302
0000
0023
0000
0130
,
1010
1000
0001
0200
2300
3001
0000
0010
,
1100
0000
0000
0000
1000
0000
0000
0001
0010
0000
0000
1000
0020
0000
0000
0000
,
0130
0010
0001
1000
0100
0020
0000
2030
,
0000
3200
0000
0302
0000
2003
0000
3000
,
0010
0001
0010
0000
0100
1000
0000
0020
,
0031
0010
1000
0000
0100
1000
0000
0010
,
0000
0010
0100
0000
0001
0010
0000
0200
,
1300
0100
0001
0000
0100
0010
0000
0001
,
0000
0001
0100
0000
0010
1000
0000
0020
,
0031
0010
1000
0000
0100
0010
0000
0001
,
0000
1000
0001
0000
0100
0010
0000
0200
,
0301
0100
1000
0000
0100
0020
0000
2030
,
0000
0000
0000
0200
0000
0000
3000
0000
,
0020
0000
0000
0000
,
0000
0000
0000
0000
,
0000
0300
0002
0000
,
0000
0000
0000
0030
,
0200
0000
0003
0000
,
2000
0000
0000
0000
,
0000
0300
0000
0000
0002
0000
0000
0000
,
0000
0000
0000
0000
0000
3003
0000
0000
;
