#TITLE:Badman;
#SUBTITLE:;
#ARTIST:Ganja White Night & LSDREAM;
#TITLETRANSLIT:;
#SUBTITLETRANSLIT:;
#ARTISTTRANSLIT:;
#GENRE:;
#CREDIT:RxSteps;
#MUSIC:Badman.ogg;
#BANNER:Badman.png;
#BACKGROUND:Badman-bg.png;
#CDTITLE:cdtitle.png;
#SAMPLESTART:21.361;
#SAMPLELENGTH:21.333;
#SELECTABLE:YES;
#OFFSET:2.639;
#BPMS:0.000=90.000;
#STOPS:;
#BGCHANGES:;
#FGCHANGES:;

//--------------- dance-single - RxSteps ----------------
#NOTES:
     dance-single:
     RxSteps:
     Beginner:
     2:
     0,0,0,0,0:
0000
0000
0000
0000
,
0001
0000
0000
0001
,
0000
0000
0000
0000
,
0000
1000
0000
0010
,
0000
0000
0000
0000
,
1000
0000
0001
0000
,
0010
0000
0100
0000
,
0001
0000
1000
0000
,
0010
0000
1000
0000
,
1000
0000
0001
0000
,
0010
0000
0100
0000
,
0100
0000
0001
0000
,
0001
0000
0010
0000
,
0010
0000
2000
3000
,
0000
0000
0002
0003
,
0000
0000
0200
0300
,
0000
0000
0010
0000
,
0001
0000
2000
3000
,
0000
0000
0200
0300
,
0000
0000
0100
0000
,
0010
0000
0010
0000
,
1000
0000
0001
0000
,
1000
0000
0001
0000
,
0001
0000
0010
0000
,
0010
0000
1000
0000
,
1000
0000
0100
0000
,
0100
0000
0001
0000
,
0001
0000
1000
0000
,
0000
0000
0000
0000
,
2002
3003
0000
0000
,
1000
0000
0001
0000
,
0010
0000
0010
0000
,
0100
0000
0100
0000
,
0001
0000
0001
0000
,
1000
0000
1000
0000
,
0010
0000
0010
0000
,
1000
0000
0100
0000
,
0001
0000
0001
0000
,
1000
0000
0010
0000
,
0010
0000
0010
0000
,
0100
0000
1000
0000
,
0001
0000
0001
0000
,
1000
0000
0010
0000
,
0010
0000
0100
0000
,
0001
0000
0100
0000
,
0001
0000
0000
1000
,
0000
0000
0000
0000
,
0010
0000
0000
0100
,
0000
0000
0000
0000
,
0200
0000
0300
0000
,
0000
0020
0000
0000
0030
0000
0000
0000
,
0000
2000
0000
0000
3000
0000
0000
0000
,
0100
0000
0000
0000
,
0000
2002
3003
0000
,
0001
0000
0001
0000
,
0100
0000
0010
0000
,
1000
0000
0001
0000
,
0000
1000
0000
0000
,
0010
0000
0010
0000
,
0100
0000
0001
0000
,
1000
0000
0010
0000
,
0010
0000
1000
0000
,
1000
0000
0001
0000
,
0100
0000
0010
0000
,
0010
0000
1000
0000
,
0001
0000
0000
0000
,
0100
0000
0100
0000
,
0001
0000
1000
0000
,
0100
0000
0100
0000
,
1000
0000
0000
0000
,
0000
0010
0000
0000
0000
0000
0000
0000
,
0000
0100
0000
0000
0000
0000
0000
0000
,
0000
0100
0000
0000
0000
0000
0000
0000
,
0000
0001
0000
0000
0000
0000
0000
0000
,
0000
1000
0000
0000
0000
0000
0000
0000
,
0000
1000
0000
0000
0000
0000
0000
0000
,
0010
0000
0000
0000
,
1000
0000
0010
0000
,
0010
0000
1000
0000
,
1000
0000
0010
0000
,
0010
0000
1000
0000
,
0001
0000
0001
0000
,
1000
0000
1000
0000
,
0010
0000
0010
0000
,
0100
0000
0100
0000
,
0220
0330
0000
0000
,
1000
0000
1000
0000
,
0001
0000
0001
0000
,
0100
0000
0100
0000
,
0001
0000
0010
0000
,
0100
0000
1000
0000
,
1000
0000
0100
0000
,
0010
0000
0001
0000
,
1000
0000
0010
0000
,
0010
0000
0100
0000
,
1000
0000
1000
0000
,
0001
0000
0100
0000
,
0010
0000
0001
0000
,
0001
0000
0100
0000
,
0100
0000
0100
0000
,
0001
0000
1000
0000
,
0020
0000
0000
0000
,
0000
0000
0000
0000
,
0000
0000
0030
0000
;

//--------------- dance-single - RxSteps ----------------
#NOTES:
     dance-single:
     RxSteps:
     Easy:
     4:
     0,0,0,0,0:
0000
0000
0000
0000
,
0001
0000
0000
0000
1000
0000
0000
0000
0000
0000
0000
0000
0010
0000
0000
1000
,
0000
0010
0000
0100
,
0001
0000
0000
0000
0100
0000
0000
0000
0000
0000
0000
0000
0001
0000
0000
0100
,
0000
0001
1000
0010
,
1000
1000
0010
0010
,
1000
0010
1000
0001
,
0010
0010
0001
0001
,
1000
1000
0010
1000
,
0001
0010
0100
1000
,
1000
0001
0100
0000
,
0001
1000
0010
0010
,
0100
0100
0010
1000
,
0002
0000
0000
0000
0000
0000
0000
0000
0003
0000
0000
0000
1000
0000
0000
0001
,
0000
0000
1000
0010
,
0000
0000
0100
0001
,
0000
0000
0010
1000
,
1000
0000
0000
0000
0000
0000
0000
0000
0001
0000
0000
0000
0100
0000
0000
0001
,
0000
0000
0100
0010
,
0000
0000
1000
0100
,
2000
3000
0001
0100
,
0001
0001
0100
0010
,
1000
1000
0010
0100
,
0001
0001
0010
0100
,
1000
1000
0001
0100
,
0002
0003
2000
3000
,
0020
0030
2000
3000
,
0002
0003
0200
0300
,
0020
0000
0000
0030
,
1000
0001
0100
0000
,
0010
0010
1000
0001
,
0100
0000
0100
0001
,
1000
0000
0100
0100
,
1000
0001
0100
0001
,
1000
0001
0100
0000
,
0020
0030
2000
3000
,
0001
0000
0000
0000
0001
0000
0000
1000
0001
0000
0000
0000
0000
0000
0000
0000
,
1000
0000
0010
0000
,
0100
0001
0100
0001
,
2000
0000
3100
0000
,
1000
0010
0100
0001
,
1000
0010
0100
0001
,
0001
0200
0002
0303
,
0001
1000
0010
0010
,
0100
0010
0100
0001
,
2000
0000
0000
0000
3000
0000
0000
0000
0000
0000
0000
0000
0010
0000
0000
1000
,
0000
0010
1000
0001
,
0100
0000
0000
0000
0010
0000
0000
0000
1000
0000
0000
0000
0001
0000
0000
1000
,
0000
0010
1000
0010
,
0100
0100
0001
0001
,
0010
0010
0100
0100
,
1000
1000
0001
1000
,
0020
0000
0000
0030
,
0000
2002
0000
3003
,
1000
1000
0010
0100
,
0001
0001
1000
0010
,
1000
0000
0001
0100
,
0001
0202
0000
0303
,
1000
0010
1000
0001
,
0001
0100
0100
0010
,
2000
3000
0001
0000
,
1000
1000
0100
1000
,
1000
0010
0100
0001
,
0010
0010
0001
0200
,
0000
0300
0010
1000
,
0100
2000
0000
3000
,
0010
0010
1000
0001
,
0100
0100
0001
1000
,
0200
0000
0000
0300
,
2000
0000
0000
3000
,
0000
0002
0000
0000
0000
0000
0003
0000
,
0000
0200
0000
0000
0000
0000
0300
0000
,
0000
0020
0000
0000
0000
0000
0030
0000
,
0000
2000
0000
0000
0000
0000
3000
0000
,
0000
0002
0000
0000
0000
0000
0003
0000
,
0000
0020
0000
0000
0000
0000
0030
0000
,
0001
0000
1000
0000
,
0010
1000
0100
0010
,
0100
1000
0100
1000
,
0100
0010
0001
0001
,
0010
0100
0010
0100
,
2000
0000
3002
0000
,
0203
0000
0320
0000
,
2030
0000
3002
0000
,
2000
0000
3003
0000
,
0220
0000
0330
0000
,
0001
0001
1000
0010
,
1000
1000
0100
1000
,
0001
0010
0001
0100
,
0100
0010
0010
0000
,
1000
0001
0100
0010
,
0010
1000
0100
0000
,
1000
0001
0010
0001
,
0001
1000
0010
0010
,
0100
0001
0100
0001
,
1000
1000
0010
0010
,
0100
0010
0100
0001
,
1000
1000
0001
0100
,
0010
1000
0010
0010
,
1000
1000
0001
0010
,
0001
0100
0010
1000
,
0002
0000
0000
0000
,
0000
0000
0000
0000
,
0000
0000
0003
0000
;

//--------------- dance-single - RxSteps ----------------
#NOTES:
     dance-single:
     RxSteps:
     Medium:
     6:
     0,0,0,0,0:
0000
0000
0000
0000
,
1000
0000
0001
0000
1000
0000
0010
0000
0000
0000
1000
0000
0001
0000
0000
0001
,
0000
1000
0100
0010
0000
0010
0100
1000
,
0000
0000
0001
0000
1000
0000
0010
0000
0000
0000
0010
0000
0100
0000
0000
0100
,
0000
0100
0001
0100
0000
0000
0001
0010
,
0100
0000
0100
1000
0100
0000
1000
0100
,
0010
0000
0000
0001
0000
0000
0010
0000
0000
0100
0000
0000
1000
0000
0000
0000
0000
0000
0001
0000
1000
0000
0000
0000
,
0001
0000
0100
0010
1000
0000
1000
0001
,
0100
0100
0100
0010
2000
0000
3100
0000
,
1000
0000
0011
0000
0110
0000
0001
1000
,
0001
0000
0000
0010
0000
0000
0001
0000
0100
0000
0000
0000
0001
0000
0000
0001
0000
0000
0001
0000
0000
0100
0000
0000
,
0001
0000
0001
0100
0010
0000
0010
1000
,
0010
0100
0010
0100
0002
0000
0013
0000
,
0001
0000
0000
0000
0100
0000
0000
0000
0001
0000
0010
0000
0100
0000
0000
0100
,
0000
1000
0001
0100
0010
0100
0001
0000
,
1000
0000
0010
0000
1000
0000
0100
0000
0010
0000
0000
0000
0001
0000
0000
0001
,
0000
1000
0001
0100
0010
1000
0001
0000
,
0000
0000
1000
0000
0001
0000
0010
0000
0001
0000
1000
0000
0100
0000
0000
0100
,
0000
1000
0010
1000
0002
0000
0103
0000
,
0000
0000
0100
0000
0001
0000
0100
0000
0020
0000
0000
0000
1000
0000
0000
1030
,
0000
0000
0000
0001
0100
0010
0100
0000
,
0100
0001
0010
0100
1000
0100
0010
0001
,
0000
1000
0001
0100
0010
1000
0010
0000
,
1000
0001
0010
0001
1000
0100
1000
0000
,
0000
0001
0010
0100
1000
0100
0010
0000
,
0001
1000
0010
0100
0001
1000
0010
0100
,
0010
0100
0001
1000
0010
0100
0001
1000
,
0020
0000
0000
0000
,
2030
0000
3000
0000
0000
0000
0000
0001
,
0100
0001
0010
0001
1000
1000
1000
0000
,
0001
0000
0001
0000
0001
0000
0000
0100
0001
0000
0000
0000
1000
0000
0001
0000
,
2000
0000
0000
0000
3020
0000
1030
0010
,
1000
0000
1000
0000
1000
0000
0000
0001
0100
0000
0000
0000
0001
0000
0000
0000
,
0010
0000
0100
0000
1000
0100
0010
0000
,
0001
0000
0001
0000
0001
0000
0000
1000
0001
0000
0000
0000
1000
0000
0000
0000
,
0010
0000
0100
0000
0001
0010
0100
0000
,
1000
0000
0001
0000
1000
0000
0000
0010
1000
0000
0000
0000
0000
0000
0000
0000
,
0001
1000
0010
0100
0010
1000
0001
0010
,
0001
1000
0100
1000
0001
1000
0010
0100
,
0002
0000
0200
0303
,
1010
0000
1000
0000
0010
1000
0001
0000
,
0100
0000
0100
0000
0100
0000
0000
0001
0100
0000
0000
0000
0100
0001
0000
0000
,
1000
0000
0010
0100
0010
0100
0010
0100
,
0002
0000
0000
0000
1003
0001
1000
0001
,
0010
0100
0010
0100
1000
0001
0100
0001
,
0200
0000
0000
0000
0000
0000
0000
0000
0300
0000
0000
0000
0001
0000
0000
0001
,
0000
1000
0001
0100
0000
0100
0001
1000
,
0000
0000
0001
0000
1000
0000
0001
0000
0000
0000
0100
0000
0010
0000
0000
0010
,
0000
0100
0010
1000
0000
0000
0001
0010
,
0100
0100
1000
0100
0010
0010
0002
0000
,
0003
1000
0001
1000
0100
0010
0200
0000
,
0300
1000
0001
1000
0001
0001
0200
0000
,
0000
0000
0000
0000
0300
0000
0000
0001
,
1000
1000
0020
0000
0000
0030
1000
0010
,
0100
0000
0100
0000
0001
0000
1000
0010
,
1000
0000
1000
0000
0001
0000
0000
0100
0001
0000
0000
0000
0100
0000
0100
0000
,
0001
0010
0100
1000
0100
1000
0010
1000
,
0001
0001
0200
0000
0000
0000
0300
0000
,
0002
0003
0002
0003
0200
0300
0010
0100
,
0010
0000
0010
0000
1000
0000
0000
0001
2000
0000
0000
0000
3010
0000
0000
0000
,
1000
0001
0100
0010
2000
0000
3000
0000
,
0110
0000
0002
0000
1003
0000
0001
0100
,
0020
0030
0020
0030
0200
0300
0002
0003
,
1000
1000
0010
0000
1000
0000
0001
0100
,
0001
0010
0100
1000
,
0001
1000
0020
0000
0000
0000
0030
1000
,
0002
0000
0023
0000
0230
0300
1000
1000
,
0100
0100
2000
0000
3002
0000
0023
0000
,
0031
0010
0001
0200
0000
0000
0000
0000
,
0302
0000
0000
0003
,
2000
0000
0000
3000
,
0200
0300
1000
0010
,
0000
1000
0000
0000
0001
0100
0001
0000
,
0000
0200
0000
0000
0000
0000
0300
0000
,
0000
0001
0000
0000
1000
0001
0100
0000
,
0000
0010
0000
0000
0010
0000
0100
0000
,
0002
0000
0003
0000
1000
0100
0010
0000
,
0001
0000
0001
0000
0001
1000
0001
1000
,
0010
0100
0010
1000
0010
0000
1000
0000
,
0001
0000
0100
0000
0001
1000
0010
1000
,
0010
0010
1000
1000
,
1000
0100
0010
0001
0010
0100
1000
0001
,
0100
0010
1000
0010
0100
0001
1000
0001
,
2000
0000
0000
0000
,
0002
0000
3003
0000
,
0220
0000
0000
0330
,
2000
0000
3000
0000
0000
0001
0100
0010
,
1000
0000
1000
0000
1000
0000
0000
0022
,
0000
0000
0033
0000
0000
0001
0010
0100
,
2000
3002
0203
0300
,
0001
0000
2000
0000
0000
0001
3001
0001
,
1000
0000
0010
0000
0100
0000
0010
1000
,
0010
0000
0020
0000
0000
1000
1030
1000
,
0010
0000
1000
0100
0010
0000
0010
0100
,
1000
1000
0100
0010
0001
0000
0001
0100
,
0001
0000
0001
0010
0100
0000
0100
0010
,
0001
0001
1000
0001
0200
0000
0310
0000
,
1000
0000
0001
1000
0010
0000
0010
1000
,
0001
0100
0001
0010
0002
0000
1003
0000
,
0001
0000
1000
0010
0100
0000
0001
1000
,
0020
0000
0030
0000
1000
0001
0100
0000
,
0002
0000
0000
0000
,
0000
0000
0000
0000
,
0000
0000
0003
0000
;

//--------------- dance-single - RxSteps ----------------
#NOTES:
     dance-single:
     RxSteps:
     Hard:
     8:
     0,0,0,0,0:
0000
0000
0000
0000
,
1000
0000
0010
0000
1000
0000
0010
0000
0000
0000
0100
0000
0001
0000
0100
0001
,
0000
0001
1000
0100
0000
0100
0010
0001
,
0000
0000
1000
0000
0010
0000
0100
0000
0000
0000
0001
0000
1000
0000
0010
1000
,
0000
0000
0000
0000
0000
0000
0000
0000
1000
0000
0000
0000
0000
0000
0000
0000
0001
0000
0000
0000
0000
0000
0000
0000
0100
0000
0000
0000
0000
0000
0000
0000
0000
0000
0000
0000
0000
0000
0000
0000
0000
0000
0000
0000
0001
0000
0000
0000
1000
0000
0000
0000
0000
0001
0000
0000
1000
0000
0000
0000
0000
0001
0000
0000
,
2000
3010
1000
0100
0020
0130
0010
0001
,
2000
0000
0000
0010
0000
0000
0100
0000
0000
3002
0000
0000
0013
0000
0000
0000
0000
0000
0010
0000
0001
0010
0000
0001
,
2000
3100
1000
0010
0101
0000
0001
0010
,
0002
0100
0010
2003
0020
3000
0200
0330
,
1001
0000
1100
0110
0012
0000
1000
0203
,
0310
0000
0000
0001
0000
0000
0100
0000
0001
0100
0000
0001
1000
0000
0000
1000
0000
0000
1000
0000
0000
0010
0000
0000
,
0200
0302
0013
0100
1000
0000
0001
0020
,
0100
0000
0001
0000
0130
0000
1000
0000
0020
0000
0000
0000
0200
0330
0000
0000
,
1100
0000
0000
0000
0000
0000
0000
0000
1000
0000
0000
0000
0000
0000
0000
0000
0010
0000
0000
0000
0000
0000
0000
0000
1000
0000
0000
0000
0000
0000
0000
0000
0001
0000
0000
0000
0000
0000
0000
0000
0010
0000
0000
0000
0000
0000
0000
0000
0100
0000
0000
0000
0000
0000
0000
0000
0100
0000
0000
0000
0000
0010
0000
0000
,
0000
0000
0000
0000
0000
0000
0000
0000
0100
0000
0000
0000
0000
0000
0000
0000
1000
0000
0000
0000
0000
0000
0000
0000
0001
0000
0000
0000
0000
1000
0000
0000
0001
0000
0000
0000
0000
1000
0000
0000
0001
0000
0000
0000
0000
0000
0000
0000
0100
0000
0000
0000
0000
0000
0000
0000
0010
0000
0000
0000
0000
0000
0000
0000
,
1000
0000
0000
0000
0000
0000
0000
0000
0200
0000
0000
0000
0000
0000
0000
0000
0010
0000
0000
0000
0000
0000
0000
0000
1300
0000
0000
0000
0000
0000
0000
0000
0010
0000
0000
0000
0000
1000
0000
0000
0010
0000
0000
0000
0000
0000
0000
0000
0101
0000
0000
0000
0000
0000
0000
0000
0000
0000
0000
0000
0000
1100
0000
0000
,
0000
0000
0000
0000
0000
0000
0000
0000
0001
0000
0000
0000
0000
0000
0000
0000
0010
0000
0000
0000
0000
0000
0000
0000
0001
0000
0000
0000
0000
1000
0000
0000
0010
0000
0000
0000
0000
0000
0000
0000
0010
0000
0000
0000
0000
1000
0000
0000
0010
0000
0000
0000
0000
0000
0000
0000
0100
0000
0000
0000
0000
0000
0000
0000
,
0001
0000
0000
0000
0000
0000
0000
0000
1010
0000
0000
0000
0000
0000
0000
0000
0011
0000
0000
0000
0000
0000
0000
0000
1000
0000
0000
0000
0000
0010
0000
0000
0100
0000
0000
0000
0000
0010
0000
0000
0100
0000
0000
0000
0000
0010
0000
0000
2000
0000
0000
0000
0000
0000
0000
0000
0000
0000
0000
0000
0000
3100
0000
0000
,
0000
0000
1000
0000
0001
0000
0100
0001
0100
0000
0001
0010
0001
0000
1000
0000
,
0001
0000
0000
0000
0000
0000
0000
0000
0010
0000
0000
0000
0000
0000
0000
0000
0001
0000
0000
0000
0000
0000
0000
0000
1000
0000
0000
0001
0000
0000
0000
0000
1000
0000
0000
0000
0000
0001
0000
0000
0000
0000
0000
2000
0000
0000
0000
0000
0020
0000
0000
0000
0000
0000
0000
0000
3030
0000
0000
0000
0000
0000
0000
0000
,
0022
0000
0000
0000
0000
0000
0000
0000
0000
0000
0000
0000
0000
0000
0000
0000
0033
0000
0000
0000
0001
0000
0000
0000
0010
0000
0000
0000
0000
0001
0000
0000
0100
0000
0000
0000
0000
0000
0000
0000
0010
0000
0000
0000
0000
0000
0000
0000
1000
0000
0000
0000
0000
0000
0000
0000
0001
0000
0000
0000
0000
0000
0000
0000
,
1200
0310
0001
0010
0100
0010
0001
0010
,
2000
3010
0100
0010
1000
0010
0200
0310
,
0001
0020
1030
0010
0001
0010
1000
0010
,
0001
0100
1000
0100
0001
0100
1000
0100
,
0001
1000
0100
0010
0001
1000
0100
0010
,
0001
0000
1000
0000
0010
0000
0100
0010
0100
0010
1000
0010
1000
0001
1000
0001
,
0010
0001
0010
0001
0010
0100
0010
0100
1000
0001
1000
0001
0100
0010
0100
0010
,
2000
0000
0000
0000
0100
0010
3002
0103
,
1020
2030
3020
1030
0001
0020
0100
0031
,
1100
0000
0000
0000
0000
0000
0101
0000
0000
0000
0000
0000
1200
0000
0000
0000
0000
0000
0300
0000
0000
0010
0000
0000
0100
0000
0000
0000
0000
0000
1000
0000
0000
0000
0000
0000
0010
0000
0000
0000
1000
0000
0010
0000
0000
0000
0000
0000
,
0102
0203
0302
0103
0102
1000
0023
0130
,
1200
0000
0000
1000
0000
0000
1300
0000
0000
0000
0000
0002
0200
0000
0000
0303
0000
0000
0010
0000
0100
0010
0000
0000
,
1020
0230
0301
0110
1001
1100
0001
0200
,
0010
0000
0000
0010
0000
0000
0310
0000
0000
0000
0000
1000
0100
0000
0000
0010
0000
0000
0100
0000
0010
0100
0000
0000
,
1200
0310
0101
2010
0001
3200
0310
0001
,
1000
0000
0000
0020
0000
0000
0200
0000
0000
0330
0000
0000
2000
0002
0000
0000
0000
0000
0000
0000
0000
3000
0000
0000
,
0103
0000
0000
0010
0000
0000
0100
0000
0000
0001
0000
0100
0001
0000
0000
1000
0000
0100
1000
0000
0000
0010
0000
0000
,
0002
0000
0000
0100
0000
0000
2003
0000
0000
0010
0000
0000
3001
0000
0000
0100
0000
0000
0010
0000
0100
0010
0000
0000
,
0021
0000
0230
0000
2300
3000
0001
0100
,
1200
0000
0000
0010
0000
0000
1300
0000
0000
0001
0000
0100
0001
0000
0000
1000
0000
0000
0001
0000
0100
0001
0000
0000
,
1000
0000
0000
0010
0000
0000
0100
0000
0000
0001
0000
1000
0100
0000
0000
1000
0000
0001
0010
0000
0000
0100
0000
0000
,
1000
0000
0000
0001
0000
0000
0100
0000
0001
0100
0000
0001
0100
0000
0010
1000
0000
0010
1000
0000
0001
0100
0000
0000
,
1001
0000
0110
0000
1001
1010
0011
1010
,
1200
0000
0000
0000
0000
0000
0000
0000
0010
0000
0000
0000
0000
0000
0000
0000
1300
0000
0000
0000
0000
0000
0000
0000
0001
0000
0000
0000
0000
1000
0000
0000
0010
0000
0000
0000
0000
0000
0000
0000
0100
0000
0000
0000
0000
0000
0000
0000
0002
0000
0000
0000
0000
0000
0000
0000
0000
0000
0000
0000
0000
0000
0000
0000
,
1003
0000
0000
0000
0000
0000
0000
0000
0100
0000
0000
0000
0000
0000
0000
0000
0010
0000
0000
0000
0000
0000
0000
0000
0100
0000
0000
0000
0000
0000
0000
0000
1000
0000
0000
0000
0000
0000
0000
0000
0001
0000
0000
0000
0000
0000
0000
0000
0021
0000
0000
0000
0000
0000
0000
0000
0000
0000
0000
0000
0000
0130
0000
0000
,
0000
1000
0100
0010
0100
0010
0001
1000
,
0010
0000
0000
0000
0000
0000
0000
0000
1000
0000
0000
0000
0000
0000
0000
0000
0100
0000
0000
0000
0000
0000
0000
0000
0010
0000
0000
0000
0000
0000
0000
0000
0001
0000
0000
0000
0000
0000
0000
0000
0100
0000
0000
0000
0000
0000
0000
0000
2010
0000
0000
0000
0000
0000
0000
0000
0000
0000
0000
0000
0000
3100
0000
0000
,
0000
1000
0001
0020
0100
0031
0100
0010
,
0101
1200
0310
0100
1000
0010
0100
0001
,
0010
1100
0201
0310
1000
0100
0010
0100
,
1000
0100
1000
0100
0010
0001
0010
0001
1000
0100
1000
0100
0001
0100
0001
0200
,
0020
0000
0000
0000
0000
0000
0000
0000
0000
0000
0000
0000
0300
0000
0000
0000
0030
0000
0000
0000
1000
0000
0000
0000
0000
0010
0000
0000
1000
0000
0000
0000
0010
0000
0000
0000
0000
0000
0000
0000
0200
0000
0000
0000
0000
0000
0000
0000
0301
0000
0000
0000
0000
0000
0000
0000
0010
0000
0000
0000
0000
0000
0000
0000
,
1100
0102
2000
0000
0000
0003
3010
0100
,
0021
0000
0000
0032
0000
0000
0023
0000
0000
0032
0000
0000
0200
0000
0000
0003
0000
0000
0310
0000
0100
0010
0000
0200
,
0001
0000
0000
0302
0000
0000
2000
0000
0000
3003
0000
0002
0200
0000
0000
0003
0000
0300
0010
0000
1000
0010
0000
1000
,
0200
0000
0020
0000
0301
0130
1000
0010
,
0110
0102
0020
0000
0000
0000
0003
0130
,
2000
0010
3002
0100
0020
0033
2200
3300
,
1001
0000
0000
0110
0000
0000
2001
0000
0000
3000
0000
0002
2000
0000
0000
0003
0000
0000
3010
0000
1000
0010
0000
1000
,
0010
1000
0001
1000
0010
0000
0100
0000
0002
0000
0000
0003
1000
0000
1000
0000
,
0110
0000
0000
1100
0000
0000
0101
0000
0000
0000
0000
0010
1000
0000
0000
0000
0000
0000
0110
0000
0000
1001
0000
0000
,
0021
0130
1020
0130
2100
3010
0102
0013
,
1100
0000
0000
1200
0000
0000
0010
0000
0000
0300
0000
0001
0100
0000
0000
0000
0000
0000
0001
0000
0010
0001
0000
0010
,
0001
0000
0000
0000
0000
0000
0000
0000
1000
0000
0000
0000
0000
0001
0000
0000
1000
0000
0000
0000
0000
0000
0000
0000
0100
0000
0000
0000
0000
0000
0000
0000
1000
0000
0000
0000
0000
0000
0000
0000
0010
0000
0000
0000
0000
0100
0000
0000
0010
0000
0000
0000
0000
0000
0000
0000
0100
0000
0000
0000
0000
0000
0000
0000
,
0001
0001
0200
0000
0000
0000
0000
0310
,
0102
0000
0000
2003
0000
0000
3020
0000
0000
0130
0000
0020
2000
0000
0000
0030
0000
0000
3100
0000
1000
0100
0000
1000
,
0200
0000
0000
0310
0000
0000
0001
0000
0000
1000
0000
0001
1000
0000
0000
0000
0000
1000
0001
0000
0000
0000
0000
0000
,
0100
0001
0100
0010
1000
0000
0001
0000
0200
0000
0000
0000
0320
0000
0000
0000
,
1030
0001
0100
0001
1000
0100
0020
0000
,
0030
0000
0000
0000
0000
0000
0000
0000
0010
0000
0000
0000
0000
0000
0000
0000
0001
0000
0000
0000
0000
0000
0000
0000
1000
0000
0000
0000
0000
0002
0000
0000
0000
0000
0000
0000
0000
0000
0000
0000
0000
0000
0000
0000
0000
0000
0000
0000
0013
0000
0000
0000
0000
0000
0000
0000
0000
0000
0000
0000
0000
0000
0000
0000
,
0001
1000
0100
0010
0200
0000
0320
0000
,
0031
0000
0000
0000
0000
0000
0000
0000
1000
0000
0000
0000
0000
0000
0000
0000
0100
0000
0000
0000
0000
0000
0000
0000
1000
0000
0000
0000
0000
0001
0000
0000
0200
0000
0000
0000
0000
0000
0000
0000
0000
0000
0000
0000
0000
0000
0000
0000
0310
0000
0000
0000
0000
0000
0000
0000
0000
0000
0000
0000
0000
0000
0000
0000
,
1000
0000
0000
0000
0000
0000
0000
0000
0001
0000
0000
0000
0000
0000
0000
0000
0100
0000
0000
0000
0000
0000
0000
0000
0001
0000
0000
0000
0000
0100
0000
0000
0000
0000
0000
0000
0000
0000
0000
0000
0000
0000
0000
0000
0000
0000
0000
0000
0020
0000
0000
0000
0000
0000
0000
0000
0000
0000
0000
0000
0000
0030
0000
0000
,
1000
0000
0001
0000
1000
0000
0010
1000
0000
0000
1000
0100
0000
0000
0000
0000
,
1000
0000
0000
0000
0000
0000
0000
0000
0100
0000
0000
0000
0000
0000
0000
0000
1000
0000
0000
0000
0000
0000
0000
0000
0001
0000
0000
0010
0000
0000
0000
0000
0000
0000
0000
0000
0000
0000
0000
0000
0000
0000
0000
0002
0000
0000
0000
0000
0200
0000
0000
0000
0000
0000
0000
0000
0303
0000
0000
0000
0000
0000
0000
0000
,
2200
0000
0300
0000
3010
0100
0001
0000
,
1100
0100
1000
0100
0010
0100
2000
0100
,
3002
0103
0010
0100
0001
0100
0001
0200
,
1300
0100
0001
0100
1000
0100
0001
0100
,
0010
1000
0001
0020
1030
0010
0001
0010
,
1000
0010
0100
1000
0001
0001
0010
0100
,
1000
0000
0001
0000
0100
0000
0010
0100
0010
0100
0001
0100
0001
1000
0001
1000
,
0100
1000
0100
1000
0100
0010
0100
0010
0001
1000
0001
1000
0010
0100
0010
0100
,
0002
0000
0000
0000
0010
0100
2003
3010
,
0201
0000
0320
0000
1030
0000
0001
0100
0001
0000
1000
0000
0010
0000
0100
0000
,
0022
0000
0033
0000
1100
0000
0000
1000
0100
0000
0101
0000
1100
0000
0110
0000
,
0021
0000
0000
0000
0130
0000
0000
1000
0010
0000
0020
0000
0100
0000
1030
0000
,
0102
0000
1000
0000
0013
0110
1001
2010
,
0002
3003
0220
0330
1001
1000
0010
0100
,
2100
3100
1200
1300
0110
0011
1010
1020
,
0130
0000
0001
0000
0100
0000
0010
1000
0010
0000
0100
0000
2100
0000
3001
0000
,
1000
0000
0000
1000
0010
0000
0100
0000
0001
0000
1100
0000
0110
0000
0012
0000
,
2000
3003
1000
0100
0010
1002
0023
0130
,
1000
0000
0000
0101
0000
0000
0110
0000
0000
2100
0000
0000
3001
0000
0000
1000
0000
0000
0010
0000
1000
0010
0000
1000
,
0010
0100
0001
1000
0100
1002
0203
0310
,
1000
1000
0001
0020
0200
0330
1010
0000
,
0110
0000
0011
1001
1010
1000
0001
0100
,
0010
0000
0000
1000
0000
0000
0010
0000
1000
0010
0000
1000
0010
0000
0000
0100
0000
0000
0001
0000
0000
0010
0000
0000
,
0100
2001
3100
0010
0001
1100
0001
0010
,
0100
0010
0100
0010
0001
0000
0100
0000
0010
0000
2000
0000
0100
0000
3002
0000
,
0200
0000
0000
0000
,
0000
0000
0000
0000
,
0000
0000
0303
0000
;
