#TITLE:Back to the Front;
#SUBTITLE:;
#ARTIST:Venjent;
#TITLETRANSLIT:;
#SUBTITLETRANSLIT:;
#ARTISTTRANSLIT:;
#GENRE:;
#CREDIT:RxSteps;
#MUSIC:Back to the Front.ogg;
#BANNER:Back to the front.png;
#BACKGROUND:Back to the Front-BG.png;
#CDTITLE:cdtitle.png;
#SAMPLESTART:165.544;
#SAMPLELENGTH:19.310;
#SELECTABLE:YES;
#OFFSET:1.353;
#BPMS:0.000=174.000;
#STOPS:;
#BGCHANGES:;
#FGCHANGES:;

//--------------- dance-single - RxSteps ----------------
#NOTES:
     dance-single:
     RxSteps:
     Beginner:
     4:
     0,0,0,0,0:
0000
0000
0000
0000
,
0001
0000
1000
0001
,
0100
0000
0010
0000
,
0010
0010
1000
0001
,
0200
0300
0200
0000
,
0310
0010
1000
0001
,
0100
0000
0010
0000
,
1000
0010
1000
0001
,
0200
0000
0320
0030
,
0100
0001
1000
0001
,
0100
0000
0010
0000
,
0010
0010
1000
0001
,
0200
0300
0200
0300
,
0100
0010
1000
0001
,
0100
0000
0010
0000
,
0100
0001
1000
0001
,
0200
0000
0320
0030
,
1000
0100
1000
0001
,
0100
0000
0010
0000
,
0010
1000
1000
0001
,
0100
0000
0100
0000
,
1000
0001
1000
0001
,
0100
0000
0010
0000
,
0010
1000
1000
0001
,
0100
0000
0100
0010
,
0010
1000
0100
0010
,
0001
0010
0001
0010
,
0100
1000
0100
0100
,
1000
0001
0100
0001
,
0100
0010
1000
0001
,
0100
0010
1000
0001
,
0010
0100
1000
0001
,
0200
0000
0300
0000
,
0001
0000
1001
0000
,
0100
0000
0110
0000
,
0001
0000
1001
0000
,
1100
0000
0101
0000
,
0001
0001
1000
0001
,
0100
0000
0011
0000
,
0001
0000
1001
0000
,
0110
0000
0002
0000
,
1003
0001
1000
0001
,
0100
0100
0010
0000
,
1000
0001
1000
0002
,
0100
0000
0103
0000
,
0001
0010
0001
0001
,
1000
0100
1000
1000
,
0001
0001
1000
0001
,
0100
0000
0110
0000
,
1000
1000
0020
0030
,
0000
0101
0000
1000
,
0001
0001
0100
0001
,
1000
0100
0010
0100
,
1000
1000
0002
0003
,
0000
1010
0000
0001
,
0100
0100
0001
0100
,
0000
1001
0000
1000
,
0001
0001
1000
0001
,
0100
0100
0010
0000
,
0100
0000
1002
0000
,
0100
0000
0103
0000
,
0001
0100
0020
0030
,
0000
1100
0000
1000
,
0100
0100
1000
0001
,
0100
0010
0000
0000
,
1000
0001
0100
0010
,
0000
0220
0330
0000
,
1000
0001
0200
0300
,
0000
0011
0000
0001
,
0010
0010
0001
0100
,
0010
1000
0100
0010
,
0001
0001
0200
0300
,
0000
0011
0000
2002
,
3003
0000
1000
0001
,
0100
0010
1000
0010
,
0100
0100
0002
0003
,
0000
1001
0000
0220
,
0330
0000
1000
0010
,
0100
0001
0100
0001
,
1000
0010
1000
0001
,
0010
0200
0000
0300
,
0001
0000
1000
0001
,
0100
0000
0010
0000
,
0010
0010
1000
0001
,
0200
0300
0200
0000
,
0310
0010
1000
0001
,
0100
0000
0010
0000
,
1000
0010
1000
0001
,
0200
0000
0000
0300
,
0001
0010
0100
1000
,
0001
0100
0010
0010
,
1000
0100
0010
0100
,
0100
1000
1000
0001
,
0100
0010
1000
0001
,
0100
0010
1000
0001
,
0010
0100
1000
0001
,
0200
0000
0020
0330
,
0001
0000
1001
0000
,
0100
0000
0110
0000
,
0001
0000
1001
0000
,
1100
0000
0101
0000
,
0001
0001
1000
0001
,
0100
0000
0011
0000
,
0001
0000
1001
0000
,
0110
0000
0002
0000
,
1003
0001
1000
0001
,
0100
0100
0010
0010
,
1000
0001
1000
0002
,
0100
0000
0103
0000
,
0001
0010
0001
0001
,
1000
0100
1000
1000
,
0001
0001
1000
0001
,
0200
0020
0030
0300
,
0001
0001
0200
0300
,
0000
1010
0000
0001
,
1000
1000
0010
1000
,
0001
0010
0100
0010
,
0001
0001
2000
3000
,
0000
0101
0000
1000
,
0010
0010
1000
0010
,
0000
1001
0000
0001
,
1000
1000
0001
1000
,
0010
0010
0100
0000
,
0010
0000
2001
0000
,
0100
0000
3100
0000
,
1000
0010
0100
0010
,
1000
0001
0010
0001
,
0010
0010
0001
1000
,
0100
0020
0000
0030
,
0001
1000
0010
0100
,
0000
0220
0330
0000
,
0001
1000
0020
0030
,
0000
1100
0000
1000
,
0100
0100
1000
0010
,
0100
0001
0010
0100
,
1000
1000
0020
0030
,
0000
1100
0000
2002
,
3003
0000
0001
1000
,
0010
0100
0001
0100
,
0010
0010
2000
3000
,
0000
1001
0000
0220
,
0330
0000
0001
0100
,
0010
1000
0010
1000
,
0001
0100
0001
1000
,
0100
0020
0000
0030
,
0010
0001
1000
0001
,
0100
0000
0010
0000
,
0010
0010
1000
0001
,
0200
0300
0200
0300
,
0100
0010
1000
0001
,
0100
0000
0010
0000
,
0100
0001
1000
0001
,
0200
0000
0320
0030
,
1000
0010
1000
0100
,
0000
1000
0001
0000
,
1000
0000
0001
0100
,
0000
0010
0100
0010
,
1000
0100
1000
0100
,
0000
0010
0001
0000
,
1000
0010
1000
0001
,
0100
0000
0010
0000
;

//--------------- dance-single - RxSteps ----------------
#NOTES:
     dance-single:
     RxSteps:
     Easy:
     6:
     0,0,0,0,0:
0000
0000
0000
0000
,
1000
0100
1000
0001
,
0100
0000
0010
0000
,
0100
0001
1000
0001
,
0100
0000
0100
0000
,
1000
0100
1000
0001
,
0100
0000
0010
0000
,
0100
0001
1000
0001
,
0100
0000
0200
0000
,
0301
0001
1000
0001
,
0100
0100
0010
0000
,
0100
0010
1000
0001
,
0200
0300
0210
0300
,
0100
0010
1000
0001
,
0100
0001
0020
0000
,
0130
1000
1000
0001
,
0200
0000
0010
0000
,
0301
0001
1000
0001
,
0100
0010
0010
0000
,
0100
0010
1000
0001
,
0100
0000
0100
0001
,
0100
0010
1000
0001
,
0100
0001
0010
0000
,
0010
0100
1000
0001
,
0200
0300
0200
0300
,
0001
0000
0010
0000
0001
0010
0001
0000
,
0000
0000
1000
0010
0000
1000
0001
0000
,
0100
0000
0100
0000
0001
0100
0001
0000
,
0000
1000
0001
0000
0000
0100
0001
0000
,
0100
0010
1000
1000
,
0001
0010
0010
0001
,
0100
0010
1000
0001
,
0200
0000
0020
0330
,
1001
0000
1100
0101
,
0200
0000
0310
0000
,
1000
0010
1010
0102
,
0200
0300
0100
0003
,
1000
0100
1000
0001
,
1100
0000
0012
0000
,
0013
0100
1000
0001
,
0102
0000
2000
3003
,
0001
0100
1100
0101
,
0200
0000
0010
0000
,
0310
1000
1010
0102
,
0100
0000
0103
0000
,
0001
1000
0010
0010
,
0100
0001
1000
0001
,
0010
0100
1000
0001
,
0200
0000
0020
0300
,
1000
0000
1030
0000
0010
1000
0010
1000
,
0000
0001
1000
0000
0010
1000
0010
0000
,
0100
0000
0100
0000
0001
0100
0001
0100
,
0000
0001
0010
0000
0000
0001
0010
0001
,
0010
0020
0001
0130
,
0000
1000
0200
0000
1000
0000
0310
0000
,
0001
0000
0001
0000
1000
0001
1000
0001
,
0000
0100
0010
0100
0000
0010
0100
0010
,
0100
0001
1000
0001
,
1100
0000
0021
0000
,
0001
0031
1000
0001
,
0110
0001
0100
0010
,
1000
0000
1000
0000
0010
1000
0010
1000
,
0000
0001
1000
0001
0000
0100
0001
0100
,
0001
0001
1000
0001
,
0100
0020
0000
0030
,
0100
0000
0100
0000
0001
0100
0001
0100
,
0000
0001
0010
0000
0010
0001
0010
0000
,
0001
0000
0001
0000
0010
0001
0010
0001
,
0000
0020
0001
0000
0100
0000
0031
0000
,
0010
0010
0200
1000
,
0320
0001
0100
0031
,
0010
0010
0001
1000
,
0010
0100
0010
0000
0100
0010
0100
0010
,
0200
0000
0001
0301
,
0000
1000
0100
0000
1000
0100
1000
0200
,
1000
1300
0010
0100
,
0000
0001
0010
0000
0000
0010
0001
0010
,
0001
0000
0001
0000
1000
0010
1000
0010
,
0000
1000
0001
0000
0000
0100
0010
0100
,
0010
0010
1000
0200
,
0320
0200
0330
0000
,
1000
0100
1000
0001
,
0100
0000
0010
0000
,
0100
0001
1000
0001
,
0100
0000
0100
0000
,
1000
0100
1000
0001
,
0100
0000
0010
0000
,
0100
0001
1000
0001
,
0200
0000
0000
0300
,
0010
0010
0010
0010
,
1000
1000
1000
1000
,
0001
1000
0001
0100
,
0010
1000
0010
0100
,
0010
0010
1000
1000
,
0001
0100
0100
0001
,
0010
0100
1000
0001
,
0200
0000
0020
0330
,
0001
0001
1000
0001
,
0100
0100
0010
0000
,
0100
0010
1000
0001
,
0200
0300
0210
0300
,
0100
0010
1000
0001
,
0100
0001
0020
0000
,
0130
1000
1000
0001
,
0200
0000
0010
0000
,
0301
0001
1000
0001
,
0100
0010
0010
0000
,
0100
0010
1000
0001
,
0100
0000
0100
0001
,
0100
0010
1000
0001
,
0100
0001
0010
0000
,
0010
0100
1000
0001
,
0200
0020
0030
0300
,
0001
0010
0100
1000
,
0100
0010
0001
0000
,
1001
0000
1100
0101
,
0200
0000
0310
0000
,
1000
0010
1010
0102
,
0200
0300
0010
0003
,
1000
0100
1000
0001
,
0100
0010
0100
0000
0000
0001
0100
0000
,
0100
0001
0010
0100
,
1000
0100
0010
0000
,
0001
0100
1100
0101
,
0200
0300
0200
0000
,
0310
0100
0010
1000
,
0100
0010
0001
0100
,
0010
0010
1000
0001
,
0100
0200
0010
0000
,
0310
0000
0010
0000
1000
0010
1000
0010
,
0000
1000
0100
0000
0100
1000
0100
0000
,
1000
0000
1000
0000
0100
1000
0100
1000
,
0000
0200
1000
0000
0010
0000
1300
0000
,
0100
0100
0020
0001
,
0230
1000
0010
1300
,
0100
0100
1000
0001
,
0100
0010
0100
0000
0010
0100
0010
0100
,
0020
0000
1000
1030
,
0000
0001
0010
0000
0001
0010
0001
0020
,
0001
0031
0100
0010
,
0000
1000
0100
0000
0000
0100
1000
0100
,
1000
0000
1000
0000
0001
0100
0001
0100
,
0000
0001
1000
0000
0000
0010
0100
0010
,
0100
0100
0001
0020
,
0230
0020
0300
0000
,
0031
0001
1000
0001
,
0100
0100
0010
0000
,
0100
0010
1000
0001
,
0200
0300
0210
0300
,
0100
0010
1000
0001
,
0100
0001
0020
0000
,
0130
1000
1000
0001
,
0200
0000
0320
0030
,
1000
0010
1000
0100
,
0000
1000
0001
0000
,
1000
0000
0100
0010
,
0000
0001
0010
0000
0100
0000
1000
0000
,
0001
0100
0001
0010
,
0000
0001
0010
0000
0001
0000
0000
0000
,
0100
0010
1000
0001
,
0100
0000
0010
0000
;

//--------------- dance-single - RxSteps ----------------
#NOTES:
     dance-single:
     RxSteps:
     Medium:
     8:
     0,0,0,0,0:
0000
0000
0000
0000
,
1000
0010
0100
0010
1000
0000
0001
0000
,
0100
0000
0001
0100
0010
0000
0000
0000
,
1000
0100
0010
0100
1000
0000
0001
0000
,
0100
0000
0000
0000
1100
0000
1000
0100
,
0010
0001
0010
0100
1000
0000
0001
0000
,
0100
0000
0001
1000
0010
0000
0000
0000
,
1000
0001
0100
0010
1000
0000
0001
0000
,
0200
0300
0022
0033
,
1000
0010
1000
0010
1000
0000
0001
0000
,
0100
0001
0100
0010
0000
0000
0000
0000
,
1000
0001
0100
0010
1000
0000
0001
0000
,
0200
0000
0300
0000
0110
0000
1000
0010
,
0100
0010
0100
0001
1000
0000
0001
0000
,
0200
0300
1020
0000
,
0130
0001
0100
0010
1000
0000
0001
0000
,
0200
0300
2200
3300
,
1000
0100
1000
0010
1000
0000
0001
0000
,
0100
0000
0010
0100
0010
0000
0000
0000
,
1000
0100
0010
0100
1000
0000
0001
0000
,
0100
0000
0000
0000
0101
0000
1000
0001
,
0010
0100
1000
0100
1000
0000
0002
0000
,
0100
0003
1000
0100
0010
0000
0000
0000
,
0010
0001
0100
0010
1000
0000
0001
0000
,
0200
0300
0200
0300
,
0001
0000
1000
0000
0010
1000
0010
0000
,
0000
0100
0010
0000
0000
1000
0100
0000
,
1000
0000
1000
0000
0001
0100
0001
0000
,
0000
1000
0010
0000
0000
0010
0100
0000
,
0010
1000
0010
1000
0001
1000
0001
0100
,
0001
0100
0001
0100
0010
0100
0010
1000
,
0100
1000
0100
0010
0001
0010
0100
1000
,
0200
0000
0310
0000
,
1001
0110
1100
0101
,
2100
0000
3010
0000
,
0001
1000
0001
0000
1010
0000
0011
0000
,
0220
0330
2002
3000
,
0103
0001
0100
0001
1000
0000
0011
0000
,
0110
0000
1000
0100
0010
0000
0000
0000
,
0010
0001
0010
0100
1000
0000
0002
0000
,
0100
0000
0000
0003
1000
0010
1000
0010
,
1000
0001
0100
0010
2000
0000
3002
0000
,
0203
0300
0110
0000
,
1000
0001
0100
0000
1100
0000
0101
0000
,
0220
0330
2200
3300
,
0001
1000
0001
1000
0010
0100
0010
0100
,
0001
1000
0001
1000
0100
1000
0200
0000
,
1300
0010
1000
0010
2000
0000
3002
0000
,
0203
0000
0320
0000
,
1030
0000
1000
0000
0001
0100
0001
0100
,
0000
0001
0010
0000
0010
0100
1000
0001
,
1000
0100
1000
0100
0010
0001
0010
0001
,
0000
1000
0010
0000
0000
0010
0100
0002
,
1000
0003
1000
0001
0100
0020
1000
0000
,
0030
0100
0001
0000
0000
1000
0010
0200
,
0001
0000
0301
0000
0100
0010
1000
0200
,
0300
0200
0010
0000
0300
0100
1000
0100
,
1000
0001
0100
0010
1000
0000
0001
0000
,
0100
0000
0100
0001
0010
0000
1010
0000
,
1000
0001
0100
0010
1000
0000
0001
0000
,
0100
0010
0101
1100
,
1000
0001
0010
0100
1000
0100
1000
0200
,
0000
0320
0001
0000
0030
0010
0100
0010
,
0001
0010
0001
0000
1100
0000
0011
0000
,
0101
0220
0000
0330
,
1000
0000
1000
0000
0001
0100
0001
0100
,
0000
0001
1000
0000
0010
0100
0010
1000
,
0001
0000
0001
0000
0100
0010
0100
0001
,
0000
2000
0010
0000
3000
1000
0100
1000
,
0010
0000
0010
0000
0100
0010
2000
0100
,
3000
0001
0100
0000
0000
0010
0100
0001
,
1000
0000
1000
0000
0100
1000
0100
1000
,
0000
0002
0010
0000
0003
1000
0010
1000
,
0001
1000
0010
1000
0100
1000
0010
2000
,
3000
0002
0100
0003
0000
1000
0100
1000
,
0001
0000
0001
0000
1000
0010
0100
0010
,
0000
1000
0200
0000
0000
0310
0001
0020
,
0001
0000
0031
0000
1000
0001
0100
0010
,
0000
0010
0200
0000
0000
0310
1000
0020
,
1000
0000
1030
0000
0001
0100
0010
1000
,
0000
0002
0100
0000
0000
0000
0003
0000
,
1000
0010
0100
0010
1000
0000
0001
0000
,
0100
0000
0001
0100
0010
0000
0000
0000
,
1000
0100
0010
0100
1000
0000
0001
0000
,
0100
0000
0000
0000
1100
0000
1000
0100
,
0010
0001
0010
0100
1000
0000
0001
0000
,
0100
0000
0001
1000
0010
0000
0000
0000
,
1000
0001
0100
0010
1000
0000
0001
0000
,
0200
0000
0000
0300
,
0001
1000
0001
1000
0001
1000
0002
0003
,
0100
0010
0100
0010
0100
0000
0100
0000
,
0001
0010
0001
0010
0001
0010
0002
0000
,
1000
0000
1003
0000
1000
0000
0010
0100
,
0010
0100
0010
0100
0001
0200
0001
0300
,
0010
1000
0010
1000
0020
0000
0000
0030
,
1000
0001
0100
0010
1000
0000
0001
0000
,
0200
0000
0000
0300
0100
0001
0100
0001
,
1000
0010
1000
0010
1000
0000
0001
0000
,
0100
0000
0001
0100
0010
0000
0000
0000
,
1000
0001
0100
0010
1000
0000
0001
0000
,
0200
0000
0300
0000
0110
0000
1000
0010
,
0100
0010
0100
0001
1000
0000
0001
0000
,
0200
0300
1020
0000
,
0130
0001
0100
0010
1000
0000
0001
0000
,
0200
0000
0300
0000
0001
0010
0001
0010
,
0001
0100
0001
1000
0001
0100
0001
0000
,
1000
0010
0100
0020
0100
0000
0000
0030
,
1000
0001
0100
0001
0100
0000
0020
0000
,
2000
0000
3030
0000
0101
0000
1000
0001
,
0010
0100
1000
0100
1000
0000
0011
0000
,
0110
1001
1100
0001
,
0100
0001
0100
0001
1000
0000
0001
0000
,
0101
0220
0000
0330
,
0001
0000
0001
0000
1000
0010
1000
0010
,
0000
1000
0100
0000
0000
1000
0001
1000
,
0001
0010
0001
0010
0100
1000
0100
1000
,
0000
0001
0100
0000
0000
0100
0010
2000
,
0001
3000
0001
1000
0010
0200
0001
0000
,
0300
0010
1000
0000
1000
0001
0100
0020
,
1000
0000
1030
0000
0010
0100
0001
0020
,
0030
0010
0200
0000
0300
0100
1000
0010
,
1000
0001
0100
0010
1000
0001
1000
0000
,
0100
0000
1000
0100
0010
0000
0101
0000
,
0001
1000
0010
0100
0001
0100
0001
0000
,
1000
0010
1000
0000
0001
1000
0001
0000
,
0001
1000
0100
0010
0001
0010
0001
0020
,
0000
0230
1000
0000
0300
0100
0010
0100
,
1000
0100
1000
0000
1010
0000
0011
0000
,
0101
0001
0010
0000
,
0001
0000
0001
0000
1000
0010
1000
0010
,
0000
1000
0001
0000
0100
0010
0100
0001
,
1000
0000
1000
0000
0010
0100
0010
1000
,
0000
0002
0010
0000
0003
1000
0010
1000
,
0100
0000
0100
0000
0100
1000
0002
0010
,
0003
1000
0010
0000
0000
0100
0010
1000
,
0001
0000
0001
0000
0010
0001
0010
0001
,
0000
2000
0100
0000
3000
0001
0100
0001
,
1000
0001
0100
0001
0010
0001
0100
0002
,
0003
1000
0020
0000
0130
0001
0100
0010
,
1000
0000
1000
0000
0001
0100
0010
0100
,
0000
0001
0020
0000
0000
0130
1000
0200
,
1000
0000
1300
0000
0001
0010
0001
0010
,
0000
0001
1000
0000
0001
0100
0010
0200
,
0001
0000
0301
0000
1000
0010
0100
0001
,
0000
1000
0020
0000
0000
0000
0030
0000
,
1000
0010
1000
0010
1000
0000
0001
0000
,
0100
0000
0001
0100
0010
0000
0000
0000
,
1000
0001
0100
0010
1000
0000
0001
0000
,
0200
0000
0300
0000
0110
0000
1000
0010
,
0100
0010
0100
0001
1000
0000
0001
0000
,
0200
0300
1020
0000
,
0130
0001
0100
0010
1000
0000
0001
0000
,
0200
0300
2200
3300
,
1000
0100
1000
0010
,
0000
0010
0100
0000
0010
0000
0000
0000
,
1000
0000
0000
1000
0010
0000
0100
0000
,
0000
0001
0100
0000
0010
0000
1000
0000
,
0001
0010
0001
0100
,
0000
0010
2000
0000
0001
0000
0000
0000
,
3010
0010
1000
0001
,
0100
0000
0001
1000
0010
0000
0000
0000
;

//--------------- dance-single - RxSteps ----------------
#NOTES:
     dance-single:
     RxSteps:
     Hard:
     10:
     0,0,0,0,0:
0000
0000
0000
0000
,
1000
0001
0100
0010
1000
0000
0001
0000
,
0100
0000
0001
1000
0010
0000
0000
0000
,
0100
0001
0010
0100
1000
0000
0001
0000
,
0100
0000
0000
0000
0100
0000
0001
1000
,
0001
0010
0001
0010
1000
0010
0001
0010
,
0100
0000
1000
0100
0010
0000
0000
0000
,
0010
0001
0100
0010
1000
0000
0001
0000
,
0200
0000
1300
0100
0010
0000
0000
0000
,
0100
0001
1000
0100
1000
0000
0001
0000
,
0100
0000
0001
1000
0010
0000
0000
0000
,
0010
1000
0001
0100
1000
0100
0001
0000
,
0200
0000
0300
0000
1100
0000
1000
0100
,
0010
0100
1000
0010
2000
0000
0001
0000
,
3100
0000
1000
0001
0010
0000
0000
0000
,
0010
0001
0100
0010
1000
0000
0001
0000
,
0100
0000
0010
0100
0010
0000
0000
0000
,
1000
0010
0100
0001
1000
0020
0031
0010
,
0100
0000
0100
0001
0020
0000
0000
0030
,
0010
0100
1000
0001
2000
0000
3001
0000
,
0200
0000
0300
0000
0100
0000
0001
0100
,
0010
1000
0001
0100
1000
0100
0002
0000
,
0100
0000
1003
0100
0020
0000
0000
0030
,
0010
0100
1000
0001
1000
0000
0001
0000
,
0200
0000
0300
0000
0100
0000
0001
1000
,
0020
0000
0031
0000
0010
0100
0010
0000
,
1000
0000
0001
0000
0000
0010
0100
0000
,
1000
0000
0100
0000
0010
0001
0010
0000
,
0100
0000
1000
0000
0000
0001
0100
0000
,
0010
0100
0001
1000
0100
0010
0100
1000
,
0010
0100
0001
0010
0001
1000
0100
1000
,
0010
0100
0001
0010
0100
1000
0100
0010
,
0001
0000
0001
0200
0010
0000
0000
0000
,
0301
0100
0001
0010
1100
0000
0011
0000
,
0110
0000
1000
0100
0010
0000
1020
0000
,
0130
0001
0010
0100
1000
0000
0101
0000
,
1100
0000
0100
0000
0101
0000
0001
0100
,
1000
0100
0001
0100
1000
0100
0001
0020
,
0100
0030
0001
0100
0010
0000
0011
0000
,
0010
0001
0010
0100
1000
0100
0001
0100
,
2100
0000
0000
3000
0001
0100
0001
0100
,
0001
1000
0010
0100
1000
0100
0001
0010
,
0100
1000
0010
0100
0010
0000
0011
0000
,
1000
0001
0010
0100
1000
0000
0002
0000
,
0100
0000
0000
0000
0103
0000
0001
1000
,
0010
0100
0001
0010
0001
0100
0010
1000
,
0010
0100
0010
1000
0001
0010
0100
1000
,
0100
0010
0001
0010
1000
0010
0001
0010
,
0100
0000
1000
0001
0020
0000
0030
0000
,
1010
0000
0101
0000
1000
0010
0100
0001
,
0100
1000
0100
0001
0010
0100
1000
0100
,
0010
0001
0100
0010
1000
0001
0100
0001
,
0010
0001
1000
0100
1000
0010
0100
0002
,
0010
0000
0013
0001
1000
0001
0010
0100
,
0010
0001
1000
0010
0100
0001
0010
0001
,
1000
0100
1000
0010
0100
0001
0100
1000
,
0100
0002
0010
0000
0003
0010
0100
0010
,
0001
0100
0010
0000
1100
0000
0101
0000
,
0110
0000
1000
0001
0010
0000
1010
0000
,
0001
0010
0100
0010
0001
0100
0010
1000
,
0100
0010
0100
1000
0010
0100
0010
1000
,
0001
0100
0010
1000
0001
0010
0001
1000
,
0001
0100
1000
0100
0001
0010
0100
1000
,
0100
0010
0001
0000
1100
0000
0011
0000
,
0110
0000
0001
1000
0020
0000
0000
0000
,
1000
0000
1030
0000
0001
0010
0001
0100
,
0000
0100
0001
1000
0100
1000
0100
0001
,
0100
1000
0100
0010
0001
1000
0010
0100
,
0000
0100
0020
0000
0030
1000
0001
0010
,
0100
0000
0100
1000
0100
0010
0001
0010
,
0000
0010
0001
0000
0000
0001
0100
0010
,
1000
0000
1000
0001
0100
0010
1000
0100
,
0000
0100
2000
0000
3000
0100
0001
0100
,
1000
0100
0010
0001
0010
0100
2000
0000
,
3000
0001
0100
0001
1000
0100
0010
0100
,
1000
0010
0100
0010
0100
0001
1000
0001
,
0010
0100
1000
0001
0100
0010
1000
0002
,
0100
0000
0103
0001
1000
0010
0100
0001
,
0100
0010
1000
0100
0010
0001
1000
0100
,
1000
0001
0010
0100
1000
0001
1000
0010
,
0100
0001
2000
0000
0000
0000
3000
0000
,
1000
0001
0100
0010
1000
0000
0001
0000
,
0100
0000
0001
1000
0010
0000
0000
0000
,
0100
0001
0010
0100
1000
0000
0001
0000
,
0100
0000
0000
0000
0100
0000
0001
1000
,
0001
0010
0001
0010
1000
0010
0001
0010
,
0100
0000
1000
0100
0010
0000
0000
0000
,
0010
0001
0100
0010
1000
0000
0001
0000
,
0200
0000
0000
0000
0300
0000
0100
0001
,
0010
0001
0010
0100
1000
0100
1000
0000
,
0001
0100
0010
1000
0100
0000
0100
0000
,
1000
0001
0100
0010
1000
0001
0100
0000
,
0101
0000
0001
0000
0110
0000
1000
0100
,
0010
0100
1000
0001
0010
0100
0020
0030
,
0001
1000
0010
0200
0010
0000
0310
0000
,
1000
0010
0001
0010
1000
0010
0001
0010
,
0100
0000
0001
1000
0020
0000
0000
0000
,
1030
0010
0100
0001
1000
0020
0031
0010
,
0100
0000
0100
0001
0020
0000
0000
0030
,
0010
0100
1000
0010
1000
0000
0001
0000
,
1100
0000
0000
0000
0102
0003
0100
0010
,
0100
0001
0010
0100
1000
0000
0002
0000
,
0100
0000
1003
0100
0020
0000
0000
0030
,
0010
0100
1000
0001
1000
0000
0001
0000
,
0200
0000
1300
0100
0010
0100
0010
0100
,
0001
1000
0100
0010
0001
1000
0010
0000
,
0010
0100
0001
1000
0100
0010
0100
0000
,
0100
1000
0001
0100
1000
0100
0001
0000
,
0001
0100
0010
0000
2000
0000
3000
0001
,
0100
0010
1000
0010
0100
0001
0010
0100
,
1000
0001
0100
0010
1000
0010
0100
0001
,
0010
0001
0100
0010
1000
0010
0001
0010
,
0100
2200
0000
3300
,
0101
0000
1010
0000
0001
0100
0010
1000
,
0010
0001
0010
1000
0100
0010
0001
0010
,
0100
1000
0010
0100
0001
1000
0010
1000
,
0100
1000
0001
0010
0001
0100
0010
2000
,
0100
0000
3100
1000
0001
1000
0100
0010
,
0100
1000
0001
0100
0010
1000
0100
1000
,
0001
0010
0001
0100
0010
1000
0010
0001
,
0010
2000
0100
0000
3000
0100
0010
0100
,
1000
0010
0100
0000
0011
0000
1010
0000
,
0110
0000
0001
1000
0100
0000
0101
0000
,
1000
0100
0010
0100
1000
0010
0100
0001
,
0010
0100
0010
0001
0100
0010
0100
0001
,
1000
0010
0100
0001
1000
0100
1000
0001
,
1000
0010
0001
0010
1000
0100
0010
0001
,
0010
0100
1000
0000
0011
0000
1100
0000
,
0110
0000
1000
0001
0200
0000
0000
0000
,
0001
0000
0301
0000
1000
0100
1000
0010
,
0000
0010
1000
0001
0010
0001
0010
1000
,
0010
0001
0010
0100
1000
0001
0100
0010
,
0000
0010
0200
0000
0300
0001
1000
0100
,
0010
0000
0010
0001
0010
0100
1000
0100
,
0000
0100
1000
0000
0000
1000
0010
0100
,
0001
0000
0001
1000
0010
0100
0001
0010
,
0000
0010
0002
0000
0003
0010
1000
0010
,
0001
0010
0100
1000
0100
0010
0002
0000
,
0003
1000
0010
1000
0001
0010
0100
0010
,
0001
0100
0010
0100
0010
1000
0001
1000
,
0100
0010
0001
1000
0010
0100
0001
2000
,
0010
0000
3010
1000
0001
0100
0010
1000
,
0010
0100
0001
0010
0100
1000
0001
0010
,
0001
1000
0100
0010
0001
1000
0001
0100
,
0010
1000
0002
0000
0000
0000
0003
0000
,
1000
0001
0100
0010
1000
0000
0001
0000
,
0100
0000
0001
1000
0010
0000
0010
0000
,
0100
0001
0010
0100
1000
0000
0001
0000
,
0100
0000
0000
0000
0100
0000
0001
1000
,
0001
0010
0001
0010
1000
0010
0001
0010
,
0100
0000
1000
0100
0010
0000
0000
0000
,
0010
0001
0100
0010
1000
0000
0001
0000
,
0100
0000
0100
0001
0020
0000
0000
0000
,
0031
0010
0001
0100
,
0000
0100
0010
0000
0100
0000
0000
0000
,
0001
0000
0000
0001
0100
0000
0010
0000
,
0000
1000
0010
0000
0100
0000
0001
0000
,
1000
0100
1000
0010
,
0000
0010
0001
0000
1000
0000
0000
0000
,
0100
0000
0100
0000
1000
0100
0010
0000
,
0100
0000
1000
0001
0010
0000
0000
0000
;
