#TITLE:BLACKOUT;
#SUBTITLE:;
#ARTIST:KoruSe and CHMCL SOUP;
#TITLETRANSLIT:;
#SUBTITLETRANSLIT:;
#ARTISTTRANSLIT:;
#GENRE:;
#CREDIT:RxSteps;
#MUSIC:BLACKOUT.ogg;
#BANNER:BLACKOUT.png;
#BACKGROUND:BLACKOUT-bg.png;
#CDTITLE:cdtitle.png;
#SAMPLESTART:28.264;
#SAMPLELENGTH:22.588;
#SELECTABLE:YES;
#OFFSET:1.383;
#BPMS:0.000=170.000;
#STOPS:;
#BGCHANGES:;
#FGCHANGES:;

//--------------- dance-single - RxSteps ----------------
#NOTES:
     dance-single:
     RxSteps:
     Beginner:
     4:
     0,0,0,0,0:
0000
0000
0000
0000
,
1000
0000
0001
0100
,
0100
0000
0001
1000
,
0001
0000
0100
0001
,
0000
1000
0000
0000
0010
0000
0000
0000
,
0100
0000
0001
1000
,
0010
0000
0100
0010
,
0010
0000
1000
0001
,
0000
0100
0000
0000
0010
0000
1000
0000
,
0001
0000
0100
0100
,
0001
0000
1000
0001
,
1000
0000
0010
0100
,
0000
0001
0000
0000
1000
0000
0010
0000
,
1000
0000
0100
0000
,
0010
0010
0001
0000
,
1000
0001
1000
0001
,
1000
0000
0110
0000
,
1000
0001
0100
0000
,
0010
0010
1000
0000
,
0001
0100
0010
1000
,
0000
0001
0000
0000
0100
0000
0000
0000
,
0001
0100
0010
0100
,
0001
0000
1000
0010
,
0010
0000
0100
0001
,
2000
0000
3000
0000
,
0010
1000
0010
0000
,
0100
0001
0100
0000
,
0001
1000
0001
0000
,
0010
0001
0010
0000
,
0001
1000
0001
0000
,
1000
0100
1000
0000
,
0010
1000
0010
1000
,
0000
0001
0000
0000
0200
0000
0300
0000
,
0001
0000
1000
0000
,
0010
1000
0001
0000
,
0001
0100
0010
0100
,
0000
0001
0000
0000
1000
0000
0001
0000
,
1000
0000
0010
0010
,
1000
0000
0001
0000
,
0010
0000
0001
1000
,
0000
0010
0000
0000
1000
0000
0000
0000
,
0002
0000
0003
0000
,
2000
0000
3000
0000
,
0020
0000
0030
0000
,
0200
0000
0300
0000
,
0002
0000
0003
0000
,
2000
0000
3000
0000
,
0200
0000
0300
0000
,
2000
0000
3000
0000
,
0010
0000
0100
0100
,
0001
0000
1000
1000
,
1000
0000
0010
0010
,
0100
0000
0010
0010
,
1000
0001
1000
0001
,
0100
0001
0100
0001
,
2000
0000
0000
0000
,
3000
0000
0000
0000
,
0010
0000
1000
0001
,
0100
0000
0100
0100
,
0001
0000
0100
0001
,
0000
1000
0000
0000
0010
0000
1000
0000
,
0010
0000
0100
0001
,
0001
0000
1000
0000
,
0100
1000
0100
1000
,
0000
0001
0000
0000
0010
0000
0001
0000
,
0010
0000
0001
0000
,
1000
0001
1000
0000
,
0010
0000
0100
0010
,
0000
1000
0000
0000
0001
0000
0001
0000
,
0100
0000
0010
1000
,
0010
0000
0100
0000
,
0001
0000
1000
0100
,
0000
1000
0000
0000
0001
0000
0000
0000
,
0200
0000
0300
0000
,
0002
0000
0003
0000
,
1000
0000
1000
0000
,
1000
0000
0000
0000
0001
0000
0000
0000
1000
0000
0000
0001
0000
0000
1000
0000
,
0001
0000
0100
0001
,
0001
1000
0010
0010
,
1000
0001
0100
0100
,
0001
1000
0010
0010
,
0100
0010
1000
1000
,
0001
0010
0010
0001
,
1000
0100
1000
1000
,
0002
0000
0000
0003
,
1000
0001
0001
0100
,
0010
0100
0010
0010
,
1000
0001
1000
1000
,
0001
0000
0000
0100
0000
0000
0010
0000
,
0200
0000
0300
0000
,
0002
0000
0003
0000
,
2000
0000
3000
0000
,
0020
0000
0030
0000
,
1000
0000
0000
1000
0000
0001
0000
0000
,
0100
0000
0000
0100
0000
0010
0000
0000
,
1000
0000
0000
0001
0000
1000
0000
0000
,
0010
0000
0000
0010
0000
0100
0000
0000
,
0001
0000
0000
0001
0000
0100
0000
0000
,
0010
0000
0000
0010
0000
1000
0000
0000
,
1000
0000
0000
0010
0000
0100
0000
0000
,
0001
0000
0000
1000
0000
0010
0000
0000
,
1000
0000
0000
0001
0000
0001
0000
0000
,
0100
0000
0000
0100
0000
0010
0000
0000
,
1000
0000
0000
0001
0000
0100
0000
0000
,
0100
0000
0000
0010
0000
1000
0000
0000
,
0010
0000
0000
1000
0000
0001
0000
0000
,
0001
0000
0000
0010
0000
0001
0000
0000
,
1000
0000
0000
0001
0000
0100
0000
0000
,
0020
0000
0030
0000
,
1000
0000
0000
1000
0000
0001
0000
0000
,
0100
0000
0000
0100
0000
0001
0000
0000
,
1000
0000
0000
0010
0000
1000
0000
0000
,
0001
0000
0000
0001
0000
0100
0000
0000
,
0010
0000
0000
1000
0000
0010
0000
0000
,
0010
0000
0000
1000
0000
0001
0000
0000
,
0001
0000
0000
1000
0000
0100
0000
0000
,
1000
0000
0000
0000
,
0201
0000
0300
0000
,
0002
0000
0003
0000
,
2000
0000
3000
0000
,
0200
0000
0300
0000
,
1002
0000
0003
0000
,
1000
0000
0000
0000
,
0201
0000
0300
0000
,
0001
0000
0000
0000
0001
0100
0000
0000
,
0020
0000
0000
0000
,
0030
0000
0000
0000
;

//--------------- dance-single - RxSteps ----------------
#NOTES:
     dance-single:
     RxSteps:
     Easy:
     7:
     0,0,0,0,0:
0000
0000
0000
0000
,
1000
0000
0001
0000
0010
0000
0001
0100
,
0001
0000
1000
0000
0010
0000
0100
0010
,
0100
0000
0001
0000
1000
0000
0001
0010
,
0001
0000
0100
0000
0010
1000
0010
1000
,
0010
0000
0100
0000
0001
0000
1000
0100
,
1000
0000
0010
0000
0100
0000
0001
1000
,
0001
0000
0010
0000
0001
0000
1000
0100
,
1000
0000
0010
0000
0100
0001
0100
0001
,
0100
0010
1000
0100
,
0010
0100
0010
0000
0100
0000
1000
0100
,
1000
0001
0010
0100
,
0010
0000
0100
0000
1000
0001
1000
0001
,
1000
0010
0100
0001
,
0010
0001
0010
0000
0100
0000
1000
0000
,
0001
0010
0100
1000
,
0100
0000
0101
0000
,
1000
0010
0100
0001
,
0010
0001
0010
0000
0100
0000
1000
0100
,
1000
0000
0010
0000
0100
0000
0001
1000
,
0000
1000
0001
0000
0100
0000
0010
1000
,
0010
0100
0001
1000
,
0010
1000
0010
0000
0100
0000
0001
1000
,
0001
0000
0100
0000
0010
0000
1000
0001
,
0000
0001
1000
0000
0010
0000
1000
0000
,
0011
0000
0000
0000
1000
0000
0010
0100
,
0010
0000
1000
0000
0001
0000
0010
0001
,
0010
0000
0100
0000
1000
0000
0010
0100
,
0000
0100
0010
0000
1000
0000
0001
0100
,
0001
1000
0010
0100
,
0001
0010
0001
0000
1000
0000
0001
0010
,
0001
0000
1000
0000
0010
0000
0100
0001
,
0000
0001
0100
0000
0010
1000
0010
1000
,
0010
0100
0001
1000
,
0010
0100
0010
0000
1000
0000
0100
0000
,
0010
0000
0100
0000
1000
0000
0001
0100
,
0000
0100
0001
0000
1000
0000
0100
1000
,
0100
0010
0001
0010
,
0100
1000
0100
0000
0010
0000
0001
0010
,
0001
0000
1000
0000
0100
0000
1000
0001
,
0000
0001
1000
0000
0010
0000
0100
0000
,
0002
0000
0000
0003
,
2000
0000
0000
3000
,
0200
0000
0000
0300
,
0020
0000
0000
0030
,
0001
0000
0000
0001
0000
0100
0000
0000
,
0010
0000
0000
0010
0000
1000
0000
0000
,
0001
0000
0000
1000
0000
0001
0000
0000
,
0100
0000
0000
0010
0000
1000
0000
0000
,
0001
0200
0010
0301
,
0002
1000
0010
0013
,
2000
0010
0001
0001
,
3020
1000
0100
0130
,
1000
0100
0010
0001
,
0100
0010
1000
0010
,
2002
0000
0000
0000
,
3003
0000
0000
0000
,
0220
0000
0330
0000
,
1000
0001
1000
0000
0020
0000
0030
0000
,
0011
0000
0001
0000
0010
0000
0100
0010
,
0000
0010
0100
0000
1000
0000
0001
0000
,
0100
0001
0100
0010
,
1000
0100
1000
0000
0001
0000
0100
0000
,
0010
0000
1000
0000
0010
0000
0100
0001
,
0000
0001
0100
0000
0010
0000
1000
0010
,
1000
0001
1000
0010
,
0100
0001
0100
0000
0010
0000
1000
0000
,
0100
0000
0010
0000
0001
0000
0010
0100
,
0000
0100
0010
0000
0001
0000
1000
0001
,
1000
0010
0100
0010
,
1000
0100
1000
0000
0001
0000
0100
0010
,
0100
0000
0010
0000
1000
0000
0100
1000
,
0000
1000
0100
0000
0010
0000
0001
0010
,
0002
0000
0000
0003
,
2000
0000
0000
0000
,
0010
0000
0010
3000
,
0010
0000
0000
0000
1000
0000
0000
0000
0001
0000
0000
0100
0000
0000
0010
0000
,
0100
0000
0001
0000
1000
0100
0010
0000
,
0001
0000
0100
0000
0001
0010
0100
0000
,
1000
0000
0010
0000
1000
0010
0100
0000
,
0001
0000
0100
0000
0001
1000
0010
0000
,
1000
0000
0001
0000
0100
0010
1000
0000
,
0001
0000
0100
0000
0001
0100
0010
0000
,
1000
0000
0010
0000
1000
0001
0100
0000
,
0001
1000
0001
1000
0001
1000
0001
1000
,
0001
0000
0100
0000
0001
1000
0010
0000
,
0100
0000
0001
0000
1000
0010
0100
0000
,
0001
0000
1000
0000
0010
1000
0100
0000
,
1000
0000
0000
0010
0000
0100
0001
0000
,
2000
0000
0000
3000
,
0020
0000
0000
0030
,
1000
0000
0000
0010
0000
0100
0000
0000
,
0001
0100
0001
0100
0001
0100
0001
0100
,
0001
0000
0000
0001
0000
1000
0000
0000
,
0010
0000
0000
0010
0000
0100
0000
0000
,
0001
0000
0000
1000
0000
0010
0000
0000
,
0100
0000
0000
0001
0000
1000
0000
0000
,
0010
0000
0000
0010
0000
1000
0000
0000
,
0001
0000
0000
0001
0000
0100
0000
0000
,
0001
0000
0000
1000
0000
0100
0000
0000
,
1000
0000
0000
0010
0000
0100
0000
0000
,
1100
0000
0000
1000
0000
0001
1000
0000
,
0010
0000
0000
0010
0000
0100
0010
0000
,
1000
0000
0000
0001
0000
0100
0000
0000
,
0001
0000
0000
0010
0000
0100
1000
0000
,
0010
0000
0000
0100
0000
0100
0010
0000
,
1000
0000
0000
1000
0000
0010
0100
0000
,
0100
0000
0000
0001
0000
0010
0000
0000
,
0001
1000
0001
1000
0001
1000
0001
0000
,
0100
0000
0000
0100
0000
0001
0010
0000
,
0100
0000
0000
1000
0000
1000
0100
0000
,
0010
0000
0000
0001
0000
1000
0000
0000
,
0010
0000
0000
0100
0000
0100
0001
0000
,
1000
0000
0000
0010
0000
0100
0001
0000
,
1000
0000
0000
1000
0000
0100
0010
0000
,
0001
0000
0000
1000
0000
0010
0000
0000
,
0100
0000
0000
0010
0000
1000
0010
0000
,
0202
0000
0000
0300
,
2000
0000
0003
0000
,
0020
0000
0000
3000
,
0100
0030
0000
0100
0000
0001
0000
0000
,
2100
0000
0000
3200
0000
0310
0000
0000
,
0001
0000
0000
0010
0000
0100
0000
0000
,
0202
0000
0000
0300
,
0100
0003
0100
0000
0100
0010
0000
1000
,
0002
0000
0000
0000
,
0003
0000
0000
0000
;

//--------------- dance-single - RxSteps ----------------
#NOTES:
     dance-single:
     RxSteps:
     Medium:
     9:
     0,0,0,0,0:
0000
0000
0000
0000
,
1000
0000
0010
0000
0010
0000
1000
0100
,
0010
0000
0100
0000
0100
0000
1000
0100
,
0010
0000
0001
0000
0001
0000
0100
0010
,
0000
0010
0100
0001
0100
0010
1000
0100
,
0020
0000
0001
0000
0130
0000
0100
1000
,
0002
0000
0010
0000
1003
0000
1000
0100
,
0020
0000
0001
0000
0130
0000
1000
0010
,
0000
0010
0100
0001
0100
0010
1000
0100
,
0010
0100
0010
0000
0001
1000
0001
0100
,
0010
1000
0100
0000
0100
0000
0010
0001
,
0100
0010
1000
0001
1000
0010
0100
0001
,
0010
0100
0010
0000
0100
0000
0100
1000
,
0010
0100
0001
1000
0001
0100
0001
0010
,
0100
0010
0001
1000
0010
0100
0010
1000
,
0001
0010
0100
1000
0001
0010
0100
1000
,
0010
0100
0001
0020
0200
0000
0300
0030
,
0001
0010
0100
0010
0001
1000
0100
0010
,
0001
0010
0100
1000
0001
0100
0010
0100
,
0001
0010
0100
0010
0001
0100
0010
1000
,
0100
0020
0001
0000
0130
0000
1000
0100
,
0010
0100
1000
0010
0100
0001
0100
0010
,
1000
0010
0100
0001
0010
0100
1000
0010
,
1000
0001
0100
0001
1000
0010
0100
0001
,
1000
0001
1000
0000
0010
0000
0010
0100
,
0001
0010
0100
1000
0010
0100
0010
1000
,
0001
0010
0001
1000
0100
1000
0001
0010
,
0001
0100
0010
1000
0100
1000
0001
0010
,
0001
1000
0100
0010
0001
1000
0010
0100
,
0001
0010
0001
1000
0001
0010
0001
1000
,
0100
1000
0001
0100
0001
1000
0100
0010
,
0001
0010
0100
1000
0010
0100
0001
0010
,
0001
0000
1000
0000
0200
0300
0000
0000
1000
0000
0010
0000
0100
0000
0001
0000
,
1000
0100
0010
0100
1000
0001
0010
0100
,
0010
0100
0010
0001
1000
0010
0100
0010
,
1000
0100
0010
0100
1000
0010
0100
0001
,
0010
0200
1000
0000
0310
0000
0001
0010
,
0100
0010
0001
0100
0010
1000
0010
0100
,
0001
0100
0010
1000
0100
0010
0001
0100
,
0001
1000
0010
1000
0001
0100
0010
1000
,
0100
1000
0001
0000
0100
0000
0100
0020
,
1000
0000
0030
1000
0000
0002
0000
0000
,
0023
0000
0000
0100
0000
0031
0000
0000
,
1000
0000
0000
0020
0000
0100
0030
0000
,
0010
0000
0000
1000
0000
0100
0000
0000
,
0010
0000
0001
0000
0100
0010
0000
0000
,
0100
0000
0001
0000
0010
0100
0000
0000
,
0010
0000
0100
0000
1000
0100
0000
0000
,
0010
0000
0001
0000
1000
0100
0000
0000
,
0110
0000
1001
0000
0001
0010
0100
0000
,
0010
0000
0011
0000
1000
0100
0010
0000
,
0011
0000
0000
0000
1020
0030
0000
0000
0100
0000
0001
0000
0010
0000
0000
0000
,
0100
0000
0110
0000
1000
0001
1000
0000
,
0001
0010
0001
1000
0001
0010
0001
0100
,
0010
0100
0010
0100
0001
0100
0001
0010
,
0001
1000
0100
0010
0001
1000
0100
0010
,
0002
0000
0000
0003
,
1000
0010
1000
0100
1000
0001
0100
0010
,
0100
0001
0200
0300
0020
0030
1000
0100
,
1000
0100
0010
0001
0100
0010
0100
0001
,
1000
0001
0100
0010
1000
0001
0010
0100
,
1000
0010
0100
0001
0010
0001
1000
0100
,
1000
0010
0100
0001
0100
0001
0100
0010
,
1000
0100
1000
0001
1000
0100
1000
0010
,
0100
0001
0100
0001
1000
0001
0010
0100
,
1000
0100
0010
0001
0100
0010
1000
0100
,
1000
0001
0010
0000
0001
0100
0010
1000
,
0001
0100
0010
1000
0100
0010
0100
1000
,
0001
0010
0100
1000
0001
1000
0010
0100
,
0001
0010
0100
1000
0010
1000
0001
0100
,
0001
0010
0001
1000
0100
1000
0100
0010
,
0001
0100
0001
1000
0001
0100
0001
1000
,
0010
0100
0001
1000
0001
1000
0001
0010
,
0200
0000
0000
1000
0300
0020
0000
0000
,
0001
0000
0000
0001
0000
0130
0000
0000
,
1000
0000
0000
0010
0000
0100
0000
0000
,
0010
0000
0000
0000
1000
0000
0000
0000
0100
0000
0000
0010
0000
0000
0100
0000
,
1000
0001
0100
0000
0100
0001
1000
0010
,
0200
0000
0000
0301
0000
1000
0100
0000
,
0100
0010
0001
0010
0100
0010
0001
0000
,
1200
0000
0000
0310
0000
0100
1000
0000
,
0001
1000
0010
0000
0010
1000
0001
0100
,
0020
0000
0000
1030
0000
0001
0010
0000
,
0010
0100
1000
0010
0100
0010
1000
0000
,
0001
1000
0001
0100
0000
0100
0001
1000
,
0100
0010
0001
0000
0001
0010
0200
0000
,
1000
0000
0300
1000
0000
0001
0100
0000
,
1200
0000
0000
0310
0000
0002
0000
0000
,
2003
0000
0000
0000
0000
3000
0010
0000
0000
0000
0100
0000
0001
0000
0000
0000
,
0020
0000
0000
0130
0000
0020
0000
0000
,
0031
0000
0000
0001
0000
0100
0010
0000
,
2000
0000
3000
0100
0000
0010
0000
0000
,
0001
0010
0001
1000
0000
1000
0010
0100
,
0001
0000
0000
0001
0000
2000
0000
0000
,
3200
0000
0000
0010
0000
1300
0000
0000
,
0001
0000
0000
0200
0000
0010
0300
0000
,
0100
0000
0000
0001
0000
0010
0000
0000
,
0001
0000
0000
0001
0000
2000
0000
0000
,
3020
0000
0000
0100
0000
1030
0000
0000
,
0001
0000
0000
0020
0000
0100
0030
0000
,
0010
0001
0010
0100
1000
0001
0010
0100
,
1000
0010
0100
0001
0010
0100
0010
0001
,
1000
0010
0100
0001
0100
0001
0100
0010
,
1000
0100
0010
0001
0100
0001
1000
0010
,
1000
0100
0010
0001
0010
0001
0010
0100
,
1000
0010
1000
0001
1000
0010
1000
0100
,
0010
0100
0010
0001
1000
0001
0100
0010
,
1000
0010
0100
0001
0010
0100
1000
0001
,
1000
0100
2000
0010
3000
0010
0100
0000
,
0001
0010
0100
1000
0010
0100
0010
1000
,
0001
0100
0010
1000
0001
1000
0100
0010
,
0001
0100
0010
1000
0100
1000
0001
0010
,
0001
0010
0100
1000
0010
1000
0010
0100
,
0001
0010
0001
1000
0001
0010
0001
1000
,
0100
0010
0001
1000
0100
0010
0001
0010
,
0100
0010
0001
1000
0100
0010
0001
0100
,
0010
1000
0200
0010
0300
0010
0100
1000
,
0001
0020
0000
0000
0000
0000
0030
0000
,
0200
0000
0000
2300
0000
3001
0000
0000
,
2000
0000
3000
0020
0000
0100
0000
0000
,
0130
0000
0000
0001
0000
0020
0000
0000
,
0100
0000
0030
0100
0000
1000
0000
0000
,
1000
0000
0000
0001
0000
0010
0000
0000
,
2100
0000
3000
0010
0000
0200
0000
0000
,
0001
0000
0301
0000
0001
1000
0000
0010
,
0200
0000
0000
0000
,
0300
0000
0000
0000
;

//--------------- dance-single - RxSteps ----------------
#NOTES:
     dance-single:
     RxSteps:
     Hard:
     10:
     0,0,0,0,0:
0000
0000
0000
0000
,
1000
0000
0010
0000
0010
0000
1000
0100
,
0010
0000
0100
0000
0100
0000
1000
0100
,
0010
0000
0001
0000
0001
0000
0100
0010
,
0000
0010
0100
0001
0100
0010
1000
0100
,
0020
0000
0001
0000
0130
0000
0100
1000
,
0002
0000
0010
0000
1003
0000
1000
0100
,
0020
0000
0001
0000
0130
0000
1000
0010
,
0000
0010
0100
0001
0100
0010
1000
0100
,
0010
0100
0010
0000
0001
1000
0001
0100
,
0010
1000
0100
0000
0100
0000
0010
0001
,
0100
0010
1000
0001
1000
0010
0100
0001
,
0010
0100
0010
0000
0100
0000
0100
1000
,
0010
0100
0001
1000
0001
0100
0001
0010
,
0100
0010
0001
1000
0010
0100
0010
1000
,
0001
0010
0100
1000
0001
0010
0100
1000
,
0010
0100
0001
0020
0200
0000
0300
0030
,
0001
0000
0010
0000
0100
0000
0010
0000
0001
0000
1000
0000
0100
0000
0020
0030
,
1000
0010
0100
1000
0001
0100
0010
0100
,
0001
0000
0020
0030
1000
0000
0010
0000
0001
0000
0100
0000
0010
0000
1000
0000
,
0100
0020
0001
0000
0130
0000
1000
0100
,
0010
0000
0100
0000
1000
0000
0010
0000
0100
0000
0001
0000
0100
0000
0020
0030
,
0001
0010
0100
0001
0010
0100
1000
0010
,
1000
0000
0200
0300
0001
0000
0100
0000
1000
0000
0010
0000
0100
0000
0001
0000
,
1000
0001
1000
0000
0010
0000
0010
0100
,
0001
0010
0100
1000
0010
0100
0010
1000
,
0001
0000
0020
0030
1000
0000
0001
0000
0100
0000
1000
0000
0100
0000
0010
0000
,
0001
0100
0010
1000
0100
1000
0001
0010
,
0001
0000
0200
0300
1000
0000
0001
0000
0010
0000
1000
0000
0010
0000
0100
0000
,
0001
0000
0010
0000
0001
0000
1000
0000
0001
0000
0010
0000
0001
0000
0200
0300
,
1000
0000
0001
0000
0010
0000
1000
0000
0001
0000
1000
0000
0100
0000
0020
0030
,
1000
0010
0100
1000
0010
0100
0001
0010
,
0001
0000
1000
0000
0200
0300
0000
0000
1000
0000
0010
0000
0100
0000
0001
0000
,
1000
0000
0100
0000
0010
0000
0100
0000
1000
0000
0001
0000
0010
0000
0200
0300
,
0001
0100
0010
0001
1000
0010
0100
0010
,
1000
0000
0200
0300
0001
0000
0100
0000
1000
0000
0010
0000
0100
0000
0001
0000
,
0010
0200
1000
0000
0310
0000
0001
0010
,
0100
0000
0010
0000
0001
0000
0100
0000
0010
0000
1000
0000
0010
0000
0200
0300
,
1000
0100
0010
1000
0100
0010
0001
0100
,
0001
0000
0020
0030
1000
0000
0010
0000
0001
0000
0100
0000
0010
0000
1000
0000
,
0100
1000
0001
0000
0100
0000
0100
0020
,
1000
0000
0030
1000
0000
0002
0000
0000
,
0023
0000
0000
0100
0000
0031
0000
0000
,
1000
0000
0000
0020
0000
0001
0030
0000
,
0010
0000
0000
1000
0000
0100
0000
0000
,
0010
0000
0000
0000
0001
0000
0000
0000
0100
0000
0010
1000
0010
0000
0000
0000
,
0100
0000
0000
0000
0001
0000
0000
0000
0010
0000
0100
1000
0100
0000
0000
0000
,
0010
0000
0000
0000
0100
0000
0000
0000
1000
0000
0001
0100
0001
0000
0000
0000
,
0010
0000
0000
0000
0100
0000
0000
0000
0010
0000
0001
1000
0001
0000
0000
0000
,
0110
0000
0000
0000
1001
0000
0000
0000
0001
0010
0001
0000
1000
0000
0000
0000
,
0010
0000
0000
0000
0011
0000
0000
0000
0100
1000
0100
0000
0010
0000
0000
0000
,
0011
0000
0000
0000
1020
0030
0000
0000
0100
0001
0100
0000
0010
0000
0000
0000
,
1000
0000
0000
0000
0110
0000
0000
0000
0001
0100
0001
0000
1000
0000
0000
0000
,
0001
0000
0010
0000
0001
0000
1000
0000
0001
0000
0010
0000
0001
0000
0200
0300
,
1000
0000
0200
0300
0001
0000
0200
0300
1000
0000
0100
0000
0001
0000
0010
0000
,
0001
1000
0100
0010
0001
1000
0100
0010
,
0002
0000
0000
0003
,
1000
0010
1000
0100
1000
0001
0100
0010
,
0100
0001
0200
0300
0020
0030
1000
0100
,
1000
0100
0010
0001
0100
0010
0100
0001
,
1000
0000
0200
0300
0001
0000
1000
0000
0010
0000
0001
0000
0010
0000
0100
0000
,
1000
0010
0100
0001
0010
0001
1000
0100
,
1000
0000
0020
0030
0001
0000
1000
0000
0100
0000
0001
0000
0100
0000
0010
0000
,
1000
0000
0100
0000
1000
0000
0001
0000
1000
0000
0100
0000
1000
0000
0020
0030
,
0001
0000
1000
0000
0100
0000
0001
0000
1000
0000
0001
0000
0010
0000
0200
0300
,
0001
0100
0010
0001
0100
0010
1000
0100
,
1000
0001
0010
0000
0001
0100
0010
1000
,
0001
0100
0010
1000
0100
0010
0100
1000
,
0001
0000
0200
0300
1000
0000
0001
0000
0010
0000
1000
0000
0010
0000
0100
0000
,
0001
0010
0100
1000
0010
1000
0001
0100
,
0001
0000
0020
0030
1000
0000
0001
0000
0100
0000
1000
0000
0100
0000
0010
0000
,
0001
0000
0100
0000
0001
0000
1000
0000
0001
0000
0100
0000
0001
0000
0020
0030
,
1000
0001
0100
1000
0001
1000
0001
0010
,
0200
0000
0000
1000
0300
0020
0000
0000
,
0001
0000
0000
0001
0000
0130
0000
0000
,
1000
0000
0000
0010
0000
0100
0000
0000
,
0010
0000
0000
0000
1000
0000
0000
0000
0100
0000
0000
0010
0000
0000
0100
0000
,
1000
0001
0100
0000
0100
0001
1000
0010
,
0200
0000
0000
0301
0000
1000
0100
0000
,
0100
0000
0010
0000
0001
0000
0020
0030
1000
0000
0010
0000
0001
0000
0000
0000
,
1200
0000
0000
0310
0000
0100
1000
0000
,
0001
1000
0010
0000
0010
1000
0001
0100
,
0020
0000
0000
1030
0000
0001
0010
0000
,
0010
0000
0100
0000
1000
0000
0200
0300
0001
0000
0100
0000
1000
0000
0000
0000
,
0010
1000
0010
0100
0000
0100
0001
1000
,
0100
0010
0001
0000
0001
0010
0200
0000
,
1000
0000
0300
1000
0000
0001
0100
0000
,
1200
0000
0000
0310
0000
0002
0000
0000
,
2003
0000
0000
0000
0000
3000
0010
0000
0000
0000
0100
0000
0001
0000
0000
0000
,
0020
0000
0000
1030
0000
0020
0000
0000
,
0031
0000
0000
0001
0000
0100
0010
0000
,
2000
0000
3000
0100
0000
0010
0000
0000
,
0001
0010
0001
1000
0000
1000
0010
0100
,
0001
0000
0000
0001
0000
2000
0000
0000
,
3200
0000
0000
0010
0000
1300
0000
0000
,
0001
0000
0000
0200
0000
1000
0300
0000
,
0100
0000
0000
0001
0000
0010
0000
0000
,
0001
0000
0000
0001
0000
2000
0000
0000
,
3020
0000
0000
0100
0000
1030
0000
0000
,
0001
0000
0000
0020
0000
1000
0030
0000
,
0010
0001
0010
0100
1000
0001
0010
0100
,
1000
0010
0100
0001
0010
0100
0010
0001
,
1000
0000
0020
0030
0001
0000
1000
0000
0100
0000
0001
0000
0100
0000
0010
0000
,
1000
0100
0010
0001
0100
0001
1000
0010
,
1000
0000
0200
0300
0001
0000
1000
0000
0010
0000
0001
0000
0010
0000
0100
0000
,
1000
0000
0010
0000
1000
0000
0001
0000
1000
0000
0010
0000
1000
0000
0200
0300
,
0001
0000
1000
0000
0010
0000
0001
0000
1000
0000
0001
0000
0100
0000
0020
0030
,
0001
0010
0100
0001
0010
0100
1000
0001
,
1000
0100
2000
0010
3000
0010
0100
0000
,
0001
0010
0100
1000
0010
0100
0010
1000
,
0001
0000
0020
0030
1000
0000
0001
0000
0100
0000
1000
0000
0100
0000
0010
0000
,
0001
0100
0010
1000
0100
1000
0001
0010
,
0001
0000
0200
0300
1000
0000
0001
0000
0010
0000
1000
0000
0010
0000
0100
0000
,
0001
0000
0010
0000
0001
0000
1000
0000
0001
0000
0010
0000
0001
0000
0200
0300
,
1000
0000
0001
0000
0010
0000
1000
0000
0100
0000
0010
0000
0001
0000
0200
0300
,
1000
0100
0010
1000
0100
0010
0001
0100
,
0010
1000
0200
0010
0300
0010
0100
1000
,
0020
0002
0000
0000
0000
0030
0000
0000
,
2003
0000
3000
0200
0000
0301
0000
0000
,
1000
0000
0000
0200
0000
0001
0300
0000
,
0100
0000
0000
1000
0000
0020
0000
0000
,
0100
0000
0030
0100
0000
0001
0000
0000
,
1000
0000
0000
0001
0000
0010
0000
0000
,
2100
0000
3000
0010
0000
0200
0000
0000
,
0001
0000
0301
0000
0001
1000
0000
0010
,
0200
0000
0000
0000
,
0300
0000
0000
0000
;
