#TITLE:ALL MY PALS;
#SUBTITLE:;
#ARTIST:Cute Girls Doing Cute Things;
#TITLETRANSLIT:;
#SUBTITLETRANSLIT:;
#ARTISTTRANSLIT:;
#GENRE:;
#CREDIT:RxSteps;
#MUSIC:ALL MY PALS.ogg;
#BANNER:ALL MY PALS.png;
#BACKGROUND:ALL MY PALS-BG.png;
#CDTITLE:cdtitle.png;
#SAMPLESTART:35.652;
#SAMPLELENGTH:15.000;
#SELECTABLE:YES;
#OFFSET:-0.028;
#BPMS:0.000=128.000;
#STOPS:;
#BGCHANGES:;
#FGCHANGES:;

//--------------- dance-single - RxSteps ----------------
#NOTES:
     dance-single:
     RxSteps:
     Beginner:
     2:
     0,0,0,0,0:
0000
0000
0000
0000
,
0000
0000
0000
0000
,
0000
0000
0001
0000
,
0000
0000
0000
0000
,
1000
0000
0010
0000
,
0010
0000
0000
0000
,
1000
0000
1000
0000
,
0001
0000
0000
0000
,
0100
0000
0100
0000
,
0010
0000
0000
0000
,
1000
0000
1000
0000
,
0001
0000
0000
0000
,
0010
0000
0000
0000
,
0100
0000
0000
0000
,
0001
0000
0000
0000
,
0010
0000
0000
0000
,
1000
0000
0000
0000
,
0100
0000
0000
0000
,
0001
0000
0001
0000
,
1001
0000
0000
0000
,
1000
0000
0010
0000
,
0110
0000
0000
0000
,
0001
0000
0100
0000
,
1001
0000
0000
0000
,
1000
0000
0010
0000
,
1010
0000
0000
0000
,
0100
0000
0000
0000
,
0001
0000
0000
0000
,
0001
0000
0000
0000
,
1001
0000
0000
0000
,
0100
0000
0001
0000
,
0101
0000
0000
0000
,
0100
0000
1000
0000
,
1100
0000
0000
0000
,
1000
0000
0001
0000
,
0001
0000
0000
0000
,
0100
0000
0100
0000
,
0010
0000
0000
0000
,
0010
0000
1000
0000
,
1000
0000
0000
0000
,
0010
0000
0100
0000
,
0010
0000
0000
0000
,
1000
0000
1000
0000
,
0010
0000
0000
0000
,
0010
0000
1000
0000
,
1001
0000
0000
0000
,
0001
0000
0010
0000
,
0011
0000
0000
0000
,
0001
0000
0100
0000
,
0101
0000
0000
0000
,
1000
0000
1000
0000
,
0010
0000
0000
0000
0000
0000
0000
0010
,
0000
0000
0000
0000
,
0100
0000
0000
0000
0001
0000
0000
0001
,
0000
0000
0000
0000
,
1000
0000
0000
0000
0000
0000
0000
0010
,
0000
0000
0000
0000
,
0100
0000
0000
0000
0010
0000
0000
0010
,
0000
0000
1000
0000
,
0001
0000
0000
0000
,
0100
0000
0000
0000
,
0001
0000
0000
0000
,
1000
0000
0000
0000
,
0010
0000
0000
0000
,
0010
0000
0000
0000
,
0100
0000
0000
0000
,
0100
0000
0000
0000
,
1000
0000
0000
0000
,
0100
0000
0000
0000
,
0010
0000
0000
0000
,
1000
0000
0000
0000
,
0100
0000
0000
0000
,
0001
0000
0000
0000
,
0010
0000
0000
0000
,
1000
0000
1000
0000
,
1001
0000
0000
0000
,
0001
0000
0100
0000
,
0110
0000
0000
0000
,
1000
0000
0010
0000
,
1001
0000
0000
0000
,
0001
0000
0100
0000
,
0101
0000
0000
0000
,
0010
0000
0000
0000
,
1000
0000
0000
0000
,
1000
0000
0000
0000
,
1001
0000
0000
0000
,
0010
0000
1000
0000
,
1010
0000
0000
0000
,
0010
0000
0001
0000
,
0011
0000
0000
0000
,
0001
0000
1000
0000
,
1000
0000
0000
0000
,
0010
0000
0010
0000
,
0100
0000
0000
0000
,
0100
0000
0001
0000
,
0001
0000
0000
0000
,
0100
0000
0010
0000
,
0100
0000
0000
0000
,
0001
0000
0001
0000
,
0100
0000
0000
0000
,
0001
0000
0100
0000
,
0100
0000
0000
0000
,
0001
0000
0001
0000
,
1000
0000
0000
0000
,
0010
0000
0010
0000
;

//--------------- dance-single - RxSteps ----------------
#NOTES:
     dance-single:
     RxSteps:
     Easy:
     4:
     0,0,0,0,0:
0000
0000
0000
0000
,
0000
0000
0000
0000
,
0000
0000
0001
0010
,
0001
1000
0010
0010
,
1000
1000
0001
0100
,
0010
0100
0001
0001
,
0100
0010
1000
0001
,
0200
0000
0000
0000
,
0320
0000
2030
0000
,
3002
0000
0000
0000
,
0203
0000
0320
0000
,
1030
0000
1000
0010
1000
0000
0001
0000
,
1000
0000
0010
0000
1000
0010
1000
0000
,
0001
0000
0001
0100
0001
0000
1000
0000
,
0010
0000
1000
0000
0001
1000
0001
0000
,
1000
0000
0010
1000
0010
0000
1000
0000
,
0001
0000
0010
0000
0001
0010
0001
0000
,
1000
0000
1000
0010
1000
0000
0001
0000
,
2000
0000
0010
3010
,
1001
0000
1000
0001
,
0010
0000
0001
0000
0100
0001
0100
0000
,
0101
0000
1000
0001
,
0100
0000
0010
0000
1000
0010
1000
0010
,
2000
0000
3100
1000
,
0100
0000
0010
0000
0001
0010
0001
0000
,
0011
0000
1000
0001
,
0100
0010
0010
1000
,
0002
0000
0000
0000
,
0203
0000
0300
0000
0001
0100
0001
0100
,
0001
0000
1000
0010
,
0100
0000
0001
0000
1000
0001
1000
0000
,
0110
0000
0001
0010
,
0100
0000
1000
0000
0010
1000
0010
1000
,
0001
0000
1000
0001
,
0100
0010
1000
1000
,
0002
0000
0000
0103
0000
0001
0000
2000
,
0000
0000
3000
0020
0000
0000
0030
0000
,
1000
0000
0000
0001
0000
0010
0000
0002
,
0000
0000
0003
2000
0000
0000
3010
0000
,
2000
0000
3000
0020
0000
0130
0000
0002
,
0000
0000
0000
0023
0000
0000
0030
0000
,
0001
0000
0000
1000
0000
0100
0000
2000
,
0000
0000
0000
3020
0000
0000
0000
0000
,
0000
0000
0000
0030
,
2000
3000
0001
0100
,
0001
0001
0100
0010
,
1000
0001
0001
1000
,
1001
0000
1000
0010
,
0100
0010
1000
0100
,
1100
0000
1000
0001
,
0010
0001
0100
0100
,
0001
0000
0000
0001
0000
0001
0000
1000
,
0000
1000
1000
0001
,
0100
0001
0000
0100
0001
0000
0000
1000
,
0000
0010
1000
0001
,
1000
0000
0000
1000
0000
1000
0000
0001
,
0000
0001
0001
1000
,
0010
1000
0000
0010
1000
0000
0000
0001
,
0000
0100
0100
0010
,
2000
0000
0000
0000
,
3002
0000
0023
0000
,
0230
0000
0000
0000
,
2300
0000
3020
0000
,
0230
0000
0000
0000
,
0302
0000
2003
0000
,
3020
0000
0000
0000
,
0230
0000
0302
0003
,
0001
0000
0001
0100
0001
0000
1000
0000
,
0001
0000
0100
0000
0001
0100
0001
0000
,
1000
0000
1000
0010
1000
0000
0001
0000
,
0100
0000
0001
0000
1000
0001
1000
0000
,
0001
0000
0100
0001
0100
0000
0001
0000
,
1000
0000
0100
0000
1000
0100
1000
0000
,
0001
0000
0001
0100
0001
0000
1000
0000
,
0002
0000
0100
0103
,
1001
0000
0001
1000
,
0100
0000
1000
0000
0010
1000
0010
0000
,
1010
0000
0001
1000
,
0010
0000
0100
0000
0001
0100
0001
0100
,
0002
0000
0013
0001
,
0010
0000
0100
0000
1000
0100
1000
0000
,
1100
0000
0001
1000
,
0010
0100
0100
0001
,
2000
0000
0000
0000
,
3020
0000
0030
0000
1000
0010
1000
0010
,
1000
0000
0001
0100
,
0010
0000
1000
0000
0001
1000
0001
0000
,
0110
0000
1000
0100
,
0010
0000
0001
0000
0100
0001
0100
0001
,
1000
0000
0001
1000
,
0010
0100
0001
0001
,
2000
0000
0000
3010
0000
1000
0000
0002
,
0000
0000
0003
0200
0000
0000
0300
0000
,
0001
0000
0000
1000
0000
0100
0000
2000
,
0000
0000
3000
0002
0000
0000
0103
0000
,
0002
0000
0003
0200
0000
0310
0000
2000
,
0000
0000
0000
3200
0000
0000
0300
0000
,
1000
0000
0000
0001
0000
0010
0000
0002
,
0000
0000
0000
0203
0000
0000
0300
0000
,
0001
0001
1000
0001
,
0100
0100
0001
0001
,
1000
0010
0100
0010
,
1000
1000
0010
0100
,
0001
0100
0001
1000
,
0100
0100
1000
1000
;

//--------------- dance-single - RxSteps ----------------
#NOTES:
     dance-single:
     RxSteps:
     Medium:
     6:
     0,0,0,0,0:
0000
0000
0000
0000
,
0000
0000
0000
0000
,
0000
0000
0000
0000
1000
0100
1000
0000
,
0000
0001
0010
0100
0000
0100
0010
0100
,
1000
0100
0010
0100
1000
0000
0001
1000
,
0001
0100
0001
0010
0000
0010
0001
1000
,
0001
1000
0010
0100
0001
0010
0001
0010
,
0002
0000
2003
0000
,
3020
0000
2030
0000
,
3200
0000
0320
0000
,
0032
0000
0203
0000
,
0310
0000
0010
1000
0100
0000
0100
1000
,
0001
0100
0010
0100
0001
0100
0010
0100
,
0001
0000
0001
0010
0100
0000
0100
1000
,
0100
0010
0100
0010
0100
1000
0100
0010
,
0001
0000
1000
0010
0100
0000
0100
0010
,
1000
0001
0100
0010
1000
0001
0100
0010
,
1000
0000
1000
0001
0010
0000
0010
0001
,
0100
0000
0000
0001
0000
0000
0100
0000
0010
0000
0000
0000
0010
0000
0000
0000
,
1100
0000
0101
0000
0001
0100
0010
0100
,
0001
1000
0100
0010
0001
1000
0001
1000
,
0010
0000
0010
0100
0001
1000
0100
1000
,
0001
0100
0010
1000
0001
1000
0100
0010
,
0100
0000
0100
1000
0100
0010
0001
0010
,
0100
0010
0100
1000
0001
1000
0001
1000
,
0010
0000
0010
1000
0100
1000
0001
0010
,
0001
1000
0100
1000
0001
0000
0002
0000
,
0000
0000
0000
0003
,
1000
0010
0100
0010
2000
0000
3000
0000
,
0101
0000
1100
0000
1000
0001
0100
0010
,
0100
0001
1000
0100
0010
0001
0010
0100
,
0010
0000
0010
0100
1000
0000
1000
0001
,
0010
0001
0100
0010
0200
0000
0300
0000
,
1100
0000
0101
0000
0001
1000
0010
0100
,
0001
1000
0001
0010
0200
0000
1300
0000
,
1002
0000
0000
0100
0000
1003
0000
0001
,
0010
0100
1000
0010
0100
0001
0100
0000
,
2001
0000
0000
0010
0000
3001
0000
1000
,
0010
0100
0001
1000
0010
0100
0010
0000
,
1001
0000
0000
0110
0000
1100
0000
0001
,
0100
0001
1000
0010
1000
0010
0100
0000
,
1001
0000
0000
0110
0000
0101
0000
1000
,
0010
1000
0001
0100
0010
1000
0010
2000
,
0000
0000
0000
0000
0000
3000
0000
0001
,
0100
0000
0000
0010
1000
0100
1000
0000
,
1002
0000
0000
0010
0000
1003
0000
0001
,
0100
0010
1000
0100
0010
0001
0010
0000
,
2001
0000
0000
0100
0000
3001
0000
1000
,
0100
0010
0001
1000
0100
0010
0100
0000
,
1001
0000
0000
0110
0000
1010
0000
0001
,
0010
0001
1000
0100
1000
0000
0001
0000
,
0200
0000
0000
0010
0000
0301
0000
2000
,
0000
3002
0100
1000
,
0013
0000
0000
0001
0000
0000
0100
0000
0010
0000
0000
0010
0000
0000
1000
0000
,
0000
1000
0100
0010
,
0100
1000
0010
0100
0001
0100
0010
0100
,
0001
0000
0001
0000
0100
0010
1000
0010
,
0100
0000
0000
0001
0000
0000
1000
0000
0100
0000
0000
0100
0000
0000
1000
0000
,
0000
0001
0100
0010
,
2000
0000
0000
0000
,
3020
0000
0000
0000
0130
0000
0001
0100
,
0020
0000
0000
0000
,
2030
0000
0000
0000
3100
0000
1000
0100
,
0020
0000
0000
0000
,
0032
0000
0000
0000
0103
0000
0001
1000
,
0020
0000
0000
0000
,
2030
0000
0002
3000
,
0103
0000
0100
0010
1000
0000
1000
0001
,
0010
0001
1000
0100
1000
0001
1000
0001
,
0100
0000
0100
0010
1000
0000
0001
0010
,
0100
1000
0100
1000
0001
0100
0001
0100
,
0010
0000
0010
1000
0100
1000
0001
0010
,
0001
0100
0001
1000
0010
1000
0010
1000
,
0001
0000
0001
0010
0100
0000
0100
0010
,
0001
0000
0000
0100
0000
0000
0010
0000
1000
0000
0000
0000
1000
0000
0000
0000
,
0011
0000
1010
0000
1000
0010
0100
0010
,
1000
0001
0010
0100
1000
0001
1000
0001
,
0100
0000
0100
0010
1000
0001
0010
0001
,
1000
0010
0100
0001
1000
0001
0010
0100
,
0010
0000
0010
0001
0010
0100
1000
0100
,
0010
0100
0010
0001
1000
0001
1000
0001
,
0100
0000
0100
0001
0010
0001
1000
0100
,
1000
0001
0010
0001
1000
0001
1000
0001
,
2000
0000
0000
3000
,
0001
0100
0010
0100
0002
0000
0003
0000
,
1010
0000
0011
0000
0001
1000
0010
0100
,
0010
1000
0001
0010
0100
1000
0100
0010
,
0100
0000
0100
0010
0001
0000
0001
1000
,
0100
1000
0010
0100
0020
0000
0030
0000
,
0011
0000
1010
0000
1000
0001
0100
0010
,
1000
0001
1000
0100
0020
0000
0031
0000
,
2001
0000
0000
0010
0000
3001
0000
1000
,
0100
0010
0001
0100
0010
1000
0010
0000
,
1002
0000
0000
0100
0000
1003
0000
0001
,
0100
0010
1000
0001
0100
0010
0100
0000
,
1001
0000
0000
0110
0000
0011
0000
1000
,
0010
1000
0001
0100
0001
0100
0010
0000
,
1001
0000
0000
0110
0000
1010
0000
0001
,
0100
0001
1000
0010
0100
0001
0100
0001
,
1000
0010
0100
0010
0000
1000
0100
0010
,
0001
0010
0100
0010
0001
0000
1000
0001
,
1000
0010
1000
0100
0000
0100
1000
0001
,
1000
0001
0100
0010
1000
0100
1000
0100
,
1000
0100
0010
0100
0000
1000
0010
0100
,
0001
0100
0010
0100
0001
1000
0001
0100
;

//--------------- dance-single - RxSteps ----------------
#NOTES:
     dance-single:
     RxSteps:
     Hard:
     7:
     0,0,0,0,0:
0000
0000
0000
0000
,
0000
0000
0000
0000
,
0000
0000
0000
0000
0001
1000
0010
1000
,
0001
0010
0100
0000
1000
0001
0200
0000
,
0010
0301
0100
0000
0002
1000
0103
0000
,
0010
0000
0100
0000
0010
0000
0000
0000
0000
0000
1000
0000
0001
0000
0100
0001
,
0000
1000
0100
0010
0100
1000
0010
0100
,
0001
0000
1000
0000
0010
0000
1000
0000
0001
0000
0020
0000
0100
0000
0030
0001
,
0100
0000
0001
0000
1000
0000
0000
0010
0100
0000
0010
0000
1000
0000
0000
0000
,
0001
0100
0010
0000
1000
0001
0100
0000
,
0020
0100
1030
0000
0002
1000
0103
0000
,
1000
0000
1000
0010
0100
0000
0001
0100
,
0010
0000
0010
1000
0100
1000
0010
0100
,
0001
0000
0001
1000
0010
0000
1000
0010
,
0100
0001
0010
0001
0010
0001
0100
0001
,
1000
0010
0100
0001
1000
0100
0010
0001
,
0100
0010
0100
0010
1000
0001
1000
0001
,
0200
0010
0302
0100
1003
0001
0010
0100
,
2000
0000
3000
0001
0000
0000
0100
0000
0020
0000
0030
0000
2000
0000
3000
0000
,
0011
0000
0000
0001
1000
0000
0001
0000
0100
0000
0010
0000
0100
0000
0001
0000
,
1000
0010
1000
0001
0110
0000
1100
0000
,
0101
0000
0000
0100
0010
0000
0100
0000
0001
0000
1000
0000
0010
0000
0100
0000
,
0001
0010
0001
0100
0010
0000
1100
0000
,
1001
0000
0000
0001
0100
0000
0001
0000
0010
0000
0001
0000
0100
0000
0001
0000
,
0010
0100
0010
0001
1000
0010
1000
0010
,
0101
0000
0000
0100
0001
0000
1000
0000
0010
0000
0100
0000
0001
0000
1000
0000
,
0001
0100
0010
1000
0001
0200
0020
0000
,
0000
0330
1001
0110
,
0001
0000
1000
0000
0010
1000
0010
0000
0100
0000
0001
0000
0100
0000
0001
0000
,
1010
0000
0000
0100
0001
0000
0100
0000
0010
0000
0100
0000
0001
0000
1000
0000
,
0100
1000
0001
0100
0010
0100
0001
0010
,
1010
0000
0000
1000
0010
0000
1000
0000
0100
0000
1000
0000
0001
0000
0100
0000
,
0010
1000
0100
0010
0001
0010
0100
0010
,
1001
0000
0000
0001
1000
0000
0001
0000
0100
0000
0001
0000
1000
0000
0001
0000
,
0100
0020
0100
1030
0002
0000
0200
0303
,
0020
0000
0200
0030
0000
0000
0301
0000
0000
0000
2200
0000
3300
0000
0001
0000
,
0100
0010
0100
0001
1000
0010
1000
0100
,
2000
3002
0000
0100
0003
0220
0330
0001
,
1000
0001
1000
0010
0100
0001
0010
0100
,
0020
0002
0030
0103
0000
1010
0000
0001
,
0100
0010
1000
0001
0010
0001
0100
0001
,
0200
0020
0300
1030
0000
0101
0000
0001
,
1000
0010
0100
0001
0200
0010
0302
0200
,
0000
0000
0000
0303
0000
0000
1100
0000
0000
0000
0110
0000
0000
0000
0001
0000
,
0100
0100
0001
1000
0001
0010
0001
1000
,
0020
0100
0000
1030
0000
0101
0000
1000
,
0100
0010
0100
1000
0001
0010
0001
0100
,
0002
2003
0000
0100
3000
0220
0330
1000
,
0001
1000
0001
0010
0100
1000
0010
0100
,
0020
2030
0000
3100
0000
0011
0000
1000
,
0100
0010
0001
1000
0010
0000
0010
0000
,
0100
0000
0000
0001
0000
0002
0000
1000
,
0000
0103
0100
0001
,
0100
0000
0000
0010
0000
0000
1000
0000
0001
0000
0000
0100
0000
0000
0010
0000
,
0000
0010
2100
0010
,
3001
0000
1000
0010
1000
0100
1000
0001
,
0010
0001
0100
0001
1000
0010
1000
0010
,
0200
0300
0001
1000
0010
0000
0010
0100
,
0001
1000
0001
0000
0110
0000
1000
0000
,
0002
0000
0000
0000
1000
0000
0010
0003
,
0200
0000
0010
0000
0302
0003
1000
0100
,
0020
0000
0001
0130
,
2000
0000
0001
0000
3020
0030
0100
0001
,
2000
0000
0100
0000
0001
0000
0100
3000
,
0020
0000
1000
0000
0230
0300
0001
0010
,
0200
0000
1000
0000
0010
0000
1000
0300
,
0002
0000
2003
3000
,
0001
0000
0001
0100
0010
0000
1000
0010
,
0100
0000
0100
0001
0010
0001
0100
0010
,
1000
0000
1000
0001
0100
0000
0001
0100
,
0010
1000
0100
1000
0100
1000
0010
1000
,
0001
0100
0010
1000
0001
0010
0100
1000
,
0010
0100
0010
0100
0001
1000
0001
1000
,
0020
0100
2030
0010
3001
1000
0100
0010
,
0002
0000
0003
1000
0000
0000
0010
0000
0200
0000
0300
0000
0002
0000
0003
0000
,
1100
0000
0000
0001
1000
0000
0001
0000
0010
0000
0100
0000
0010
0000
0001
0000
,
1000
0100
1000
0001
0110
0000
1010
0000
,
0011
0000
0000
0010
0100
0000
0010
0000
0001
0000
1000
0000
0100
0000
0010
0000
,
0001
0100
0001
0010
0100
0000
1010
0000
,
1001
0000
0000
0001
0010
0000
0001
0000
0100
0000
0001
0000
0010
0000
0001
0000
,
0100
0010
0100
0001
1000
0100
1000
0100
,
0011
0000
0000
0010
0001
0000
1000
0000
0100
0000
0010
0000
0001
0000
1000
0000
,
0001
0010
0100
1000
0001
0020
0200
0000
,
0000
0330
1001
0110
,
0001
0000
1000
0100
1000
0000
0100
0000
0010
0000
0001
0000
0010
0000
0001
0000
,
1100
0000
0000
0010
0001
0000
0010
0000
0100
0000
0010
0000
0001
0000
1000
0000
,
0010
1000
0001
0010
0100
0010
0001
0100
,
1100
0000
0000
1000
0100
0000
1000
0000
0010
0000
1000
0000
0001
0000
0010
0000
,
0100
1000
0010
0100
0001
0100
0010
0100
,
1001
0000
0000
0001
1000
0000
0001
0000
0010
0000
0001
0000
1000
0000
0001
0000
,
0010
0200
0010
1300
0002
0000
0020
0033
,
0200
0000
0020
0300
0000
0000
0031
0000
0000
0000
2020
0000
3030
0000
0001
0000
,
0010
0100
0010
0001
1000
0100
1000
0010
,
2000
3002
0000
0010
0003
0220
0330
0001
,
1000
0001
1000
0100
0010
0001
0100
0010
,
0200
0002
0300
0013
0000
1100
0000
0001
,
0010
0100
1000
0001
0100
0001
0010
0001
,
0020
0200
0030
1300
0000
0011
0000
0001
,
1000
0100
0010
0001
0010
0100
0001
0010
,
0001
0000
0100
0000
0010
0000
1000
0000
0000
0000
0001
0000
0010
0000
0100
0010
,
0000
0000
0001
0000
0100
0000
0010
0100
0000
0000
0010
0000
0100
0000
0001
0000
,
1000
0000
0010
0000
1000
0000
0001
0000
0000
0000
0200
0000
0010
0300
0001
0100
,
0000
0000
0020
0000
0100
0030
1000
0010
0000
0000
1000
0000
0001
0000
0100
0000
,
0001
0000
0010
0000
0100
0000
1000
0000
0000
0000
0001
0000
0100
0000
0010
0100
,
0000
0000
0001
0000
0010
0000
0100
0010
0000
0000
0100
0000
0010
0000
0001
0000
;
