#TITLE:Von dutch;
#SUBTITLE:;
#ARTIST:Charli xcx;
#TITLETRANSLIT:;
#SUBTITLETRANSLIT:;
#ARTISTTRANSLIT:;
#GENRE:;
#CREDIT:RxSteps;
#MUSIC:Von dutch.ogg;
#BANNER:Von dutch.png;
#BACKGROUND:Von dutch-bg.png;
#CDTITLE:cdtitle.png;
#SAMPLESTART:28.403;
#SAMPLELENGTH:23.538;
#SELECTABLE:YES;
#OFFSET:1.597;
#BPMS:0.000=130.000;
#STOPS:;
#BGCHANGES:;
#FGCHANGES:;

//--------------- dance-single - RxSteps ----------------
#NOTES:
     dance-single:
     RxSteps:
     Beginner:
     3:
     0,0,0,0,0:
0000
0000
0000
0000
,
0001
0000
1000
0000
,
0001
0000
0100
0000
,
0000
0010
0000
0000
,
1000
0000
0001
0000
,
0010
0000
0010
0000
,
0001
0000
1000
0000
,
0000
0010
0000
0000
,
1000
0000
0000
1000
0000
0000
0000
0000
,
0000
0001
0000
0100
,
0000
0010
0000
0000
,
0000
0100
0000
0001
,
0000
1000
0000
0000
,
0010
0000
0000
0010
0000
0000
0000
0000
,
0100
0000
0000
0100
0000
0000
0000
0000
,
0001
0000
0000
0001
0000
0000
0000
0000
,
1000
0000
0000
0000
,
0000
0110
0000
0000
,
0000
1000
0000
0010
,
0000
0010
0000
0100
,
0000
0001
0000
1000
,
0000
1000
0000
0100
,
0000
0010
0000
0001
,
0000
0001
0000
0000
,
0100
0000
0000
0100
0000
0000
0000
0000
,
0010
0000
1000
0000
,
0001
0000
0010
0000
,
0000
0001
0000
0010
,
0000
0100
0000
1000
,
0000
1000
0000
0001
,
0000
0010
0000
0001
,
0000
0001
0000
0000
,
0100
0000
0000
0100
0000
0000
0000
0000
,
0010
0000
0000
0010
0000
0000
0000
0000
,
1000
0000
0000
1000
0000
0000
0000
0000
,
0001
0000
0000
0001
0000
0000
0000
0000
,
0020
0000
0030
0000
,
0001
0000
1000
0000
,
0010
0000
1000
0000
,
0001
0000
0100
0000
,
0020
0000
0000
0000
,
0030
0000
0000
0000
,
2000
0000
3000
0000
,
0000
0001
0000
0000
,
0010
0000
0000
0000
,
0001
0000
0000
0001
0000
0000
0000
0000
,
0100
0000
0000
0100
0000
0000
0000
0000
,
0010
0000
0000
0010
0000
0000
0000
0000
,
1000
0000
0000
1000
0000
0000
0000
0000
,
0001
0000
0000
0001
0000
0000
0000
0000
,
0200
0300
0000
0020
,
0030
0000
2000
0000
,
3000
0000
0000
0000
,
0000
1001
0000
0000
,
0000
0001
0000
0100
,
0000
0100
0000
0010
,
0000
1000
0000
0001
,
0000
0001
0000
0010
,
0000
0100
0000
1000
,
0000
1000
0000
0000
,
0010
0000
0000
0010
0000
0000
0000
0000
,
0100
0000
0001
0000
,
1000
0000
0100
0000
,
0000
1000
0000
0100
,
0000
0010
0000
0001
,
0000
0001
0000
1000
,
0000
0100
0000
1000
,
0000
1000
0000
0000
,
0010
0000
0000
0010
0000
0000
0000
0000
,
0000
0100
0000
0001
,
0000
1000
0000
0010
,
0000
0100
0000
0001
,
0000
0010
0000
0001
,
0000
0001
0000
1000
,
0000
0010
0000
0100
,
0000
0100
0000
0001
,
0000
0001
0000
0000
,
1000
0000
0000
0001
,
0000
1000
0000
0100
,
0000
0100
0000
0010
,
0000
0001
0000
1000
,
0000
1000
0000
0010
,
0000
0100
0000
0001
,
0000
0001
0000
0000
,
0010
0000
0000
0020
0000
0000
0000
0000
,
0000
0000
0000
0000
,
0030
0000
0000
0000
;

//--------------- dance-single - RxSteps ----------------
#NOTES:
     dance-single:
     RxSteps:
     Easy:
     6:
     0,0,0,0,0:
0000
0000
0000
0000
,
0001
0100
0010
1000
,
0001
0010
0001
2000
,
3000
0010
1000
0100
,
0010
0001
0010
0100
,
1000
0001
1000
0100
,
0010
0001
1000
0000
,
0110
0000
1000
0001
,
0020
0030
0000
0002
0003
0000
2000
0000
,
3000
0010
0100
0010
,
1000
0001
0100
0002
,
0003
1000
0100
0010
,
0100
1000
0001
0010
,
0020
0030
0000
0002
0003
0000
1000
0000
,
0020
0030
0000
0200
0300
0000
0001
0000
,
2000
3000
0000
0200
0300
0000
0010
0000
,
0001
2000
3000
0010
,
0010
0100
0001
1000
,
0100
0010
0001
1000
,
0000
0110
0000
0001
,
1000
0010
0100
0010
,
1000
1000
0010
0100
,
0001
1000
0010
0100
,
0000
1001
0000
0001
,
2000
3000
0000
0020
0030
0000
0100
0000
,
0010
0010
1000
0001
,
0010
0100
1000
0002
,
0003
1000
0100
0010
,
0100
1000
0001
0100
,
0010
0010
0100
0001
,
1000
0100
0010
0001
,
1000
1000
0010
0100
,
0002
0003
0000
0020
0030
0000
0100
0000
,
1000
0100
0010
0001
,
1000
0010
0100
0001
,
0010
0010
0001
1000
,
0100
0100
1000
0001
,
0100
0100
0010
1000
,
0001
0010
0001
1000
,
0010
1000
0001
0010
,
0001
0001
0010
0200
,
0000
0000
0300
0000
,
2000
0000
3000
0000
,
0000
0001
0200
0300
,
0020
0030
2000
3000
,
0002
0003
0000
0020
0030
0000
0100
0000
,
2000
3000
0000
0200
0300
0000
0010
0000
,
0002
0003
0000
0020
0030
0000
0100
0000
,
0020
0030
0000
0002
0003
0000
1000
0000
,
0020
0030
0000
0200
0300
0000
0010
0000
,
2000
3000
0000
0002
0003
0000
0020
0030
,
0000
0002
0003
0000
2000
3000
0000
0200
,
0300
1000
0100
0010
,
0001
0001
1000
0001
,
0010
0100
1000
0001
,
0000
0110
0000
1000
,
0001
0100
0010
0100
,
0001
0001
0100
0010
,
1000
0001
0100
0010
,
0000
1001
0000
1000
,
0002
0003
0000
0200
0300
0000
0010
0000
,
0100
0100
0001
1000
,
0100
0010
0001
2000
,
3000
0001
0010
0100
,
0010
0001
1000
0010
,
0100
0100
0010
1000
,
0001
0010
0100
1000
,
0001
0001
0100
0010
,
2000
3000
0000
0200
0300
0000
0010
0000
,
0001
0010
0100
1000
,
0001
0100
0010
1000
,
0100
0100
1000
0001
,
0100
0010
1000
0001
,
0001
0100
0010
1000
,
0001
0010
0100
1000
,
1000
0100
0010
0001
,
1000
1000
0010
0100
,
0001
0010
0001
1000
,
0010
0100
0001
1000
,
0000
0110
0000
0001
,
1000
0100
0010
0100
,
1000
1000
0100
0010
,
0001
1000
0100
0010
,
0000
1001
0000
0001
,
2000
3000
0000
0200
0000
0000
0020
0000
,
0000
0000
0000
0000
,
0330
0000
0000
0000
;

//--------------- dance-single - RxSteps ----------------
#NOTES:
     dance-single:
     RxSteps:
     Medium:
     8:
     0,0,0,0,0:
0000
0000
0000
0000
,
0001
0100
0010
0100
0001
0010
0100
1000
,
0010
0100
0001
1000
0010
0100
0002
0000
,
0013
0000
1200
0300
0010
0100
1000
0100
,
0010
0001
0100
0010
1000
0200
0010
0300
,
1000
0000
0001
0100
0010
0100
0001
0010
,
0100
1000
0010
0200
0301
0000
1010
0000
,
0011
0000
1000
0100
0010
0002
0100
0003
,
0200
0300
0020
1000
0030
1000
0200
0000
,
0010
0300
1000
0100
0010
0001
0100
0010
,
0100
0001
1000
0100
0010
0200
1300
0000
,
0011
0000
1020
0030
0100
0001
1000
0010
,
0100
0001
1000
0100
0010
0100
2000
0000
,
0010
3000
0020
0100
0030
0100
0002
0000
,
1000
0003
2000
0100
3000
0100
0020
0030
,
0001
0000
0200
0010
0300
0020
1030
0000
,
0101
0000
1000
0010
0100
0002
0013
0000
,
0110
0000
2001
3000
0010
0100
0001
1000
,
0100
0010
0001
0100
0010
2000
3001
0000
,
0110
0000
0000
0000
1200
0300
0010
0000
0001
0000
0100
0000
0010
0000
0100
0000
,
0001
0010
0100
0010
0001
1000
0010
0200
,
0301
0000
0000
0000
1200
0300
0010
0000
0100
0000
1000
0000
0001
0000
0100
0000
,
0010
0100
0001
2000
3100
0000
0011
0000
,
0110
0000
0000
0000
1002
0003
0100
0000
0010
0000
1000
0000
0002
0000
0000
0000
,
0100
0003
0200
0010
0300
0020
1030
0000
,
0110
0000
0000
0000
0021
0030
0100
0000
1000
0000
0100
0000
0010
0000
0100
0000
,
1000
0010
0100
0001
0010
0200
1300
0000
,
0110
0000
0000
0000
0201
0300
0010
0000
1000
0000
0001
0000
0010
0000
0100
0000
,
0010
0001
0100
0010
1000
0001
0100
0020
,
1030
0000
0000
0000
0201
0300
0010
0000
0100
0000
0001
0000
0010
0000
0100
0000
,
1000
0001
0100
0010
0100
0002
1003
0000
,
0110
0000
0000
0000
1020
0030
0100
0000
0001
0000
0010
0000
0200
0000
0000
0000
,
1000
0300
2000
0010
3000
0020
0100
0030
,
0100
0001
0010
0100
0010
0001
0100
0010
,
1000
0100
0010
0100
1000
0001
0010
0200
,
1000
0300
1000
0010
0100
0001
0010
0200
,
1300
0000
0000
0000
0201
0300
0010
0000
1000
0000
0002
0000
0010
0000
0003
0000
,
0010
0001
0100
0010
1000
0100
0010
0100
,
1000
0010
0100
0001
0010
0100
0010
0002
,
0100
0003
0100
0010
1000
0001
0010
0200
,
1300
0000
0000
0000
0021
0030
0100
0000
1000
0000
0100
0000
0020
0000
0000
0000
,
0030
0000
0001
1000
0010
0100
0010
1000
,
0100
0010
0100
1000
0010
0100
0002
0000
,
0003
0000
2000
3000
0010
0100
0001
0010
,
0100
0010
0001
0100
0010
1000
0002
0003
,
0200
0300
0010
2000
3000
0001
0200
0300
,
0020
0030
1000
0200
0300
0010
0002
0003
,
2000
3000
0010
0200
0300
0001
0020
0030
,
0200
0300
1000
0002
0003
0100
0020
0030
,
1000
0100
0010
0001
0010
0100
1000
0001
,
0100
0010
0100
0001
0100
0010
1000
0100
,
0010
0100
1000
0001
0100
0010
0100
0002
,
0010
0003
0010
0001
0100
0020
1030
0000
,
0110
0000
1002
0003
0100
0010
1000
0001
,
0010
0100
1000
0010
0100
0002
1003
0000
,
0110
0000
0000
0000
0021
0030
0100
0000
1000
0000
0010
0000
0100
0000
0010
0000
,
1000
0100
0010
0100
1000
0010
0100
0020
,
1030
0000
0000
0000
0021
0030
0100
0000
0010
0000
0001
0000
1000
0000
0010
0000
,
0100
0010
1000
0002
0013
0000
1100
0000
,
0110
0000
0000
0000
2001
3000
0010
0000
0100
0000
0001
0000
2000
0000
0000
0000
,
0010
3000
0020
0100
0030
0200
0301
0000
,
0110
0000
0000
0000
1200
0300
0010
0000
0001
0000
0010
0000
0100
0000
0010
0000
,
0001
1000
0010
0100
0010
2000
3001
0000
,
0110
0000
0000
0000
1020
0030
0100
0000
0001
0000
1000
0000
0100
0000
0010
0000
,
0100
1000
0010
0100
0001
0010
0100
0020
,
0031
0000
0000
0000
1020
0030
0100
0000
0010
0000
1000
0000
0100
0000
0010
0000
,
0001
1000
0010
0100
0010
2000
3001
0000
,
0110
0000
0000
0000
0201
0300
0010
0000
1000
0000
0100
0000
0020
0000
0000
0000
,
0001
0030
0002
1000
0003
1000
0020
0000
,
0130
0000
0000
0000
1200
0300
0010
0000
0001
0000
0100
0000
0010
0000
1000
0000
,
0001
0010
0100
0010
0001
0100
0010
2000
,
0100
3000
0100
0010
0001
0010
0100
1000
,
0010
0100
0001
1000
0100
0020
0031
0000
,
0110
0000
0000
0000
0201
0300
0010
0000
1000
0000
0100
0000
0010
0000
0100
0000
,
1000
0010
0100
0001
1000
0010
0100
0002
,
0013
0000
0000
0000
0110
0000
0000
0000
1200
0300
0010
0000
0001
0000
0100
0000
,
0010
0100
0001
0010
0100
2000
3001
0000
,
0110
0000
2001
3000
0100
0010
0001
1000
,
0010
0100
0001
0010
0100
2000
3001
0000
,
0110
0000
0000
0000
1020
0030
0100
0000
0001
0000
0010
0000
0100
0000
0010
0000
,
0001
0100
0010
0100
0001
0010
0100
0020
,
0031
0000
0000
0000
1020
0030
0100
0000
0010
0000
1000
0000
0001
0000
0010
0000
,
0100
0010
0001
2000
3010
0000
0101
0000
,
0110
0000
0000
0000
1002
0003
0010
0000
0100
0000
1000
0000
0002
0000
0000
0000
,
0010
0003
0020
0100
0030
0200
2000
0000
,
0000
0000
0000
0000
,
3300
0000
0000
0000
;

//--------------- dance-single - RxSteps ----------------
#NOTES:
     dance-single:
     RxSteps:
     Hard:
     9:
     0,0,0,0,0:
0000
0000
0000
0000
,
0001
0100
0010
0100
0001
0010
0100
1000
,
0010
0000
0100
0000
0001
0000
0200
0300
1000
0000
0100
0000
0002
0000
0000
0000
,
0013
0000
1200
0300
0010
0100
1000
0100
,
0010
0001
0100
0010
1000
0200
0010
0300
,
1000
0000
0001
0100
0010
0100
0001
0010
,
0100
1000
0010
0200
0301
0000
1010
0000
,
0011
0000
1000
0100
0010
0002
0100
0003
,
0200
0300
0020
1000
0030
1000
0200
0000
,
0001
0300
1000
0100
0010
0001
0100
0010
,
0100
0000
0001
0000
1000
0000
0200
0300
0001
0000
0200
0000
1300
0000
0000
0000
,
0011
0000
1020
0030
0100
0001
1000
0010
,
0100
0001
1000
0100
0010
0100
2000
0000
,
0010
3000
0020
0100
0030
0100
0002
0000
,
1000
0003
2000
0100
3000
0100
0020
0030
,
0001
0000
0200
0010
0300
0020
1030
0000
,
0101
0000
1000
0010
0100
0002
0013
0000
,
0110
0000
2001
3000
0010
0100
0001
1000
,
0100
0000
0010
0000
0001
0000
0100
0000
0020
0030
0002
0000
1003
0000
0000
0000
,
0110
0000
0000
0000
1200
0300
0010
0000
0001
0000
0100
0000
0010
0000
0100
0000
,
0001
0000
0010
0000
0100
0000
0010
0000
0001
0000
0200
0300
1000
0000
0200
0000
,
0301
0000
0000
0000
1200
0300
0010
0000
0100
0000
1000
0000
0001
0000
0100
0000
,
0010
0100
0001
2000
3100
0000
0011
0000
,
0110
0000
0000
0000
1002
0003
0100
0000
0010
0000
1000
0000
0002
0000
0000
0000
,
0100
0003
0200
0010
0300
0020
1030
0000
,
0110
0000
0000
0000
0021
0030
0100
0000
1000
0000
0200
0300
0001
0000
0100
0000
,
1000
0000
0010
0000
0100
0000
0001
0000
0020
0030
2000
0000
3001
0000
0000
0000
,
0110
0000
0000
0000
0201
0300
0010
0000
1000
0000
0001
0000
0010
0000
0100
0000
,
0010
0000
0001
0000
0100
0000
0010
0000
1000
0000
0200
0300
0001
0000
0200
0000
,
1300
0000
0000
0000
0201
0300
0010
0000
0100
0000
0001
0000
0010
0000
0100
0000
,
1000
0000
0100
0000
0010
0000
0001
0000
0200
0300
2000
0000
3001
0000
0000
0000
,
0110
0000
0000
0000
1020
0030
0100
0000
0001
0000
0010
0000
0200
0000
0000
0000
,
1000
0300
2000
0010
3000
0020
0100
0030
,
0100
0000
0001
0000
0020
0030
1000
0000
0010
0000
0001
0000
0100
0000
0010
0000
,
1000
0100
0010
0100
1000
0001
0010
0200
,
1000
0300
1000
0010
0100
0001
0010
0200
,
1300
0000
0000
0000
0201
0300
0010
0000
1000
0000
0002
0000
0010
0000
0003
0000
,
0010
0000
0001
0000
0100
0000
0010
0000
1000
0000
0200
0300
0001
0000
0100
0000
,
1000
0000
0010
0000
0100
0000
0001
0000
0020
0030
1000
0000
0010
0000
0002
0000
,
0100
0003
0100
0010
1000
0001
0010
0200
,
1300
0000
0000
0000
0021
0030
0100
0000
1000
0000
0100
0000
0020
0000
0000
0000
,
0030
0000
0001
1000
0010
0100
0010
1000
,
0100
0010
0100
1000
0010
0100
0002
0000
,
0003
0000
2000
3000
0010
0100
0001
0010
,
0100
0010
0001
0100
0010
1000
0002
0003
,
0200
0300
0010
2000
3000
0001
0200
0300
,
0020
0030
1000
0200
0300
0010
0002
0003
,
2000
3000
0010
0200
0300
0001
0020
0030
,
0200
0300
1000
0002
0003
0100
0020
0030
,
1000
0100
0010
0001
0010
0100
1000
0001
,
0200
0300
1000
0000
0100
0000
0001
0000
0100
0000
0010
0000
1000
0000
0200
0300
,
0001
0100
1000
0001
0100
0010
0100
0002
,
0010
0003
0010
0001
0100
0020
1030
0000
,
0110
0000
1002
0003
0100
0010
1000
0001
,
0010
0000
0100
0000
1000
0000
0010
0000
0200
0300
2000
0000
3001
0000
0000
0000
,
0110
0000
0000
0000
0021
0030
0100
0000
1000
0000
0010
0000
0100
0000
0010
0000
,
1000
0000
0100
0000
0010
0000
0100
0000
1000
0000
0020
0030
0001
0000
0020
0000
,
1030
0000
0000
0000
0021
0030
0100
0000
0010
0000
0001
0000
1000
0000
0010
0000
,
0100
0010
1000
0002
0013
0000
1100
0000
,
0110
0000
0000
0000
2001
3000
0010
0000
0100
0000
0001
0000
2000
0000
0000
0000
,
0010
3000
0020
0100
0030
0200
0301
0000
,
0110
0000
0000
0000
1200
0300
0010
0000
0001
0000
0020
0030
1000
0000
0010
0000
,
0001
0000
0100
0000
0010
0000
1000
0000
0200
0300
0002
0000
1003
0000
0000
0000
,
0110
0000
0000
0000
1020
0030
0100
0000
0001
0000
1000
0000
0100
0000
0010
0000
,
0100
0000
1000
0000
0010
0000
0100
0000
0001
0000
0020
0030
1000
0000
0020
0000
,
0031
0000
0000
0000
1020
0030
0100
0000
0010
0000
1000
0000
0100
0000
0010
0000
,
0001
0000
0010
0000
0100
0000
1000
0000
0020
0030
0002
0000
1003
0000
0000
0000
,
0110
0000
0000
0000
0201
0300
0010
0000
1000
0000
0100
0000
0020
0000
0000
0000
,
0001
0030
0002
1000
0003
1000
0020
0000
,
0130
0000
0000
0000
1200
0300
0010
0000
0001
0000
0100
0000
0010
0000
1000
0000
,
0001
0010
0100
0010
0001
0100
0010
2000
,
0100
3000
0100
0010
0001
0010
0100
1000
,
0010
0000
0100
0000
0001
0000
1000
0000
0200
0300
0002
0000
1003
0000
0000
0000
,
0110
0000
0000
0000
0201
0300
0010
0000
1000
0000
0100
0000
0010
0000
0100
0000
,
1000
0000
0010
0000
0100
0000
0001
0000
1000
0000
0010
0000
0200
0300
2000
0000
,
3001
0000
0000
0000
0110
0000
0000
0000
1200
0300
0010
0000
0001
0000
0200
0300
,
1000
0100
0001
0010
0100
2000
3001
0000
,
0110
0000
2001
3000
0100
0010
0001
1000
,
0010
0000
0100
0000
0001
0000
0010
0000
0200
0300
0002
0000
1003
0000
0000
0000
,
0110
0000
0000
0000
1020
0030
0100
0000
0001
0000
0010
0000
0100
0000
0010
0000
,
0001
0000
0100
0000
0010
0000
0100
0000
0001
0000
0020
0030
1000
0000
0020
0000
,
0031
0000
0000
0000
1020
0030
0100
0000
0010
0000
1000
0000
0001
0000
0010
0000
,
0100
0010
0001
2000
3010
0000
0101
0000
,
0110
0000
0000
0000
1002
0003
0010
0000
0100
0000
1000
0000
0002
0000
0000
0000
,
0010
0003
0020
0100
0030
0200
2000
0000
,
0000
0000
0000
0000
,
3300
0000
0000
0000
;
