#TITLE:So Damn Dangerous;
#SUBTITLE:;
#ARTIST:Dea Matrona;
#TITLETRANSLIT:;
#SUBTITLETRANSLIT:;
#ARTISTTRANSLIT:;
#GENRE:;
#CREDIT:RxSteps;
#MUSIC:So Damn Dangerous.ogg;
#BANNER:So Damn Dangerous.png;
#BACKGROUND:So Damn Dangerous-bg.png;
#CDTITLE:cdtitle.png;
#SAMPLESTART:37.015;
#SAMPLELENGTH:21.099;
#SELECTABLE:YES;
#OFFSET:2.545;
#BPMS:0.000=91.000;
#STOPS:;
#BGCHANGES:;
#FGCHANGES:;

//--------------- dance-single - RxSteps ----------------
#NOTES:
     dance-single:
     RxSteps:
     Beginner:
     3:
     0,0,0,0,0:
0000
0000
0000
0000
,
1000
0000
0001
0000
,
1000
0000
0010
0000
,
0010
0000
0100
0000
,
0001
0000
0010
0000
,
0010
0000
0100
0000
,
1000
0000
0001
0000
,
0001
0000
0100
0000
,
0010
0000
1000
0000
,
1000
0000
0001
0000
,
0010
0000
0010
0000
,
0100
0000
0100
0000
,
1000
0000
0001
0000
,
1000
0000
0100
0000
,
0010
0000
0010
0000
,
0001
0000
1000
0000
,
0020
0000
0030
0000
,
1000
0000
0010
0000
,
0020
0000
0030
0000
,
0100
0000
0100
0000
,
0002
0000
0003
0000
,
1000
0000
0100
0000
,
0010
0000
0001
0000
,
1000
0000
0010
0000
,
0100
0000
0100
0000
,
0001
0000
0010
0000
,
0010
0000
0001
0000
,
1000
0000
0010
0000
,
0100
0000
0010
0000
,
1000
0000
0001
0000
,
0010
0000
0010
0000
,
0001
0000
1000
0000
,
0100
0000
0010
0000
,
0001
0000
1000
0000
,
0002
0000
0003
0000
,
1000
0000
0100
0000
,
0200
0000
0300
0000
,
0010
0000
0010
0000
,
0002
0000
0003
0000
,
1000
0000
0010
0000
,
0100
0000
0001
0000
,
0001
0000
1000
0000
,
0010
0000
0100
0000
,
0100
0000
0001
0000
,
0010
0000
0100
0000
,
0100
0000
1000
0000
,
0001
0000
0010
0000
,
0010
0000
0100
0000
,
1000
0000
0001
0000
,
2000
0000
3000
0000
,
0010
0000
0100
0000
,
0100
0000
0001
0000
,
0010
0000
0010
0000
,
0001
0000
1000
0000
,
0100
0000
1000
0000
,
0001
0000
0100
0000
,
0010
0000
1000
0000
,
0001
0000
0010
0000
,
0010
0000
0001
0000
,
1000
0000
0010
0000
,
0100
0000
0100
0000
,
0010
0000
0010
0000
,
2000
0000
3000
0000
,
0001
0000
0100
0000
,
0200
0000
0300
0000
,
0010
0000
0010
0000
,
2000
0000
3000
0000
,
0001
0000
0100
0000
,
0001
0000
0000
0000
0000
0000
0000
0000
2000
0000
0000
3000
0000
0000
0000
0000
;

//--------------- dance-single - RxSteps ----------------
#NOTES:
     dance-single:
     RxSteps:
     Easy:
     6:
     0,0,0,0,0:
0000
0000
0000
0000
,
1000
0000
0010
0000
0100
0000
0001
0100
,
0001
0000
1000
0000
0010
1000
0010
1000
,
0010
0000
0100
0000
0001
0000
0010
0001
,
0000
0001
0010
0000
0001
0000
1000
0000
,
0010
0000
0100
0000
0010
0000
1000
0010
,
1000
0000
0001
0000
0100
0010
0100
0010
,
0100
0000
0001
0000
1000
0000
0010
0100
,
0000
0100
0010
0000
1000
0001
1000
0001
,
1000
0010
0100
0001
,
0010
0000
0100
0000
1000
0000
0001
1000
,
0001
0010
0001
0100
,
0010
1000
0010
1000
0010
0000
0100
0000
,
0001
0010
0100
1000
,
0001
0010
0001
0010
0001
0000
1000
0000
,
0010
0000
0100
0000
0010
0000
1000
0010
,
1000
0001
1000
0010
,
0100
0001
0100
0001
1000
0000
0010
0000
,
1000
0100
0010
0010
,
0001
1000
0001
1000
0010
0000
0100
0000
,
0001
0010
0100
0100
,
1000
0001
0010
0010
,
0001
0010
0001
0010
0001
0000
1000
0000
,
0001
1000
0010
0100
,
0001
1000
0010
1000
0010
0000
0010
1000
,
0010
0000
0100
0000
0001
0000
0100
0010
,
0000
0010
0100
0000
0001
1000
0001
1000
,
0001
1000
0100
0010
,
0001
0010
0001
0010
0001
0000
1000
0000
,
0010
0100
0010
1000
,
0001
0100
0001
0100
0001
0000
1000
0000
,
0010
0100
0001
1000
,
0100
1000
0100
1000
0100
0000
0010
0000
,
0001
1000
0001
0100
,
0010
1000
0001
0100
,
0010
1000
0010
1000
0001
0000
0100
0000
,
0001
0010
0100
0100
,
1000
0001
1000
0001
0100
0000
0010
0000
,
1000
0100
0010
0010
,
0001
1000
0100
0100
,
1000
0100
1000
0100
1000
0000
0001
0000
,
0100
0010
1000
0001
,
0100
0000
0100
0000
0001
1000
0010
1000
,
0001
0100
0010
1000
,
0100
0000
0100
0000
1000
0001
0100
0001
,
1000
0010
0100
0001
,
0010
0000
0010
0000
0001
1000
0100
1000
,
0001
0100
0010
1000
,
0001
1000
0010
0100
,
0001
0000
0010
0000
0001
1000
0001
1000
,
0001
0000
0100
0000
0010
1000
0010
1000
,
0001
0010
0100
0100
,
1000
0100
1000
0000
0001
0100
0001
0000
,
1000
0010
1000
0010
0100
0000
0001
0000
,
0010
0001
1000
0100
,
0010
0001
0010
0001
0010
0000
0100
0000
,
1000
0001
1000
0010
,
0100
0010
0100
0010
1000
0000
0001
0000
,
0100
0010
1000
1000
,
0001
0010
0001
0010
0001
0000
1000
0000
,
0010
0100
0010
0000
1000
0000
1000
0000
,
0001
0010
0010
0100
,
1000
0100
0010
0001
,
0010
0001
0010
0001
1000
0000
0100
0000
,
1000
0010
0100
0100
,
0001
1000
0001
1000
0100
0000
0010
0000
,
0001
0100
0010
0010
,
1000
0001
0100
0100
,
0001
0000
1000
0000
0001
0000
1000
0000
0020
0000
0000
0030
0000
0000
0000
0000
;

//--------------- dance-single - RxSteps ----------------
#NOTES:
     dance-single:
     RxSteps:
     Medium:
     8:
     0,0,0,0,0:
0000
0000
0000
0000
,
1000
0000
0000
0000
0010
0000
0000
0000
0100
0010
0000
0000
1000
0000
0001
0000
,
0010
0000
0000
0000
0100
0000
0000
0000
1000
0000
0200
0000
0010
0300
1000
0000
,
0002
0000
0000
0000
0010
0003
0000
0000
0010
0100
0000
0000
1000
0000
0200
0000
,
0010
0300
1000
0000
0001
0000
0000
0000
0020
0000
0100
0030
0002
0000
1000
0003
,
0010
0000
0000
0000
0001
0000
0000
0000
1000
0010
0000
0000
0100
0000
0001
0000
,
0010
0000
0000
0000
0001
0000
0000
0000
1000
0000
0200
0000
0010
0300
1000
0000
,
0001
0000
0000
0000
0010
0000
0000
0000
0100
1000
0000
0000
0001
0000
0020
0000
,
0100
0030
0001
0000
1000
0000
0010
0200
0001
0300
0001
0100
0010
0000
1000
0000
,
0100
1000
0010
0100
0001
0010
0100
1000
,
0001
0000
0010
0000
0001
0000
0100
0000
0010
0000
1000
0000
0200
0000
0010
0300
,
1000
0000
0001
0000
0100
0010
0000
1000
0002
0000
0003
0000
0010
0000
0100
0000
,
1000
0100
0010
0100
1000
0001
0100
0020
,
1000
0030
0100
0000
0001
0000
1000
0000
0010
0000
0100
0000
0001
0000
0010
0000
,
0200
0000
1000
0300
0020
0000
0001
0030
0100
0000
1000
0000
0001
0000
0200
0000
,
0010
0300
0001
0000
1000
0000
0010
0000
0100
0000
0001
0000
2000
0000
3100
0000
,
0201
0000
0000
0000
0310
0000
0000
0010
1000
0000
0000
0000
0002
0200
0303
0000
,
1020
0030
0100
0000
0001
0000
0020
0000
0130
0000
0200
1000
0000
0300
0010
0000
,
0021
0000
0030
0000
0100
0000
1000
0100
0010
0000
0001
0100
0020
0000
1030
0000
,
0201
0300
0010
0000
2000
0000
0100
3000
0100
0020
0000
0000
0001
0000
0130
0000
,
1200
0000
0300
0000
0010
0000
0001
0200
0010
0300
0010
1000
0002
0000
0103
0000
,
1200
0300
1000
0100
0010
0100
1000
0001
,
0100
0010
0100
0002
2000
3003
0220
0330
,
2001
0000
3000
0000
0010
0000
0000
0000
0100
0010
0100
0000
0001
0000
0010
0000
,
0200
0000
1000
0300
0020
0000
0001
0030
0100
0000
1000
0000
0200
0000
0010
0300
,
1000
0000
0000
0000
0001
0000
0000
0000
0010
0001
0010
0000
0200
0000
2000
3300
,
0000
0000
0202
0000
0300
0000
0003
0000
0100
0001
0100
0000
0010
0000
1000
0000
,
1200
0300
0010
0000
0001
0000
0100
0000
0010
0000
1000
0000
0010
0000
0100
0000
,
0001
0000
0020
0000
0100
0030
0001
0000
1000
0000
0200
0000
0010
0300
1000
0000
,
0001
0000
0010
0000
0100
0000
0020
0000
0001
0030
0100
0000
1000
0000
0010
0000
,
0100
0001
0010
0100
0010
0001
1000
0010
,
1000
0100
0010
0001
1000
0010
0100
0001
,
0020
0000
0100
0030
0001
0000
2000
0000
3010
0000
0010
0100
0000
0000
0001
0000
,
0010
0001
0100
0010
1000
0010
0200
0301
,
1020
0000
0000
0000
0130
0000
0000
0000
0100
0001
0000
0000
2000
0020
3030
0000
,
0201
0300
0010
0000
1000
0000
0200
0000
0310
0000
0020
0001
0000
0030
0100
0000
,
1200
0000
0300
0000
0010
0000
0001
0010
0100
0000
1000
0010
0200
0000
0301
0000
,
1020
0030
0100
0000
0002
0000
0010
0003
0010
0200
0000
0000
1000
0300
0010
0000
,
0021
0000
0030
0000
0100
0000
1000
0020
0100
0030
0100
0001
2000
0000
3100
0000
,
0021
0030
0001
0010
0100
0010
0001
1000
,
0010
0100
0010
1000
0002
0000
0020
0033
,
1200
0300
1000
0010
0100
0001
1000
0010
,
0100
0000
0010
0000
1000
0000
0001
0000
0020
0000
0100
0030
0002
0000
1000
0003
,
0020
0000
0030
0000
0100
0000
1000
0000
0001
0000
0100
0000
0020
0000
1000
0030
,
0100
0000
0001
0000
1000
0000
0100
0000
0020
0000
0001
0030
0200
0000
1000
0300
,
0020
0000
0000
0030
0001
0000
0100
0000
0010
0000
2000
0000
3001
0000
0110
0000
,
1002
0003
0100
0000
0010
0000
1000
0000
0001
0000
0100
0000
0010
0000
0100
0000
,
0001
0010
0100
1000
0100
0010
0001
0100
,
0020
0000
1000
0030
0100
0000
0001
0000
1000
0000
0010
0000
0200
0000
0310
0000
,
1002
0000
0003
0000
0100
0000
0000
0010
1000
0000
0001
0200
0301
0000
1010
0000
,
0021
0000
0030
0000
0200
0000
1000
0300
0020
0000
0001
0030
0100
0000
2000
0000
,
0020
3030
0000
0000
0102
0000
0003
0000
1000
0000
0200
0000
0010
0000
0300
0000
,
0020
0000
0001
0030
0100
0000
1000
0000
0001
0000
0200
0000
0020
0330
0000
0000
,
0201
0300
0010
0000
1000
0000
0200
0000
0310
0000
0020
0001
0000
0030
0100
0000
,
2000
0000
3000
0000
0001
0000
0100
0020
1000
0030
1000
0010
0100
0000
0001
0000
,
1000
0100
0010
0001
0100
0010
1000
0000
,
0001
0000
0000
0000
1000
0000
0100
0000
0010
0000
0001
0000
0020
0000
0100
0030
,
0001
1000
0010
1000
0100
0010
0100
1000
,
0010
0100
0010
0100
0002
0003
1000
0100
0020
0000
0001
0030
0200
0000
1000
0300
,
0010
0000
0001
0000
1000
0000
0010
0000
1000
0000
0002
0010
0000
0003
0010
0000
,
0100
1000
0100
1000
0002
0003
0100
0010
2000
0000
0100
3000
0002
0000
0010
0003
,
1000
0000
0001
0100
0020
1000
0000
0030
1000
0000
0001
0200
0300
0000
0010
0000
,
1000
0000
0100
0000
0010
0000
0001
0000
1000
0000
0200
0000
0010
0300
1000
0000
,
0001
0000
0100
0000
0010
0000
2000
0000
3001
0000
0001
0020
0000
0000
0130
0000
,
1200
0000
0300
0000
1000
0000
0100
0020
0001
0030
0001
0010
0200
0000
1300
0000
,
0201
0300
0010
0000
2000
0000
3100
0000
0100
0020
0000
0000
0032
0000
1003
0000
,
0110
0000
0000
0000
1000
0000
0001
0200
0010
0300
0010
1000
0002
0000
0103
0000
,
1020
0030
1000
0010
0100
0010
1000
0001
,
0100
0000
0010
0000
0100
0000
0002
0000
2000
0000
0000
3003
0000
0000
0000
0000
;

//--------------- dance-single - RxSteps ----------------
#NOTES:
     dance-single:
     RxSteps:
     Hard:
     9:
     0,0,0,0,0:
0000
0000
0000
0000
,
1000
0000
0000
0000
0010
0000
0000
0000
0100
0010
0000
0000
1000
0000
0001
0000
,
0010
0000
0000
0000
0100
0000
0000
0000
1000
0100
1000
0001
0100
0000
0010
0000
,
1000
0000
0000
0000
0100
0000
0000
0000
0010
0001
0000
0000
1000
0000
0200
0000
,
0010
0300
2000
0000
0001
3000
0000
0001
0010
0100
1000
0010
0100
0001
0100
0010
,
1000
0000
0000
0000
0100
0000
0000
0000
1000
0001
0000
0000
0100
0000
0010
0000
,
1000
0000
0000
0000
0100
0000
0000
0000
0010
0001
1000
0010
0100
0010
1000
0000
,
0100
0000
0000
0000
0010
0000
0000
0000
0100
1000
0000
0000
0001
0000
0020
0000
,
0100
0030
0001
0000
1000
0000
0010
0200
0001
0300
0001
0100
0010
1000
0001
0010
,
0100
1000
0010
0100
0001
0010
0100
1000
,
0001
0100
0010
1000
0010
0100
0001
0100
0010
0000
1000
0000
0200
0000
0010
0300
,
1000
0000
0001
0000
0100
0010
0000
1000
0002
0000
0003
0000
0010
0000
0100
0000
,
1000
0000
0200
0300
0001
0000
0100
0000
1000
0000
0001
0000
0100
0000
0020
0000
,
1000
0030
0100
0000
0001
0000
0200
0300
1000
0000
0100
0000
0001
0000
1000
0000
,
0100
0000
0010
0001
0000
1000
0100
0000
0010
0001
0000
1000
0100
0000
0000
0010
0000
0000
0001
0000
0000
0020
0000
0000
,
0100
0030
0000
0001
0000
0000
1000
0000
0000
0010
0000
0000
0100
0000
0000
0001
0000
0000
2000
0000
0000
3100
0000
0000
,
0201
0000
0000
0000
0310
0000
0000
1000
0001
0100
0010
1000
0002
0200
0303
0000
,
1020
0030
0100
0000
0001
0000
0020
0000
0130
0000
0200
1000
0000
0300
0010
0000
,
0021
0000
0030
0000
0100
0000
1000
0100
0010
0000
0001
0100
0020
0000
1030
0000
,
0201
0300
0010
0000
2000
0000
0100
3000
0100
0020
0000
0000
0001
0000
0130
0000
,
1200
0000
0300
0000
0010
0000
0001
0200
0010
0300
0010
1000
0002
0000
0103
0000
,
1200
0000
0300
0000
1000
0000
0200
0300
0001
0000
0100
0000
1000
0000
0020
0030
,
0001
1000
0100
0002
2000
3003
0220
0330
,
2001
0000
3000
0000
0010
0000
0000
0000
0100
0010
0100
0000
0001
0000
0010
0000
,
0200
0000
1000
0300
0020
0000
0001
0030
0100
1000
0010
0100
0001
0100
0010
0000
,
1000
0000
0000
0000
0100
0000
0000
0000
0010
0001
0010
0000
0200
0000
2000
3300
,
0000
0000
0202
0000
0300
0000
0003
0000
1000
0100
0020
0000
0001
0030
0100
0000
,
1200
0300
0010
0000
0001
0000
0100
0000
0010
0000
1000
0000
0010
0000
0100
0000
,
0001
0000
0010
0001
1000
0010
0100
0001
1000
0000
0200
0000
0010
0300
1000
0000
,
0001
0000
0010
0000
0100
0000
0020
0000
0001
0030
0100
0000
1000
0000
0010
0000
,
0200
0300
1000
0000
0100
0000
0001
0000
0020
0030
1000
0000
0010
0000
0001
0000
,
1000
0100
0010
0001
1000
0010
0100
0001
,
0010
0000
0000
0000
0100
0000
1000
0000
0000
0000
0001
0000
0010
0000
0000
0000
0100
0000
1000
0000
0000
0000
0002
0000
0010
0000
0000
0003
0000
0000
0010
0000
0000
0200
0000
0000
0000
0000
0000
0000
0000
0000
1000
0000
0000
0300
0000
0000
,
0010
0001
0100
0010
1000
0010
0200
0301
,
1020
0000
0030
0000
0100
0000
0000
0001
1000
0010
0100
0001
2000
0020
3030
0000
,
0201
0300
0010
0000
1000
0000
0200
0000
0310
0000
0020
0001
0000
0030
0100
0000
,
1200
0000
0300
0000
0010
0000
0001
0010
0100
0000
1000
0010
0200
0000
0301
0000
,
1020
0030
0100
0000
0002
0000
0010
0003
0010
0200
0000
0000
1000
0300
0010
0000
,
0021
0000
0030
0000
0100
0000
1000
0020
0100
0030
0100
0001
2000
0000
3100
0000
,
0021
0000
0030
0000
0001
0000
0020
0030
1000
0000
0010
0000
0001
0000
0200
0300
,
1000
0001
0010
1000
0002
0000
0020
0033
,
1200
0000
0300
0000
1000
0000
0010
0000
0100
0000
0001
0000
1000
0000
0020
0030
,
0001
0000
0010
0000
1000
0000
0001
0000
0020
0000
0100
0030
0002
0000
1000
0003
,
0020
0000
0030
0000
0100
0000
1000
0000
0001
0000
0100
0000
0020
0000
1000
0030
,
0100
0000
0001
0000
1000
0000
0100
0000
0020
0000
0001
0030
0200
0000
1000
0300
,
0020
0000
0000
0030
0001
0000
0100
0000
0010
0000
2000
0000
3001
0000
0110
0000
,
1002
0003
0100
0000
0010
0000
1000
0000
0001
0000
0200
0300
1000
0000
0100
0000
,
0001
0010
0100
1000
0100
0010
0001
0100
,
0010
1000
0010
0100
0001
0100
0010
1000
0100
0000
0020
0000
0001
0030
0100
0000
,
1002
0000
0003
0000
0100
0000
0000
0010
1000
0000
0001
0200
0301
0000
1010
0000
,
0021
0000
0030
0000
0100
1000
0100
0010
0001
0010
0001
1000
0010
0100
0001
2000
,
0020
3030
0000
0000
0201
0000
0300
0010
1000
0001
0010
0200
1000
0000
0300
0000
,
1000
0010
0100
0001
1000
0100
0010
0100
1000
0001
0100
0020
2000
3030
0000
0000
,
0201
0300
0010
0000
1000
0000
0200
0000
0310
0000
0020
0001
0000
0030
0100
0000
,
2000
0000
3000
0000
0001
0000
0100
0020
1000
0030
1000
0010
0100
0000
0001
0000
,
1000
0000
0100
0000
0010
0000
0001
0000
0200
0300
1000
0000
0002
0000
0003
0000
,
0020
0000
0030
0000
1000
0000
0100
0000
0010
0000
0001
0000
0020
0000
0100
0030
,
0001
0000
0100
0000
0010
0000
1000
0000
0200
0300
0001
0000
0100
0000
1000
0000
,
0001
0100
0001
0100
0020
0030
1000
0100
0020
0000
0001
0030
0200
0000
1000
0300
,
0010
0000
0001
0000
0200
0300
1000
0000
0100
0000
0002
0010
0000
0003
0010
0000
,
0100
1000
0100
1000
0002
0003
0100
0010
2000
0000
0100
3000
0002
0000
0010
0003
,
1000
0000
0001
0100
0020
1000
0000
0030
1000
0000
0001
0200
0300
0000
0010
0000
,
1000
0000
0200
0000
0010
0300
1000
0000
0001
0100
0010
1000
0001
0010
0100
0010
,
0002
0003
1000
0000
0010
0000
0200
0000
0301
0000
0001
0020
0000
0000
0130
0000
,
1200
0000
0300
0000
1000
0000
0100
0020
0001
0030
0001
0010
0200
0000
1300
0000
,
0201
0300
0010
0000
2000
0000
3100
0000
0100
0020
0000
0000
0032
0000
1003
0000
,
0110
0000
0000
0000
1000
0000
0001
0200
0010
0300
0010
1000
0002
0000
0103
0000
,
1020
0000
0030
0000
1000
0000
0020
0030
0001
0000
0010
0000
1000
0000
0200
0300
,
0001
0000
1000
0000
0010
0000
0002
0000
2000
0000
0000
3003
0000
0000
0000
0000
;
