#TITLE:Snap My Finger;
#SUBTITLE:Ft. PinkPantheress;
#ARTIST:KAYTRANADA, PinkPantheress;
#TITLETRANSLIT:;
#SUBTITLETRANSLIT:;
#ARTISTTRANSLIT:;
#GENRE:;
#CREDIT:RxSteps;
#MUSIC:Snap My Finger.ogg;
#BANNER:Snap My Finger.png;
#BACKGROUND:Snap My Finger-bg.png;
#CDTITLE:cdtitle.png;
#SAMPLESTART:46.813;
#SAMPLELENGTH:26.441;
#SELECTABLE:YES;
#OFFSET:2.001;
#BPMS:0.000=118.000;
#STOPS:;
#BGCHANGES:;
#FGCHANGES:;

//--------------- dance-single - RxSteps ----------------
#NOTES:
     dance-single:
     RxSteps:
     Beginner:
     3:
     0,0,0,0,0:
0000
0000
0000
0000
,
0001
0000
0000
0000
,
1000
0000
0000
0000
,
0000
0010
0000
0000
,
0100
0000
0000
0000
,
0000
0001
0000
0000
,
0010
0000
0001
0000
,
1000
0000
0010
0000
,
1000
0000
0001
0000
,
0010
0000
0001
0000
,
1000
0000
0100
0000
,
1000
0000
0001
0000
,
1000
0000
0020
0000
,
0000
0000
0030
0000
,
0100
0000
0001
0000
,
0010
0000
0100
0000
,
0010
0000
0001
0000
,
0001
0000
1000
0000
,
0001
0000
0010
0000
,
0200
0000
0300
0000
,
1000
0000
0001
0000
,
0010
0000
0010
0000
,
0001
0000
2000
0000
,
0000
0000
3000
0000
,
0010
0000
0000
0010
0000
0000
0000
0000
,
1000
0000
0001
0000
,
1000
0000
0100
0000
,
0010
0000
0100
0000
,
1000
0000
0001
0000
,
0010
0000
0001
0000
,
1000
0000
0010
0000
,
0010
0000
0100
0000
,
0001
0000
0000
0001
0000
0000
0000
0000
,
1000
0000
0100
0000
,
0010
0000
0100
0000
,
1000
0000
0001
0000
,
0010
0000
0100
0000
,
0010
0000
0001
0000
,
1000
0000
0100
0000
,
0100
0000
1000
0000
,
0001
0000
0000
0001
0000
0000
0000
0000
,
2000
0000
3000
0000
,
0010
0000
0100
0000
,
0100
0000
0001
0000
,
1000
0000
1000
0000
,
0001
0000
0001
0000
,
0100
0000
0010
0000
,
0010
0000
1000
0000
,
0001
0000
0001
0000
,
0100
0000
0100
0000
,
0001
0000
0010
0000
,
0001
0000
1000
0000
,
0001
0000
0200
0000
,
0300
0000
0100
0000
,
0010
0000
1000
0000
,
0100
0000
0010
0000
,
0100
0000
1000
0000
,
1000
0000
0001
0000
,
1000
0000
0100
0000
,
0020
0000
0030
0000
,
0001
0000
1000
0000
,
0100
0000
0100
0000
,
1000
0000
0002
0000
,
0000
0000
0003
0000
,
0100
0000
0000
0100
0000
0000
0000
0000
,
0001
0000
1000
0000
,
0001
0000
0010
0000
,
0100
0000
0010
0000
,
0001
0000
1000
0000
,
0100
0000
1000
0000
,
0001
0000
0100
0000
,
0100
0000
0010
0000
,
1000
0000
0000
1000
0000
0000
0000
0000
,
0001
0000
0010
0000
,
0100
0000
0010
0000
,
0001
0000
1000
0000
,
0100
0000
0010
0000
,
0100
0000
1000
0000
,
0001
0000
0010
0000
,
0010
0000
0001
0000
,
1000
0000
0000
1000
0000
0000
0000
0000
,
0001
0000
1000
0000
,
0002
0000
0000
0003
,
0000
0200
0300
0000
,
0020
0000
0000
0030
,
0000
2000
3000
0000
,
0002
0000
0000
0003
,
0000
0020
0030
0000
,
0100
0000
1000
0000
,
0001
0000
1000
0000
,
2000
0000
0000
3000
,
0000
0020
0030
0000
,
0200
0000
0000
0300
,
0000
0002
0003
0000
,
2000
0000
0000
3000
,
0000
0020
0030
0000
,
0100
0000
0001
0000
,
1000
0000
0001
0000
,
2000
0000
3000
0000
;

//--------------- dance-single - RxSteps ----------------
#NOTES:
     dance-single:
     RxSteps:
     Easy:
     5:
     0,0,0,0,0:
0000
0000
0000
0000
,
1000
0010
0010
1000
,
0002
0000
0000
0003
,
0000
2000
0000
3000
,
0020
0000
0000
0000
,
0030
2000
0000
3000
,
0001
0010
0100
1000
,
0001
1000
0100
0010
,
0001
1000
0010
0100
,
0001
0010
0001
1000
,
0100
0000
0100
1000
0100
0000
0010
0000
,
0001
1000
0010
0100
,
0001
0000
0001
0010
0001
0000
1000
0000
,
0100
0010
0001
0001
,
1000
0000
1000
0100
1000
0000
0001
0000
,
0010
0100
0010
0001
,
0100
0000
0100
0001
0100
0000
0010
0000
,
1000
0001
1000
1000
,
0010
0100
0001
1000
,
0010
0200
0000
0300
,
0001
1000
0100
0010
,
0001
1000
1000
0001
,
0100
0000
0100
0010
0100
0000
0001
0000
,
1000
0100
0100
1000
,
0001
0010
0001
0100
,
0010
1000
0001
1000
,
0001
0010
0100
1000
,
1000
0100
0010
0001
,
1000
0010
0100
0001
,
0010
0001
1000
0100
,
1000
0010
0100
0100
,
0001
0010
0010
0001
,
1000
0020
0000
0030
,
0100
0001
1000
0001
,
0010
0100
1000
0001
,
1000
0100
1000
0001
,
0100
0010
1000
0001
,
0010
0001
1000
0010
,
1000
0100
0010
0010
,
0100
1000
0001
1000
,
0010
0200
0000
0300
,
0002
0000
0003
0000
,
1000
0100
0010
0001
,
0001
0000
1000
0010
1000
0010
1000
0010
,
1000
0001
0010
0001
,
1000
0000
0100
1000
0100
1000
0100
0000
,
1000
0001
0100
0010
,
0100
0000
0001
0100
0001
0100
0001
0100
,
0001
1000
0010
1000
,
0001
0000
0010
0001
0010
0001
0010
0000
,
0001
0000
0001
1000
0001
0000
0100
0000
,
0010
1000
0100
0010
,
0001
0000
0001
0100
0001
0000
1000
0000
,
0010
0100
0001
0001
,
1000
0000
1000
0010
1000
0000
0001
0000
,
0100
0010
1000
0001
,
0100
0000
0100
0001
0100
0000
0100
0001
,
0100
0000
0001
1000
0001
1000
0001
1000
,
0001
1000
0010
1000
,
0100
0020
0000
0030
,
0001
1000
0010
0100
,
0001
1000
1000
0001
,
0010
0000
0010
0100
0010
0000
0001
0000
,
1000
0010
0010
1000
,
0001
0200
0000
0300
,
0010
1000
0001
1000
,
0001
0100
0010
1000
,
1000
0010
0100
0001
,
1000
0100
0010
0001
,
0100
0001
1000
0010
,
1000
0100
0010
0010
,
0001
0100
0100
0001
,
1000
0200
0000
0300
,
0010
0001
1000
0001
,
0100
0010
1000
0001
,
1000
0010
1000
0001
,
0010
0100
1000
0001
,
0100
0001
1000
0100
,
1000
0010
0100
0100
,
0010
1000
0001
1000
,
0100
0020
0000
0030
,
0001
1000
0001
1000
,
0010
0100
0010
0100
,
0010
1000
0001
1000
,
1000
0010
1000
0010
,
0010
0100
0001
1000
,
0010
1000
0010
1000
,
0010
0100
0001
0100
,
0100
0010
1000
0001
,
0010
0001
1000
0010
,
2000
3000
0200
0300
,
0010
0020
0030
0001
,
2000
3000
0020
0030
,
0100
0200
0300
0001
,
2000
3000
0020
0030
,
0100
0200
0300
0001
,
2000
3000
0200
0300
,
1000
0001
0010
0002
,
2000
0000
3003
0000
;

//--------------- dance-single - RxSteps ----------------
#NOTES:
     dance-single:
     RxSteps:
     Medium:
     7:
     0,0,0,0,0:
0000
0000
0000
0000
,
1000
0000
0010
0000
0100
0000
0000
0001
0100
0000
0010
0000
1000
0000
0000
0000
,
0002
0000
0000
0000
,
0003
0200
0000
0300
,
0020
0000
0000
0000
,
0030
2000
0000
3000
,
0001
0000
0000
0100
0020
0000
0000
0000
1000
0030
0000
1000
0100
0000
0000
0000
,
0010
0000
0000
0001
1000
0000
0000
0000
0010
0000
0000
0100
0001
0000
2000
0000
,
0100
3000
0000
0100
0010
0000
0000
0000
0001
0000
0000
0100
0010
0000
0000
0000
,
1000
0000
0000
0100
0020
0000
0000
0000
0001
0030
0000
0001
0100
0000
0000
0000
,
0010
0000
1000
0200
0010
0300
0010
0100
,
1000
0001
0100
0010
0100
0001
0010
0200
,
1000
0300
1000
0001
0020
0000
0100
0000
,
0001
0000
0000
0000
0100
0000
0030
0000
0002
0003
0000
0100
0010
0000
0000
0000
,
1000
0000
0001
0020
0100
0030
0100
1000
,
0010
0100
0001
1000
0010
0100
0001
0020
,
0100
0030
0100
1000
0020
0000
0100
0000
,
1000
0000
0000
0000
0100
0000
0030
0000
2000
3000
0000
0001
0100
0000
0000
0000
,
0010
1000
0100
0010
0001
0010
0100
1000
,
0010
0100
0001
0020
0030
0100
1000
0001
,
1000
0100
0010
0100
1000
0001
0100
0001
,
1000
0020
0100
0030
0100
0010
1000
0000
,
0001
0000
0010
0200
1000
0000
0010
0300
,
1000
0000
0001
0000
0200
0000
0010
0300
0002
0003
0010
0000
0100
0000
1000
0000
,
0010
0100
0010
1000
0200
0000
0010
0300
,
1000
0000
0001
0000
0100
0000
0020
0000
1000
0030
0000
1000
0010
0000
0100
0000
,
0001
0000
0000
0010
0100
0000
0000
2000
0010
3000
0000
0010
0100
0000
0000
0000
,
0001
0000
0000
1000
0100
0000
0010
0000
0001
0000
1000
0000
0100
0000
1000
0000
,
0001
0000
0000
0200
0010
0300
0000
0010
1000
0000
0000
0001
0010
0000
0000
0000
,
0100
1000
0001
1000
0010
0100
0001
0010
,
0100
0000
0000
1000
0010
0000
0000
0200
0001
0000
0000
0000
0010
0000
0300
0000
,
0001
0010
0001
1000
0010
0100
0001
0010
,
0001
0000
1000
0000
0100
0000
0010
0000
0001
0000
0000
1000
0010
0000
0000
0000
,
0100
0000
0001
0000
0010
0000
0200
0000
1000
0300
0000
1000
0010
0000
0000
0000
,
0100
0000
0000
0001
1000
0000
0000
0010
0100
0000
0000
0001
0020
0000
0000
0000
,
0100
0030
0001
1000
0010
0100
0001
0020
,
0100
0030
0000
0100
1000
0000
0000
0001
0100
0000
0000
0010
1000
0000
0000
0000
,
0001
0010
0100
0010
0001
1000
0010
0200
,
0001
0300
0000
0001
0010
0000
0000
0200
1000
0000
0000
0000
0010
0000
0300
0000
,
1000
0001
0010
0100
1000
0001
0100
0001
,
1000
0100
0010
0001
0200
0000
0010
0300
,
0001
0000
1000
0000
0020
0000
0100
0000
0030
0000
0000
0100
0001
0000
1000
0000
,
0010
0100
0001
0010
0001
0100
0010
1000
,
0100
0010
0100
1000
0001
0010
0100
1000
,
0001
0100
0001
1000
0100
1000
0001
0100
,
0001
0010
0100
1000
0100
0010
0002
0003
,
1000
0100
1000
0010
0100
0010
1000
0001
,
0100
0010
0100
0001
1000
0100
0010
0001
,
0100
0010
1000
0001
0010
0001
1000
0010
,
1000
0001
0010
0100
1000
0200
0310
0000
,
0201
0300
0010
2000
0100
3000
0100
1000
,
0010
0100
0001
1000
0100
1000
0001
0200
,
0010
0300
0010
1000
0200
0000
0010
0300
,
1000
0000
0001
0100
0010
1000
0001
0200
,
0010
0300
0010
1000
0001
0000
0010
0100
,
1000
0100
0010
0001
0100
0010
0100
0002
,
0010
0003
0010
0100
2000
3000
0001
0020
,
0100
0030
0001
1000
0010
0100
0001
1000
,
0200
0000
0010
0300
1000
0000
0001
0000
0100
0000
0010
0000
1000
0000
0100
0000
,
0010
0100
1000
0002
0003
0100
0010
1000
,
0001
1000
0100
1000
0001
0100
0001
1000
,
0100
0020
0001
0030
0001
0020
0130
0000
,
1020
0030
0100
0001
0020
0000
0100
0030
,
0001
0000
1000
0000
0010
0000
0100
0000
0002
0000
0010
0003
2000
3000
0100
0000
,
0010
0001
1000
0200
0010
0300
1000
0000
,
0001
0000
0010
0000
0200
0000
1000
0000
0300
0000
0000
1000
0010
0000
0100
0000
,
0001
0000
0000
0100
0010
0000
0000
2000
0100
3000
0000
0100
0010
0000
0000
0000
,
0001
0000
0000
1000
0010
0000
0100
0000
0001
0000
1000
0000
0010
0000
1000
0000
,
0001
0000
0000
0020
0100
0030
0000
0100
1000
0000
0000
0001
0100
0000
0000
0000
,
0010
1000
0001
1000
0100
0010
0001
0100
,
0010
0000
0000
1000
0100
0000
0000
0020
0001
0000
0000
0000
0100
0000
0030
0000
,
0001
1000
0010
0100
0001
1000
0100
1000
,
0010
0000
0100
0000
0001
0000
1000
0000
0010
0000
0000
0100
0001
0000
0000
0000
,
0010
0000
0001
0000
0100
0000
0020
0000
1000
0030
0000
1000
0100
0000
0000
0000
,
0010
0000
0000
0001
1000
0000
0000
0100
0010
0000
0000
0001
0200
0000
0000
0000
,
0010
0300
0001
1000
0100
0010
0001
0200
,
0010
0300
0000
0010
1000
0000
0000
0001
0010
0000
0000
0100
1000
0000
0000
0000
,
0001
0100
0010
0100
0001
1000
0100
0020
,
0001
0030
0000
0001
0100
0000
0000
0020
1000
0000
0000
0000
0100
0000
0030
0000
,
1000
0100
0010
0100
1000
0001
0100
0001
,
1000
0010
1000
0200
0010
0300
2000
0000
,
0010
3000
0000
0010
0100
0000
0000
0000
0001
0000
0000
1000
0100
0000
0010
0000
,
0001
0100
0010
1000
,
0200
0000
0000
0000
0010
0000
0300
0000
1000
0000
0001
0000
0020
0000
0100
0030
,
0001
0000
0100
0000
0010
0000
1000
0001
,
1000
0000
0000
0000
0010
0000
0000
0000
0100
0000
0020
0000
1000
0030
0100
0000
,
0001
1000
0001
0020
,
0100
0000
0030
0000
0001
0000
0000
0000
0100
0000
0020
0000
1000
0030
0100
0000
,
0001
0000
0100
0020
1000
0030
0200
0000
,
0001
0300
0000
0001
0020
0000
0000
0000
0100
0030
0000
0100
1000
0000
0000
0000
,
0001
0100
0010
0100
,
0001
0000
0000
0000
1000
0000
0000
0000
0100
0000
0020
0000
0001
0030
0100
0000
,
1000
0000
0010
0000
0100
0000
0001
0010
,
0001
0000
0000
0000
1000
0000
0000
0000
0010
0000
0200
0000
0001
0300
0010
0000
,
1000
0100
1000
0010
,
0200
0000
0000
0000
0001
0000
0300
0000
0010
0000
1000
0000
0200
0000
0010
0300
,
1000
0000
0001
0020
0100
0030
0100
1000
,
0010
0000
0000
0100
0001
0000
0000
0000
0010
0000
0000
0100
2000
0000
0000
0000
,
0002
0000
3003
0000
;

//--------------- dance-single - RxSteps ----------------
#NOTES:
     dance-single:
     RxSteps:
     Hard:
     8:
     0,0,0,0,0:
0000
0000
0000
0000
,
1000
0000
0010
0000
0200
0001
0300
0001
0010
0000
0100
0000
1000
0000
0000
0000
,
0002
0000
0000
0000
,
0003
0200
0000
0300
,
0020
0000
0000
0000
,
0030
2000
0000
3000
,
0001
0000
0000
0100
0020
0000
0000
0000
1000
0030
0000
1000
0100
0000
0000
0000
,
0010
0000
0000
0001
1000
0000
0000
0000
0010
0000
0000
0100
0001
0000
2000
0000
,
0100
3000
0000
0100
0010
0000
0000
0000
0001
0000
0000
0100
0010
0000
0000
0000
,
1000
0000
0000
0100
0020
0000
0000
0000
0001
0030
0000
0001
0100
0000
0000
0000
,
0010
0000
1000
0200
0010
0300
0010
0100
,
1000
0001
0100
0010
0100
0001
0010
0200
,
1000
0300
1000
0001
0020
0000
1000
0000
,
0001
0000
0000
0000
1000
0000
0030
0000
0002
0003
0000
0100
0010
0000
0000
0000
,
1000
0000
0001
0020
0100
0030
0100
1000
,
0010
0000
0100
0000
0001
0000
0200
0300
1000
0000
0100
0000
0001
0000
0020
0000
,
0100
0030
0100
1000
0020
0000
0001
0000
,
1000
0000
0000
0000
0001
0000
0030
0000
2000
3000
0000
0001
0100
0000
0000
0000
,
0010
1000
0100
0010
0001
0010
0100
1000
,
0010
0100
0001
0020
0030
0100
1000
0001
,
1000
0100
0010
0100
1000
0001
0100
0001
,
1000
0020
0100
0030
0100
0010
1000
0000
,
0001
0000
0010
0200
1000
0000
0010
0300
,
1000
0000
0001
0000
0200
0000
0010
0300
0002
0003
0010
0000
0100
0000
1000
0000
,
0020
0030
0001
0000
0010
0000
1000
0000
0200
0000
0000
0000
0010
0000
0300
0000
,
1000
0000
0001
0000
0100
0000
0020
0000
1000
0030
0000
1000
0010
0000
0100
0000
,
0001
0000
0000
0010
0100
0000
0000
2000
0010
3000
0000
0010
0100
0000
0000
0000
,
0001
0000
0000
1000
0100
0000
0010
0000
0001
0000
1000
0000
0100
0000
1000
0000
,
0001
0000
0000
0200
0010
0300
0000
0010
1000
0000
0000
0001
0010
0000
0000
0000
,
0100
1000
0001
1000
0010
0100
0001
0010
,
0100
0000
0000
1000
0010
0000
0000
0200
0001
0000
0000
0000
1000
0000
0300
0000
,
0001
0000
0010
0000
0001
0000
1000
0000
0020
0000
0100
0030
1000
0000
0001
0100
,
0010
0000
1000
0000
0100
0000
0010
0000
0001
0000
0000
1000
0010
0000
0000
0000
,
0100
0000
0001
0000
0010
0000
0200
0000
1000
0300
0000
1000
0010
0000
0000
0000
,
0100
0000
0000
0001
1000
0000
0000
0010
0100
0000
0000
0001
0020
0000
0000
0000
,
0100
0030
0001
1000
0010
0100
0001
0020
,
0100
0030
0000
0100
1000
0000
0000
0001
0100
0000
0000
0010
1000
0000
0000
0000
,
0001
0010
0100
0010
0001
1000
0010
0200
,
0001
0300
0000
0001
0010
0000
0000
0200
1000
0000
0000
0000
0001
0000
0300
0000
,
1000
0000
0001
0000
0010
0000
0100
0000
0020
0000
0001
0030
0100
0000
1000
0010
,
0100
0001
0010
0200
1000
0300
0010
0000
,
0001
0000
1000
0000
0020
0000
0100
0000
0030
0000
0000
0100
0001
0000
1000
0000
,
0010
0100
0001
0010
0001
0100
0010
1000
,
0200
0300
0001
0000
0100
0000
1000
0000
0001
0000
0010
0000
0100
0000
1000
0000
,
0001
0100
0001
1000
0100
1000
0001
0100
,
0001
0010
0100
1000
0100
0010
0002
0003
,
1000
0100
1000
0010
0100
0010
1000
0001
,
0200
0300
1000
0000
0100
0000
0001
0000
1000
0000
0100
0000
0010
0000
0001
0000
,
0100
0010
1000
0001
0010
0001
1000
0010
,
1000
0001
0010
0100
1000
0200
0310
0000
,
0201
0300
0010
2000
0100
3000
0100
1000
,
0010
0000
0100
0000
0001
0000
0020
0030
1000
0000
0010
0000
0001
0000
0200
0000
,
0010
0300
0010
1000
0200
0000
0001
0300
,
1000
0000
0001
0100
0010
1000
0001
0200
,
0010
0300
0010
1000
0001
0000
0010
0100
,
1000
0000
0100
0000
0010
0000
0001
0000
0200
0300
1000
0000
0100
0000
0002
0000
,
0010
0003
0010
0100
2000
3000
0001
0020
,
0100
0030
0001
1000
0010
0100
0001
1000
,
0200
0000
0010
0300
1000
0000
0001
0000
0100
0000
0010
0000
1000
0000
0100
0000
,
0010
0100
1000
0002
0003
0100
0010
1000
,
0001
1000
0100
1000
0001
0100
0001
1000
,
0100
0020
0001
0030
0001
0020
0130
0000
,
1020
0030
0100
0001
0020
0000
1000
0030
,
0001
0000
1000
0000
0010
0000
0100
0000
0002
0000
0010
0003
2000
3000
0100
0000
,
0010
0001
1000
0200
0010
0300
1000
0000
,
0001
0000
0010
0000
0200
0000
1000
0000
0300
0000
0000
1000
0010
0000
0100
0000
,
0001
0000
0000
0100
0010
0000
0000
2000
0100
3000
0000
0100
0010
0000
0000
0000
,
0001
0000
0000
1000
0010
0000
0100
0000
0001
0000
1000
0000
0010
0000
1000
0000
,
0001
0000
0000
0020
0100
0030
0000
0100
1000
0000
0000
0001
0100
0000
0000
0000
,
0010
1000
0001
1000
0100
0010
0001
0100
,
0010
0000
0000
1000
0100
0000
0000
0020
0001
0000
0000
0000
1000
0000
0030
0000
,
0001
0000
1000
0000
0010
0000
0100
0000
0002
0000
0010
0003
1000
0000
0001
0010
,
0100
0000
1000
0000
0010
0000
0100
0000
0001
0000
0000
1000
0100
0000
0000
0000
,
0010
0000
0001
0000
0100
0000
0020
0000
1000
0030
0000
1000
0100
0000
0000
0000
,
0010
0000
0000
0001
1000
0000
0000
0100
0010
0000
0000
0001
0200
0000
0000
0000
,
0010
0300
0001
1000
0100
0010
0001
0200
,
0010
0300
0000
0010
1000
0000
0000
0001
0010
0000
0000
0100
1000
0000
0000
0000
,
0001
0100
0010
0100
0001
1000
0100
0020
,
0001
0030
0000
0001
0100
0000
0000
0020
1000
0000
0000
0000
0001
0000
0030
0000
,
1000
0000
0200
0300
0001
0000
0100
0000
1000
0000
0020
0000
0100
0030
1000
0001
,
0100
0010
1000
0200
0010
0300
2000
0000
,
0010
3000
0000
0010
0100
0000
0000
0000
0001
0000
0000
1000
0100
0000
0010
0000
,
0001
0100
0010
1000
,
0200
0000
0000
0000
0010
0000
0300
0000
1000
0000
0001
0000
0100
0000
0010
1000
,
0001
0000
0010
0000
0100
0000
1000
0001
,
1000
0000
0000
0000
0010
0000
0000
0000
0100
0000
0001
0000
0010
0000
0001
1000
,
0010
0100
0001
0020
,
0100
0000
0030
0000
0001
0000
0000
0000
1000
0000
0010
0000
0100
0000
0001
1000
,
0100
0000
0000
0000
0010
0000
0001
1000
0010
0000
0000
0000
0200
0000
0000
0000
,
0001
0300
0000
0001
0020
0000
0000
0000
0100
0030
0000
0100
1000
0000
0000
0000
,
0001
0100
0010
0100
,
0001
0000
0000
0000
1000
0000
0000
0000
0100
0000
1000
0000
0010
0000
0100
0001
,
1000
0000
0010
0000
0100
0000
0001
0010
,
0001
0000
0000
0000
1000
0000
0000
0000
0100
0000
0010
0000
0001
0000
0100
0010
,
1000
0001
1000
0010
,
0200
0000
0000
0000
0001
0000
0300
0000
0010
0000
1000
0000
0001
0000
0010
0100
,
1000
0000
0000
0000
0001
0000
0100
0010
1000
0000
0000
0000
0001
0000
1000
0000
,
0010
0000
0000
0100
0001
0000
0000
0000
0010
0000
0000
0100
2000
0000
0000
0000
,
0002
0000
3003
0000
;
