#TITLE:Leech;
#SUBTITLE:;
#ARTIST:EVILLE;
#TITLETRANSLIT:;
#SUBTITLETRANSLIT:;
#ARTISTTRANSLIT:;
#GENRE:;
#CREDIT:RxSteps;
#MUSIC:Leech.ogg;
#BANNER:Leech.png;
#BACKGROUND:Leech-bg.png;
#CDTITLE:cdtitle.png;
#SAMPLESTART:81.912;
#SAMPLELENGTH:25.412;
#SELECTABLE:YES;
#OFFSET:1.382;
#BPMS:0.000=170.000;
#STOPS:;
#BGCHANGES:;
#FGCHANGES:;

//--------------- dance-single - RxSteps ----------------
#NOTES:
     dance-single:
     RxSteps:
     Beginner:
     4:
     0,0,0,0,0:
0000
0000
0000
0000
,
0001
0000
0000
0000
,
1000
0000
0000
0000
,
0010
0000
0000
0000
,
1000
0000
0000
0000
,
0001
0001
0000
0000
,
0010
0000
0000
0000
,
0001
0000
0000
0000
,
1000
0000
0000
0010
0000
0000
0000
0000
,
0100
0100
0000
0000
,
0001
0000
0000
0000
,
1000
1000
0000
0000
,
0010
0000
0100
0000
,
0001
0000
0000
0000
0000
0010
0000
0000
,
0001
0000
0000
1000
0000
0000
0000
0000
,
0001
0000
0000
0000
0000
1000
0000
0000
,
0010
0000
0000
0010
0000
0000
0000
0000
,
1000
0000
0000
0000
0000
0010
0000
0000
,
0100
0000
0000
0010
0000
0000
0000
0000
,
1000
0000
0000
0000
0000
0001
0000
0000
,
0100
0000
0000
0001
0000
0000
0000
0000
,
1000
0000
0000
0010
,
0000
0000
0000
1000
,
1000
0000
0000
0000
0000
0001
0000
0000
,
0010
0000
0000
0001
0000
0000
0000
0000
,
1000
0000
0000
0010
,
0000
0000
0100
0000
,
0001
0000
0000
0000
0000
0100
0000
0000
,
0010
0000
0000
0100
0000
0000
0000
0000
,
0001
0000
0000
1000
,
0000
0000
0000
0001
,
0001
0000
0000
0000
0000
1000
0000
0000
,
0100
0000
0000
1000
0000
0000
0000
0000
,
0001
0000
0000
0100
,
0000
0000
0010
0000
,
1000
0000
0000
0000
0000
0010
0000
0000
,
1000
0000
0000
0010
0000
0000
0000
0000
,
1000
0000
0100
0000
,
0010
0000
0001
0000
,
1000
0000
0100
0000
,
0010
0000
0100
0000
,
1000
0000
0001
0000
,
0010
0000
0100
0000
,
2000
0000
0000
0000
,
0002
3003
0000
0000
,
0110
0000
0000
0000
,
1000
0000
0001
0000
,
0100
0000
0010
0000
,
1000
0000
0100
0000
,
0100
0000
1000
0000
,
0001
0000
0010
0000
,
0001
0000
1000
0000
,
0010
0000
1000
0000
,
0002
0003
0000
0000
,
0100
0000
0000
0001
0000
0000
0000
0000
,
1000
0000
0000
0000
0000
0010
0000
0000
,
1000
0000
0000
0010
0000
0000
0000
0000
,
0100
0000
0000
0000
0000
0001
0000
0000
,
1000
0000
0000
0001
0000
0000
0000
0000
,
0010
0000
0000
0000
0000
0001
0000
0000
,
1000
0000
0000
0100
0000
0000
0000
0000
,
2000
0000
0000
0000
,
0002
3003
0000
0000
,
0110
0000
0000
0000
,
0001
0000
0000
1000
0000
0000
0000
0000
,
0020
0000
0000
0000
,
0200
0330
0000
0000
,
1001
0000
0000
0000
,
0001
0000
0000
0100
0000
0000
0000
0000
,
0002
0000
0003
0000
,
1000
0000
0000
0000
0000
0010
0000
0000
,
1000
0000
0000
0000
0000
0010
0000
0000
,
0100
0000
0000
0010
0000
0000
0000
0000
,
2000
0000
0000
0000
,
0200
3300
0000
0000
,
0101
0000
0000
0000
,
0001
0000
0000
1000
0000
0000
0000
0000
,
0010
0000
1000
0000
,
0001
0000
0100
0000
,
0100
0000
0010
0000
,
1000
0000
0001
0000
,
0010
0000
0001
0000
,
1000
0000
0100
0000
,
0010
0000
0001
0000
,
1000
0000
0000
0001
0000
0000
1000
0000
,
0001
0000
0100
0000
,
0010
0000
1000
0000
,
0001
0000
0010
0000
,
0001
0000
0001
0000
,
1000
0000
0100
0000
,
0010
0000
0100
0000
,
1000
0000
0001
0000
,
0010
0000
0100
0000
,
1000
2000
3000
0000
,
0100
0000
0010
0000
,
0001
0000
1000
0000
,
0001
0000
0100
0000
,
0100
0000
0010
0000
,
1000
0000
0001
0000
,
0010
0000
0001
0000
,
1000
0000
0010
0000
,
0200
0000
0300
0000
,
0002
0000
0003
0000
,
0200
0000
0300
0000
,
0002
0000
0003
0000
,
2000
0000
3000
0000
,
0020
0000
0000
0000
,
0200
0000
0000
0000
,
0330
0000
0000
0000
,
1001
0000
0000
0000
,
0001
0000
0010
0000
,
0001
0000
1000
0000
,
0010
0000
1000
0000
,
0010
0000
0010
0000
,
1000
0000
0001
0000
,
0100
0000
0010
0000
,
1000
0000
0001
0000
,
1000
0000
0010
0000
,
0100
0000
0001
0000
,
1000
0000
0100
0000
,
1000
0000
1000
0000
,
0001
0000
0010
0000
,
0100
0000
0010
0000
,
0001
0000
1000
0000
,
0100
0000
0010
0000
,
0001
0002
0003
0000
,
2000
0000
3000
0000
,
1000
0000
0001
0000
,
0100
0000
0010
0000
,
2000
0000
3000
0000
,
0001
0000
0010
0000
,
0100
0000
1000
0000
,
0001
0000
0200
0000
,
0000
0300
0000
0000
;

//--------------- dance-single - RxSteps ----------------
#NOTES:
     dance-single:
     RxSteps:
     Easy:
     7:
     0,0,0,0,0:
0000
0000
0000
0000
,
1000
0000
0000
0000
0000
0001
0000
0000
,
1000
0010
1000
0000
0000
0001
0000
0000
,
0100
0000
0010
0000
0000
1000
0000
0000
,
0001
0010
0002
0000
0000
0203
0000
0000
,
0010
0300
0001
0000
0000
1000
0000
0000
,
0010
0100
0010
0000
0000
1000
0000
0000
,
0001
0000
0010
0000
0000
0001
0000
0000
,
1000
0100
1000
0100
0020
0000
0000
0000
,
0001
0030
0100
0000
0000
1000
0000
0000
,
0001
0000
1000
0000
0000
0010
0000
0000
,
1000
0000
0001
0000
0000
0010
0000
0000
,
0001
0010
0001
0010
,
0001
1000
0010
0100
,
0010
0010
1000
0001
,
0100
0010
1000
0010
,
0100
0100
0001
1000
,
0010
1000
0001
0010
,
0001
0001
1000
0010
,
1000
0100
0010
0001
,
1000
1000
0001
1000
,
0020
0200
0000
0000
,
0000
0330
0000
1001
,
1000
0010
0100
0001
,
0100
0010
0010
1000
,
0001
0100
0000
0001
,
0010
0100
1000
0001
,
1000
0000
0200
0300
0000
0010
0000
0000
,
0001
0001
0100
0010
,
1000
0001
0000
1000
,
0200
0000
0020
0330
0000
0000
0011
0000
,
0001
1000
0100
1000
,
0001
0010
0001
0100
,
0010
1000
0000
0001
,
0100
0010
1000
0000
,
0101
0000
0001
0000
0000
1000
0000
0000
,
0010
0100
0001
1000
,
0001
0010
0100
1000
,
0001
0010
0100
1000
,
0001
0010
0100
0010
,
0001
1000
0010
0100
,
0001
1000
0010
0100
,
0001
1000
0100
0010
,
0001
0100
0010
2000
,
0002
0000
3003
0000
,
0110
0000
0000
1000
0000
0001
0000
0200
,
0000
0300
0000
0010
0000
0000
1000
0000
,
0001
0100
0010
1000
,
0010
0100
0100
0001
,
1000
0010
0100
0001
,
1000
0100
0010
0001
,
1000
0001
0100
0010
,
1000
0010
0100
0001
,
1000
0000
0001
0000
0000
1000
0000
0000
,
0001
0010
0100
0100
,
1000
0000
0002
0003
0000
1000
0000
0000
,
0001
0010
0100
0010
,
0001
0000
2000
0000
3000
0001
0000
0000
,
0100
0001
1000
0010
,
0100
0000
0001
0000
0000
1000
0000
0000
,
0010
0100
0010
2000
,
0002
0000
3003
0000
,
0220
0000
0330
0000
,
1000
0100
0010
0001
,
1000
0010
0100
0020
,
2000
0000
3030
0000
,
0022
0000
0033
0000
,
1000
0010
0100
0001
,
0010
0001
1000
0002
,
0020
0000
0033
0000
,
1020
0000
0000
0030
0000
2000
0000
3000
,
0001
1000
0010
0100
,
0010
1000
0001
0200
,
0020
0000
0330
0000
,
2002
0000
3003
0000
,
0001
0010
0100
0010
,
0001
1000
0010
0100
,
0001
0100
0010
1000
,
0001
0100
0020
0030
,
1000
0001
0100
0010
,
1000
0010
0200
0300
,
0001
1000
0001
0010
,
0100
0010
0001
1000
,
0001
0100
0010
1000
,
0001
0000
0000
0010
0000
0000
0001
0000
,
1000
0000
0000
0010
0000
1000
0000
0200
,
0000
0300
0000
0010
0000
0000
0001
0000
,
1000
0010
0100
0001
,
0100
0010
0010
1000
,
0001
0100
0010
1000
,
0001
0010
0100
1000
,
0001
1000
0010
0100
,
0001
0100
0010
2000
,
3000
0001
0010
0100
,
1000
0100
0010
0010
,
0001
1000
0010
0100
,
0001
1000
0010
0200
,
0300
0001
0010
0100
,
1000
0100
0010
0001
,
0100
0010
1000
0100
,
0010
0001
0100
0002
,
2000
0003
0000
0000
,
3020
0000
0000
0030
,
0200
0000
0000
0300
,
0002
0000
0000
0003
,
2000
0000
0000
3000
,
0020
0000
0000
0000
,
2000
0000
0000
0000
,
0000
0000
3030
0000
,
0101
0000
0001
0000
,
1000
0010
1000
0000
,
0001
0000
0100
0000
,
0010
1000
0010
0100
,
0001
0000
1000
0000
,
0010
1000
0001
0000
,
1000
0000
0001
0010
,
0001
1000
0100
1000
,
0001
0010
0100
1000
,
0001
0100
0010
1000
,
0001
0010
0100
1000
,
0100
0010
0010
0001
,
1000
0100
0010
0001
,
1000
0010
0100
0001
,
1000
0001
0010
0100
,
1000
0100
0010
0002
,
0003
1000
0010
1000
,
0010
1000
0001
0010
,
0100
0100
0010
0001
,
1000
0001
1000
0010
,
0100
0100
0001
0100
,
0001
0100
0001
0100
,
0010
1000
0001
1000
,
0010
0000
0000
0100
0000
0002
0000
2000
,
0000
3003
0000
0000
;

//--------------- dance-single - RxSteps ----------------
#NOTES:
     dance-single:
     RxSteps:
     Medium:
     10:
     0,0,0,0,0:
0000
0000
0000
0000
,
1000
0000
0000
0000
0001
0000
0000
0000
0100
0000
0020
0000
0000
0030
0000
0000
,
1000
0200
0010
0300
0010
0002
0000
0000
,
0100
0000
0000
0000
1003
0000
0000
0000
0001
0000
0200
0000
0000
0300
0000
0000
,
0010
2000
0100
3000
0200
0020
0330
0000
,
0101
0000
2010
3000
0002
0010
0003
0000
,
0010
0000
0001
0000
1000
0000
0000
0000
0010
0000
0200
0000
0000
0300
0000
0000
,
0001
0020
0100
0030
0100
1000
0000
0000
,
0001
0100
0002
2000
0000
0000
3003
0000
,
0110
0000
1002
0003
0100
0020
0030
0000
,
1000
0100
0010
0000
0002
0200
0303
0000
,
1010
0000
0000
0000
1200
0300
0000
0000
0010
0000
0001
0000
0100
0000
0010
0000
,
1000
0100
0010
0100
1000
0010
0100
0001
,
0010
0100
0010
0001
1000
0100
0010
0001
,
0100
0010
0100
0010
1000
0010
1000
0001
,
1000
0100
0010
0100
1000
0001
0100
0010
,
1000
0100
1000
0001
0010
0001
0010
0100
,
1000
0001
0010
0001
1000
0010
0100
0001
,
0100
0010
1000
0002
0003
0010
0100
1000
,
0001
0100
0010
0100
0001
0010
0100
1000
,
0001
0010
0001
1000
0010
1000
0001
0020
,
0100
0030
0002
0000
0000
0000
1000
0000
,
0023
0200
0330
1001
,
1000
0010
0100
0001
0010
0001
0100
0010
,
1000
0001
0100
0010
0100
0001
1000
0200
,
0010
0300
2000
0000
3000
0000
0001
0000
,
0020
0000
0130
0000
1010
0000
0012
0003
,
1000
0100
0010
0001
1000
0100
0010
0100
,
1000
0010
1000
0010
0100
0001
0010
0200
,
1000
0010
0300
0010
,
0002
0000
0200
0000
0303
0000
2010
3000
,
0001
0010
0100
1000
0010
0100
0010
1000
,
0001
0100
0010
1000
0100
0010
0001
0200
,
0010
0300
0002
0000
0003
0000
1000
0000
,
0100
0020
0002
0033
,
1200
0300
0010
0000
0001
0000
1000
0000
0100
0000
0010
0000
0100
0000
1000
0000
,
0001
0010
0100
2000
3000
0010
0100
0010
,
1000
0001
0010
0100
0010
0001
0010
0100
,
1000
0010
0100
0010
1000
0100
0010
0001
,
0100
0010
1000
0010
0100
0001
1000
0100
,
0010
0100
1000
0001
0100
0010
1000
0010
,
0100
0001
0010
0100
1000
0100
0010
0001
,
0100
0010
0100
0001
1000
0010
0100
0001
,
0010
0001
0100
0010
1000
0010
0100
0002
,
2000
0000
0000
3003
,
0110
0000
0000
0000
1200
0300
0010
0000
0001
0000
1000
0000
0100
0000
0010
0000
,
0001
0100
0020
1000
0030
1000
0100
0010
,
0002
0003
2000
0010
3000
0010
0100
0001
,
1000
0100
0010
0100
1000
0020
0100
0030
,
0100
0010
1000
0100
0010
0100
1000
0001
,
0010
0100
2000
0010
3000
0010
0100
0000
,
0001
0010
0100
1000
0100
0010
0100
1000
,
0010
0100
0010
1000
0001
0100
0010
0100
,
0001
0010
0100
0010
0001
1000
0100
0010
,
0001
0100
0020
1000
0030
1000
0100
0010
,
0001
0100
0010
0100
0001
1000
0100
0010
,
0001
1000
0100
1000
0001
0100
0010
1000
,
0100
0010
0100
1000
0001
1000
0010
0100
,
0001
0010
0100
2000
3000
0001
0100
0010
,
1000
0001
0100
0001
0010
0100
1000
0010
,
0100
0010
1000
0001
0010
0001
1000
0020
,
0200
0000
0000
0000
0000
0330
0000
0000
,
2002
0000
0000
0000
0000
0003
3000
0000
,
0001
0010
0100
0010
0001
1000
0010
1000
,
0001
0010
0100
0010
0001
1000
0010
0200
,
0002
0000
0000
0000
0000
0303
0000
0000
,
0022
0000
0000
0000
0000
0030
0003
0000
,
1000
0100
0010
0100
1000
0001
0100
0010
,
1000
0100
0010
0100
1000
0001
0100
0020
,
2000
0000
0000
0000
0000
3030
0000
0000
,
0102
0000
0000
0003
0000
0100
0001
0100
,
0001
1000
0100
0010
0100
1000
0001
0010
,
0001
0100
0010
1000
0100
0010
0100
2000
,
0002
0000
0000
0000
0000
3003
0000
0000
,
0220
0000
0000
0000
0000
0330
0000
0000
,
1000
0001
0010
0100
0010
0001
1000
0100
,
0010
0001
0100
0010
1000
0010
0100
0001
,
0010
0100
1000
0100
0010
0100
1000
0001
,
0100
0010
0100
0001
0100
0010
0100
0001
,
1000
0100
0010
0001
1000
0100
0010
0001
,
1000
0100
1000
0001
1000
0100
1000
0001
,
1000
0100
0010
0001
1000
0010
0100
0001
,
1000
0010
0100
0010
1000
0001
0010
0100
,
1000
0010
0100
0001
1000
0010
0100
0002
,
2000
3003
0000
0110
0000
0000
1010
0000
,
0021
0030
0100
0000
1000
0000
0100
0000
0010
0000
0001
0000
0010
0000
0100
0000
,
1000
0010
0200
0001
0300
0001
0010
0100
,
2000
3000
0002
0100
0003
0100
0010
1000
,
0001
0100
0010
1000
0001
0200
0010
0300
,
0010
0100
0001
0010
0100
0010
0001
1000
,
0100
0010
0002
0100
0003
0100
0010
0000
,
1000
0100
0010
0001
0010
0100
0010
0001
,
1000
0010
0100
0010
1000
0001
0010
0200
,
1300
0000
0000
0000
0021
0030
0100
0000
1000
0000
0001
0000
0010
0000
0100
0000
,
1000
0010
0200
0001
0300
0001
0010
0200
,
1000
0300
0010
0001
1000
0100
0010
0100
,
1000
0001
0010
0001
1000
0010
0100
0002
,
0010
0003
0010
0100
1000
0001
0100
0010
,
1000
0001
0010
0200
0300
1000
0001
0200
,
0010
0300
0001
1000
0100
0010
0001
0100
,
0010
0100
0001
1000
0100
1000
0001
0100
,
0010
2000
0000
0000
0000
0000
3000
0000
,
0002
0010
0000
0000
0000
0000
0003
0000
,
0010
0200
0000
0000
0000
0000
0300
0000
,
1000
0002
0000
0000
0000
0000
0003
0000
,
1000
0000
0000
0000
0100
0000
0000
0000
0020
0000
0000
0000
0001
0030
0000
0000
,
0200
0000
1000
0300
0010
0000
0002
0000
,
0010
0003
0010
0000
0100
0000
1000
0001
,
0000
0100
0000
0020
0000
1030
0000
0000
,
0201
0300
0000
0010
2000
3000
0000
0001
,
0000
0010
0200
0000
2000
3300
0000
0000
,
0201
0300
0000
0020
1000
0000
0030
1000
,
0000
0100
0020
0000
0001
0030
0100
0000
,
1020
0030
0000
0100
0002
0003
0000
1000
,
0000
0100
0020
0000
0002
0033
0000
0000
,
1020
0030
0000
0200
0001
0000
0300
0001
,
0000
0010
0200
0000
1000
0300
0010
0000
,
0011
0000
0000
0000
1200
0300
0010
0000
0001
0000
1000
0000
0100
0000
0010
0000
,
0001
0100
0020
1000
0030
1000
0100
0010
,
0002
0003
2000
0010
3000
0010
0100
0001
,
1000
0100
0010
0100
1000
0020
0100
0030
,
0100
0010
1000
0100
0010
0100
1000
0001
,
0010
0000
0100
0000
2000
0000
0010
3000
0000
0000
0010
0000
0100
0000
0000
0000
,
0001
0010
0100
1000
0001
0010
0001
1000
,
0010
0100
0001
0100
0010
1000
0100
0020
,
0031
0000
0000
0000
1200
0300
0010
0000
0001
0000
0010
0000
0001
0000
1000
0000
,
0010
0100
0001
0100
0001
1000
0100
0010
,
0001
0100
0010
0100
0001
1000
0100
1000
,
0100
0010
0100
1000
0001
0100
0010
1000
,
0100
0010
0100
1000
0001
1000
0010
1000
,
0010
0100
0001
0100
0001
1000
0100
0010
,
0001
0100
0010
0100
0001
1000
0001
0010
,
0200
1000
0300
1000
0010
0100
0002
0020
,
0000
0000
0000
0033
0000
0000
0000
0000
;

//--------------- dance-single - RxSteps ----------------
#NOTES:
     dance-single:
     RxSteps:
     Hard:
     11:
     0,0,0,0,0:
0000
0000
0000
0000
,
1000
0000
0000
0000
0001
0000
0000
0000
0100
0000
0020
0000
0000
0030
0000
0000
,
1000
0200
0010
0300
0010
0002
0000
0000
,
0100
0000
0000
0000
1003
0000
0000
0000
0001
0000
0200
0000
0000
0300
0000
0000
,
0010
2000
0100
3000
0200
0020
0330
0000
,
0101
0000
2010
3000
0002
0010
0003
0000
,
0010
0000
0001
0000
1000
0000
0000
0000
0010
0000
0200
0000
0000
0300
0000
0000
,
0001
0020
0100
0030
0100
1000
0000
0000
,
0001
0100
0002
2000
0000
0000
3003
0000
,
0110
0000
1002
0003
0100
0020
0030
0000
,
1000
0100
0010
0000
0002
0200
0303
0000
,
1010
0000
0000
0000
1200
0300
0000
0000
0010
0000
0001
0000
0100
0000
0010
0000
,
1000
0000
0200
0300
0001
0000
0100
0000
1000
0000
0010
0000
0100
0000
0001
0000
,
0010
0100
0010
0001
1000
0100
0010
0001
,
0100
0010
0100
0010
1000
0010
1000
0001
,
1000
0000
0200
0300
0001
0000
0100
0000
1000
0000
0001
0000
0100
0000
0010
0000
,
1000
0100
1000
0001
0010
0001
0010
0100
,
1000
0000
0020
0030
0001
0000
0010
0000
1000
0000
0010
0000
0100
0000
0001
0000
,
0100
0010
1000
0002
0003
0010
0100
1000
,
0001
0000
0200
0300
1000
0000
0100
0000
0001
0000
0010
0000
0100
0000
1000
0000
,
0001
0010
0001
1000
0010
1000
0001
0020
,
0100
0030
0002
0000
0000
0000
1000
0000
,
0023
0200
0330
1001
,
1000
0010
0100
0001
0010
0001
0100
0010
,
1000
0001
0100
0010
0100
0001
1000
0200
,
0010
0300
2000
0000
3000
0000
0001
0000
,
0020
0000
0130
0000
1010
0000
0012
0003
,
1000
0100
0010
0001
1000
0100
0010
0100
,
1000
0010
1000
0010
0100
0001
0010
0200
,
1000
0010
0300
0010
,
0002
0000
0200
0000
0303
0000
2010
3000
,
0001
0010
0100
1000
0010
0100
0010
1000
,
0001
0100
0010
1000
0100
0010
0001
0200
,
0010
0300
0002
0000
0003
0000
1000
0000
,
0100
0020
0002
0033
,
1200
0300
0010
0000
0001
0000
1000
0000
0100
0000
0010
0000
0100
0000
1000
0000
,
0001
0010
0100
2000
3000
0010
0100
0010
,
1000
0001
0010
0100
0010
0001
0010
0100
,
1000
0000
0020
0030
0001
0000
0010
0000
1000
0000
0100
0000
0010
0000
0001
0000
,
0100
0000
0010
0000
1000
0000
0010
0000
0100
0000
0001
0000
0020
0030
1000
0000
,
0001
0100
1000
0001
0100
0010
1000
0010
,
0100
0001
0010
0100
1000
0100
0010
0001
,
0100
0010
0100
0001
1000
0010
0100
0001
,
0010
0001
1000
0100
0010
0001
0100
2000
,
0002
0000
0000
3003
,
0110
0000
0000
0000
1200
0300
0010
0000
0001
0000
1000
0000
0100
0000
0010
0000
,
0001
0100
0020
1000
0030
1000
0100
0010
,
0002
0003
2000
0010
3000
0010
0100
0001
,
1000
0000
0200
0300
0001
0000
0100
0000
1000
0000
0020
0000
0100
0000
0030
0000
,
0100
0010
1000
0100
0010
0100
1000
0001
,
0010
0100
2000
0010
3000
0010
0100
0000
,
0001
0000
0010
0000
0100
0000
1000
0000
0200
0300
0001
0000
0100
0000
1000
0000
,
0010
0000
0100
0000
0010
0000
1000
0000
0001
0000
0200
0300
1000
0000
0100
0000
,
0001
0010
0100
0010
0001
1000
0100
0010
,
0001
0100
0020
1000
0030
1000
0100
0010
,
0001
0000
0200
0300
1000
0000
0001
0000
0010
0000
1000
0000
0100
0000
0010
0000
,
0001
1000
0100
1000
0001
0100
0010
1000
,
0200
0300
0001
0000
1000
0000
0010
0000
0001
0000
1000
0000
0010
0000
0100
0000
,
0001
0010
0100
2000
3000
0001
0100
0010
,
1000
0000
0200
0300
0001
0000
1000
0000
0010
0000
0001
0000
1000
0000
0010
0000
,
0100
0010
1000
0001
0010
0001
1000
0020
,
0200
0000
0000
0000
0000
0330
0000
0000
,
2002
0000
0000
0000
0000
0003
3000
0000
,
0001
0010
0100
0010
0001
1000
0010
1000
,
0001
0000
0010
0000
0100
0000
1000
0000
0020
0030
0001
0000
1000
0000
0200
0000
,
0002
0000
0000
0000
0000
0303
0000
0000
,
0022
0000
0000
0000
0000
0030
0003
0000
,
1000
0100
0010
0100
1000
0001
0100
0010
,
1000
0000
0200
0300
0001
0000
0100
0000
1000
0000
0020
0030
0001
0000
0020
0000
,
2000
0000
0000
0000
0000
3030
0000
0000
,
0102
0000
0000
0003
0000
0100
0001
0100
,
0001
1000
0100
0010
0100
1000
0001
0010
,
0001
0100
0010
1000
0100
0010
0100
2000
,
0002
0000
0000
0000
0000
3003
0000
0000
,
0220
0000
0000
0000
0000
0330
0000
0000
,
1000
0001
0010
0100
0010
0001
1000
0100
,
0010
0000
0001
0000
0200
0300
1000
0000
0001
0000
0010
0000
1000
0000
0100
0000
,
0010
0100
1000
0100
0010
0100
1000
0001
,
0200
0300
1000
0000
0100
0000
0001
0000
0200
0300
1000
0000
0100
0000
0001
0000
,
1000
0010
0100
0010
1000
0010
0100
0001
,
0020
0030
1000
0000
0010
0000
0001
0000
0020
0030
1000
0000
0010
0000
0001
0000
,
1000
0100
0010
0001
1000
0010
0100
0001
,
1000
0010
0100
0010
1000
0001
0010
0100
,
1000
0010
0100
0001
1000
0010
0100
0002
,
2000
3003
0000
0110
0000
0000
1010
0000
,
0021
0030
0100
0000
1000
0000
0100
0000
0010
0000
0001
0000
0010
0000
0100
0000
,
1000
0010
0200
0001
0300
0001
0010
0100
,
2000
3000
0002
0100
0003
0100
0010
1000
,
0001
0000
0020
0030
1000
0000
0010
0000
0001
0000
0200
0000
0010
0000
0300
0000
,
0010
0100
0001
0010
0100
0010
0001
1000
,
0100
0010
0002
0100
0003
0100
0010
0000
,
1000
0000
0100
0000
0010
0000
0001
0000
0020
0030
1000
0000
0010
0000
0001
0000
,
1000
0010
0100
0010
1000
0001
0010
0200
,
1300
0000
0000
0000
0021
0030
0100
0000
1000
0000
0001
0000
0010
0000
0100
0000
,
1000
0010
0200
0001
0300
0001
0010
0200
,
1000
0300
0010
0001
1000
0100
0010
0100
,
1000
0001
0010
0001
1000
0010
0100
0002
,
0010
0003
0010
0100
1000
0001
0100
0010
,
1000
0001
0010
0200
0300
1000
0001
0200
,
0010
0300
0001
1000
0100
0010
0001
0100
,
0010
0100
0001
1000
0100
1000
0001
0100
,
0010
2000
0000
0000
0000
0000
3000
0000
,
0002
0010
0000
0000
0000
0000
0003
0000
,
0010
0200
0000
0000
0000
0000
0300
0000
,
1000
0002
0000
0000
0000
0000
0003
0000
,
1000
0000
0000
0000
0100
0000
0000
0000
0020
0000
0000
0000
0001
0030
0000
0000
,
0200
0000
1000
0300
0010
0000
0002
0000
,
0010
0003
0010
0000
0100
0000
1000
0001
,
0000
0100
0000
0020
0000
1030
0000
0000
,
0201
0300
0000
0010
2000
3000
0000
0001
,
0000
0010
0200
0000
2000
3300
0000
0000
,
0201
0300
0000
0020
1000
0000
0030
1000
,
0000
0100
0020
0000
0001
0030
0100
0000
,
1020
0030
0000
0100
0002
0003
0000
1000
,
0000
0100
0020
0000
0002
0033
0000
0000
,
1020
0030
0000
0200
0001
0000
0300
0001
,
0000
0010
0200
0000
1000
0300
0010
0000
,
0011
0000
0000
0000
1200
0300
0010
0000
0001
0000
1000
0000
0100
0000
0010
0000
,
0001
0100
0020
1000
0030
1000
0100
0010
,
0002
0003
2000
0010
3000
0010
0100
0001
,
1000
0000
0200
0300
0001
0000
0100
0000
1000
0000
0020
0000
0100
0000
0030
0000
,
0100
0010
1000
0100
0010
0100
1000
0001
,
0010
0000
0100
0000
2000
0000
0010
3000
0000
0000
0010
0000
0100
0000
0000
0000
,
0001
0000
0010
0000
0100
0000
1000
0000
0200
0300
0001
0000
0100
0000
1000
0000
,
0010
0100
0001
0100
0010
1000
0100
0020
,
0031
0000
0000
0000
1200
0300
0010
0000
0001
0000
0010
0000
0001
0000
1000
0000
,
0010
0100
0001
0100
0001
1000
0100
0010
,
0001
0000
0200
0300
1000
0000
0001
0000
0010
0000
1000
0000
0100
0000
1000
0000
,
0100
0010
0100
1000
0001
0100
0010
1000
,
0200
0300
0001
0000
1000
0000
0010
0000
0001
0000
1000
0000
0010
0000
1000
0000
,
0010
0100
0001
0100
0001
1000
0100
0010
,
0001
0000
0200
0300
1000
0000
0001
0000
0010
0000
1000
0000
0001
0000
0010
0000
,
0200
1000
0300
1000
0010
0100
0002
0020
,
0000
0000
0000
0033
0000
0000
0000
0000
;
