#TITLE:I Just Might;
#SUBTITLE:;
#ARTIST:Bruno Mars;
#TITLETRANSLIT:;
#SUBTITLETRANSLIT:;
#ARTISTTRANSLIT:;
#GENRE:;
#CREDIT:RxSteps;
#MUSIC:I Just Might.ogg;
#BANNER:I Just Might.png;
#BACKGROUND:I Just Might-bg.png;
#CDTITLE:cdtitle.png;
#SAMPLESTART:49.251;
#SAMPLELENGTH:25.631;
#SELECTABLE:YES;
#OFFSET:2.011;
#BPMS:0.000=103.000;
#STOPS:;
#BGCHANGES:;
#FGCHANGES:;

//--------------- dance-single - RxSteps ----------------
#NOTES:
     dance-single:
     RxSteps:
     Beginner:
     3:
     0,0,0,0,0:
0000
0000
0000
0000
,
0001
0000
0000
0000
,
1000
0000
0010
0000
,
1000
0000
0001
0000
,
0001
0000
0000
0000
0000
0010
0000
0000
,
0010
0000
0001
0000
,
1000
0000
0000
0000
0000
0010
0000
0000
,
0010
0000
1000
0000
,
0001
0000
0000
0000
0000
0100
0000
0000
,
0100
0000
0010
0000
,
1000
0000
0000
0000
0000
0001
0000
0000
,
0001
0000
0010
0000
,
0100
0000
0000
0000
0000
1000
0000
0000
,
1000
0000
0100
0000
,
0010
0000
0000
0000
0000
0001
0000
0000
,
0002
0003
0000
1000
,
0000
1000
0000
0000
0000
0000
0000
0000
,
0002
0000
0003
0000
,
1000
0000
0000
0000
0000
0010
0000
0000
,
0020
0030
0000
1000
,
0000
0000
0000
0000
0000
0001
0000
0000
,
0001
0000
0010
0000
,
0010
0000
0000
0000
0000
0001
0000
0000
,
0001
0000
0000
0000
0000
1000
0000
0000
,
1000
0000
0010
0000
,
0100
0000
0000
0000
0000
0010
0000
0000
,
0010
0000
1000
0000
,
0001
0000
0000
0000
0000
0010
0000
0000
,
0010
0000
0001
0000
,
1000
0000
0010
0000
,
2000
0000
3000
0000
,
0001
0000
0100
0000
,
0100
0000
0000
0000
0000
0010
0000
0000
,
0010
0000
1000
0000
,
0001
0000
0000
0000
0000
0010
0000
0000
,
0010
0000
0001
0000
,
1000
0000
0000
0000
0000
0001
0000
0000
,
0001
0000
0010
0000
,
0100
0000
0000
0000
0000
1000
0000
0000
,
1000
0000
0100
0000
,
0010
0000
0001
0000
,
1000
0000
0001
0000
,
0010
0000
0000
0000
0000
0001
0000
0000
,
0002
0003
0000
1000
,
0000
1000
0000
0000
0000
0000
0000
0000
,
0010
0000
0100
0000
,
0010
0000
0000
0000
0000
1000
0000
0000
,
2000
3000
0000
0020
,
0000
0030
0000
0000
0000
0100
0000
0000
,
0100
0000
0001
0000
,
1000
0000
0000
0000
0000
0010
0000
0000
,
0010
0000
0000
0000
0000
0100
0000
0000
,
0100
0000
0001
0000
,
0010
0000
0000
0000
0000
0100
0000
0000
,
0100
0000
1000
0000
,
0001
0000
0000
0000
0000
0100
0000
0000
,
0100
0000
0010
0000
,
1000
0000
0010
0000
,
0200
0000
0300
0000
,
0002
0000
0003
0000
0000
1000
0000
0000
,
2000
0000
3000
0000
,
0010
0000
0000
0000
0000
0100
0000
0000
,
0200
0000
0300
0000
,
0001
0000
0010
0000
,
0100
0000
1000
0000
,
0001
0000
1000
0000
,
0100
0000
0010
0000
,
0001
0000
1000
0000
,
0001
0000
0010
0000
,
0002
0000
0003
0000
,
1000
0000
0000
0000
0000
0001
0000
0000
,
0001
0000
0000
0000
0000
1000
0000
0000
,
1000
0000
0100
0000
,
0010
0000
0000
0000
0000
0100
0000
0000
,
0100
0000
1000
0000
,
0001
0000
0000
0000
0000
0100
0000
0000
,
0100
0000
0001
0000
,
1000
0000
0200
0000
,
0300
0000
0000
0000
0000
1000
0000
0000
,
1000
0000
0000
0000
0000
0001
0000
0000
,
0001
0000
0100
0000
,
0010
0000
0000
0000
0000
0100
0000
0000
,
0100
0000
0001
0000
,
1000
0000
0000
0000
0000
0100
0000
0000
,
0100
0000
1000
0000
,
0001
0000
0100
0000
,
0002
0000
0003
0000
,
1000
0000
0001
0000
,
0001
0000
0000
0000
0000
0100
0000
0000
,
0100
0000
0001
0000
,
1000
0000
0000
0000
0000
0200
0000
0000
,
0300
0000
0000
0000
;

//--------------- dance-single - RxSteps ----------------
#NOTES:
     dance-single:
     RxSteps:
     Easy:
     5:
     0,0,0,0,0:
0000
0000
0000
0000
,
0001
0010
0100
1000
,
0001
1000
0001
1000
,
0010
0000
0100
0000
0001
0000
1000
0010
,
1000
0000
0001
0000
0010
0001
0000
0000
,
1000
0000
0100
0000
0010
0000
0001
0010
,
0001
0000
1000
0000
0100
1000
0000
0000
,
0001
0010
0001
0001
,
1000
0000
0000
0000
0010
0000
1000
0000
0000
0000
0001
0000
0000
0100
0000
0000
,
0001
1000
0100
1000
,
0001
0000
0001
0000
1000
0010
0000
0000
,
1000
0001
1000
0000
0010
0000
0010
0000
,
1000
0000
0000
0000
1000
0000
0010
0000
0000
0000
0100
0000
0000
0010
0000
0000
,
0100
0001
1000
0010
,
0100
0000
0100
0000
0001
0100
0001
0000
,
2000
3000
0000
0020
0030
0000
2000
3000
,
0000
1000
0000
0000
0001
0000
0010
0000
,
0002
0000
0000
0000
0003
0000
0000
0000
0000
0000
1000
0000
0000
0001
0000
0000
,
1000
0000
0010
0000
0100
0010
0100
0000
,
0001
1000
0010
0100
,
0100
0001
1000
0100
,
0010
0010
0001
0100
,
0020
0000
0000
0000
0030
0000
0000
0000
0000
0000
1000
0000
0000
0001
0000
0000
,
1000
0000
0000
0000
0010
0000
0000
0000
0100
0000
0001
0000
0000
0100
0000
0000
,
0001
1000
0100
0010
,
0010
0000
0000
0000
0001
0000
0000
0000
1000
0000
0010
0000
0000
1000
0000
0000
,
0010
1000
0001
0100
,
0010
0000
0000
0000
0100
0000
0000
0000
0001
0000
1000
0000
0000
0001
0000
0000
,
1000
0010
0010
1000
,
0001
0100
0010
1000
,
0001
0000
1000
0020
0000
0000
0030
0000
,
0100
0000
0001
0000
1000
0000
0001
0100
,
0001
0000
1000
0010
1000
0010
1000
0000
,
0001
0000
0100
0000
0010
0000
1000
0001
,
1000
0001
0000
0100
0002
0000
0003
0000
,
2000
3000
0020
0030
,
0200
0000
0000
0000
0300
0000
0000
0000
0000
0000
0001
0000
0000
0100
0000
0000
,
0001
1000
0010
1000
,
0002
0000
0003
0000
1000
0001
1000
0000
,
0001
0010
0100
0100
,
1000
0001
1000
0001
,
0100
0010
1000
0010
,
0100
0010
0100
0000
0001
0000
1000
0000
,
0001
0000
0000
0010
0000
0000
0001
0000
,
0000
1000
0000
0000
0010
0000
1000
0000
,
0002
0000
0000
0000
0000
0000
0003
0000
0000
0000
0100
0000
0000
0010
0000
0000
,
1000
0000
0001
0000
1000
0010
1000
0000
,
0001
0000
0000
0100
0000
0000
0010
0000
,
1000
0001
1000
0100
,
1000
0001
0001
1000
,
0010
0000
0000
0000
0100
0000
0000
0000
0000
0000
0001
0000
0000
1000
0000
0000
,
0001
0000
0000
0000
0100
0000
0000
0000
0010
0000
1000
0000
0000
0010
0000
0000
,
1000
0001
0010
0100
,
0100
0000
0000
0000
1000
0000
0000
0000
0001
0000
0100
0000
0000
0001
0000
0000
,
0100
0001
1000
0010
,
0100
0000
0000
0000
0010
0000
0000
0000
1000
0000
0001
0000
0000
1000
0000
0000
,
0001
0100
0100
0001
,
1000
0010
0100
0001
,
1000
0000
0001
0200
0000
0000
0300
0000
,
0002
0000
0000
0003
0000
2000
3000
0000
,
0020
0030
0000
0200
0000
0300
0000
0000
,
0020
0000
0000
0000
0030
0000
0000
0000
0000
0000
2000
0000
0000
3000
0000
0000
,
0002
0000
0000
0003
0000
0000
0020
0000
0000
0030
0000
0000
0001
0000
0000
0000
,
1000
0100
0010
0001
,
0100
0010
0100
0001
,
1000
0100
0010
0001
,
1000
0010
0100
0010
,
1000
0001
0001
0100
,
0010
1000
0010
0100
,
0001
0100
0010
1000
,
0010
0000
0000
0000
0100
0000
0000
0000
0000
0000
0001
0000
0000
1000
0000
0000
,
0001
0000
0000
0000
0010
0000
0000
0000
0100
0000
1000
0000
0000
0100
0000
0000
,
1000
0001
0100
0010
,
0010
0000
0000
0000
1000
0000
0000
0000
0001
0000
0010
0000
0000
0001
0000
0000
,
0010
0001
1000
0100
,
0010
0000
0000
0000
0100
0000
0000
0000
1000
0000
0001
0000
0000
1000
0000
0000
,
0001
0010
0010
0001
,
1000
0100
0010
0002
,
2000
0000
0000
0000
3003
0000
0000
0000
0000
0000
1000
0000
0000
0001
0000
0000
,
1000
0000
0000
0000
0100
0000
0000
0000
0010
0000
0001
0000
0000
0010
0000
0000
,
0001
1000
0010
0100
,
0100
0000
0000
0000
0001
0000
0000
0000
1000
0000
0100
0000
0000
1000
0000
0000
,
0100
1000
0001
0010
,
0100
0000
0000
0000
0010
0000
0000
0000
0001
0000
1000
0000
0000
0001
0000
0000
,
1000
0100
0100
1000
,
0001
0010
0100
1000
,
0001
0000
1000
0200
0000
0000
0300
0000
,
1000
0000
0100
0000
0010
0000
0001
0010
,
0001
0000
1000
0000
0010
1000
0000
0000
,
0001
0000
0100
0000
0010
0000
1000
0010
,
1000
0001
0000
0200
0020
0000
0000
0000
,
0330
0000
0000
0000
;

//--------------- dance-single - RxSteps ----------------
#NOTES:
     dance-single:
     RxSteps:
     Medium:
     7:
     0,0,0,0,0:
0000
0000
0000
0000
,
0001
0010
0100
1000
,
0001
1000
0100
1000
0001
1000
0010
1000
,
0001
0000
0010
0000
0200
0000
1000
0300
0010
0000
0001
0000
1000
0000
0010
0100
,
0000
0001
0010
0100
1000
0010
0100
0010
,
1000
0000
0100
0000
0020
0000
0001
0030
0100
0000
1000
0000
0100
0000
0010
0001
,
0000
0100
0010
1000
0001
0010
0100
0010
,
0001
1000
0010
0200
0001
0300
0010
2000
,
0100
0000
3000
0000
0002
0000
0010
0000
0003
0000
2000
0000
0000
3100
0000
0000
,
0021
0030
0200
0000
1000
0300
0010
0000
0001
0000
1000
0000
0010
0000
0100
0000
,
0010
1000
0001
0020
0130
0000
1010
0000
,
0012
0003
1000
0000
0100
0000
0020
0000
0001
0000
0030
0000
0001
0000
0200
0000
,
0010
0000
0300
0000
0010
0000
1000
0000
0000
0000
0002
0000
0000
0013
0000
0000
,
1200
0300
0020
0000
0001
0030
0100
0000
1000
0000
0001
0000
0100
0000
0010
0000
,
0100
0000
0001
0000
1000
0000
0100
0000
0020
0000
0001
0030
0100
0000
1000
0001
,
0010
0000
0100
1000
0000
0000
0001
0000
0020
0100
0030
0000
0200
0000
1000
0000
,
0000
0300
0010
0000
0001
0000
1000
0000
0010
0000
1000
0000
0002
0013
0000
0000
,
1200
0300
0020
0000
0001
0030
0200
0000
1000
0300
0010
0001
0000
1000
0010
0000
,
0100
0001
1000
0010
0100
0001
2000
3100
,
0012
0003
2000
3100
0000
0000
0201
0300
0010
1000
0000
0000
1200
0300
0010
0000
,
0001
0000
0100
0000
0010
0000
0100
0000
0001
0000
0020
0000
0100
0030
0002
0000
,
2000
3003
0000
0000
0110
0000
0000
0000
0011
0000
0110
0000
2100
0000
3000
0000
,
0001
0100
0000
0010
0000
2000
0020
3030
0000
0000
0011
0000
0000
1010
0000
0000
,
0021
0030
0200
0000
1000
0300
0010
0000
0001
0000
1000
0100
0000
0020
0031
0000
,
1020
0030
0100
0000
0001
0000
0010
0000
0100
0000
1000
0000
0010
0000
0100
0000
,
0001
0000
0010
0000
0001
0000
1000
0000
0100
0000
0010
0001
0000
2000
3010
0000
,
0102
0003
1000
0000
0100
0000
0020
0000
0001
0030
0100
0000
1000
0000
0001
0000
,
0010
0000
0100
0000
1000
0000
0001
0000
0100
0000
0010
1000
0000
0002
0013
0000
,
1200
0300
0020
0000
0001
0030
0000
0001
0010
0000
0200
0000
1000
0300
0010
0000
,
0021
0030
0100
0000
1000
0000
0001
0000
0020
0000
0100
0030
0001
0000
1000
0000
,
0100
0010
0001
1000
0001
0100
0010
2000
,
3001
0000
0110
0000
1001
0000
1200
0300
0010
0000
0002
0000
1003
0000
1000
0100
,
0000
0000
0020
0000
0001
0030
0100
0000
1000
0000
0001
0000
0010
0000
0001
0000
,
1000
0000
0200
0000
0010
0300
1000
0000
0001
0000
0200
0000
0310
0000
0010
0100
,
0000
0000
0001
0000
0020
0000
0100
0030
0001
0000
1000
0200
0010
0000
0300
0000
,
0010
0001
0010
0200
1000
0300
1000
0100
,
0010
0000
0000
0000
0001
0000
0100
0000
0000
0020
1000
0030
1000
0001
0000
0100
,
0010
1000
0100
0020
0031
0000
1010
0000
,
0021
0030
0200
0000
1000
0300
0010
0000
0001
0000
0010
0000
0100
0000
0010
0000
,
0001
0000
1000
0000
0001
0000
0200
0000
0010
0300
0001
0000
1000
0000
0100
0000
,
0010
0100
1000
0001
0100
0010
0100
0001
,
0010
0000
0200
0000
1000
0300
0010
0000
0001
0000
1000
0000
0100
0000
0010
0000
,
0001
0000
1000
0000
0001
0000
0100
0000
0020
0000
1000
0030
0100
0000
0001
1000
,
0010
0000
0100
0001
0000
0000
1000
0000
0200
0010
0300
0000
0020
0000
0001
0000
,
0000
0030
0100
0000
1000
0000
0010
0000
0100
0000
0001
0000
2000
3100
0000
0000
,
0021
0030
0200
0000
1000
0300
0020
0000
0001
0030
0200
1000
0300
1000
0100
0000
,
0010
0001
1000
0010
0100
0010
2000
3100
,
0102
0003
2000
3010
0000
0000
0021
0030
0200
1300
0000
0000
1020
0030
0100
0000
,
0001
0000
0010
0000
0100
0000
0010
0000
0001
0000
0200
0000
0010
0300
0002
0000
,
1003
0000
0110
0000
0101
0110
2010
3000
,
0001
0200
0000
0310
0000
0020
2000
3030
0000
0000
0101
0000
0000
1100
0000
0000
,
0201
0300
0020
0000
1000
0030
0100
0000
0001
0000
1000
0010
0000
0200
0301
0000
,
1200
0300
0010
0000
0001
0000
0100
0000
0010
0000
1000
0000
0100
0000
1000
0000
,
0001
0000
0010
0000
0001
0000
1000
0000
0010
0000
0100
0001
0000
2000
3100
0000
,
0012
0003
1000
0000
0010
0000
0200
0000
0001
0300
0010
0000
1000
0000
0100
0000
,
0010
0000
0100
0000
1000
0000
0001
0000
0010
0000
0100
1000
0000
0002
0103
0000
,
1020
0030
0200
0000
0001
0300
0000
0001
0100
0000
0020
0000
1000
0030
0100
0000
,
0201
0300
0010
0000
1000
0000
0001
0000
0200
0000
0010
0300
0001
0000
1000
0000
,
0100
0010
0001
0100
0010
1000
0100
0010
,
0001
0000
1000
0000
0010
0000
1000
0000
0100
0000
0020
0000
0000
0001
0030
0000
,
0100
0000
0000
1000
0000
0000
0010
0000
0100
0000
0001
0000
0010
0000
0100
0000
,
0010
0000
0001
0000
0100
0000
0010
0000
1000
0000
0001
0000
0000
0020
0000
0000
,
0100
0000
0030
0001
0000
0000
1000
0000
0100
0000
0010
0000
0100
0000
1000
0000
,
0001
0000
0200
0010
0300
0000
0020
0000
1000
0030
0100
0000
0001
0000
0010
0000
,
0100
0010
0001
1000
0010
1000
0001
0020
,
0100
0030
0200
1000
0000
0300
0010
0000
0001
0000
0100
0000
0010
0000
0100
0000
,
0001
0010
0100
0010
0001
1000
0010
0100
,
0001
0000
0010
0000
0100
1000
0000
0000
0002
0010
0003
0000
0020
0100
0030
0000
,
0001
0000
1000
0000
0010
0000
0100
0000
0001
0000
0000
0010
0000
0000
0100
0000
,
1000
0001
1000
0010
0100
0001
0010
0001
,
1000
0000
0200
0000
0010
0300
2000
0000
3001
0000
0110
0000
0000
1001
0000
0000
,
0201
0300
0020
0000
1000
0030
0100
0000
0001
0000
1000
0010
0000
0200
0301
0000
,
1200
0300
0010
0000
0001
0000
0100
0000
0010
0000
1000
0000
0100
0000
1000
0000
,
0010
0000
0100
0000
0001
0000
1000
0000
0010
0000
0100
0001
0000
2000
3100
0000
,
0012
0003
1000
0000
0010
0000
0200
0000
0001
0300
0010
0000
1000
0000
0100
0000
,
0010
0000
0100
0000
1000
0000
0001
0000
0010
0000
0100
1000
0000
0002
0103
0000
,
1020
0030
0200
0000
0001
0300
0000
0001
0100
0000
0020
0000
1000
0030
0100
0000
,
0201
0300
0010
0000
1000
0000
0001
0000
0200
0000
0010
0300
0001
0000
1000
0000
,
0001
0000
0100
0000
0010
0000
0100
0000
0002
0000
1003
0000
0000
0110
0000
0000
,
1200
0300
0020
0000
0001
0030
0100
0000
1000
0000
0001
0010
0000
0200
1300
0000
,
0201
0300
0010
0000
1000
0000
0100
0000
0010
0000
0001
0000
0100
0000
0010
0000
,
0100
0000
0001
0000
1000
0000
0001
0000
0010
0000
0100
1000
0000
0002
0103
0000
,
2010
3000
0001
0000
0010
0000
0200
0000
1000
0300
0010
0000
0001
0000
0100
0000
,
0010
0000
0100
0000
0001
0000
1000
0000
0010
0000
0100
0001
0000
2000
3100
0000
,
0021
0030
0200
0000
1000
0300
0000
1000
0100
0000
0020
0000
0001
0030
0100
0000
,
1200
0300
0010
0000
0001
0000
1000
0000
0200
0000
0010
0300
1000
0000
0001
0000
,
0100
0010
0100
0001
1000
0010
0100
0002
,
1003
0000
0110
0000
1001
0000
0021
0030
0100
0000
2000
0000
3001
0000
0001
0010
,
0000
0000
0200
0000
1000
0300
0010
0000
0001
0000
1000
0000
0010
0000
1000
0000
,
0001
0000
0020
0000
0100
0030
0001
0000
1000
0000
0020
0000
0130
0000
0100
0010
,
0000
0000
1000
0000
0200
0000
0010
0300
1000
0000
0001
0020
0200
0000
0000
0000
,
0330
0000
0000
0000
;

//--------------- dance-single - RxSteps ----------------
#NOTES:
     dance-single:
     RxSteps:
     Hard:
     8:
     0,0,0,0,0:
0000
0000
0000
0000
,
0001
0010
0100
1000
,
0001
1000
0100
1000
0001
1000
0010
1000
,
0001
0000
0010
0000
0200
0000
1000
0300
0010
0000
0001
0000
1000
0000
0010
0100
,
0000
0000
0001
0000
0010
0000
0100
0000
1000
0000
0020
0030
0001
0000
0010
0000
,
1000
0000
0100
0000
0020
0000
0001
0030
0100
0000
1000
0000
0100
0000
0010
0001
,
0000
0000
0100
0000
0010
0000
1000
0000
0001
0000
0020
0030
1000
0000
0010
0000
,
0001
1000
0010
0200
0001
0300
0010
2000
,
0100
0000
3000
0000
0002
0000
0010
0000
0003
0000
2000
0000
0000
3100
0000
0000
,
0021
0030
0200
0000
1000
0300
0010
0000
0001
0000
1000
0000
0010
0000
0200
0300
,
1000
0100
0001
0020
0130
0000
1010
0000
,
0012
0003
1000
0000
0100
0000
0020
0000
0001
0000
0030
0000
0001
0000
0200
0000
,
0010
0000
0300
0000
0010
0000
1000
0000
0000
0000
0002
0000
0000
0013
0000
0000
,
1200
0300
0020
0000
0001
0030
0100
0000
1000
0000
0001
0000
0100
0000
0020
0030
,
0001
0000
0010
0000
1000
0000
0100
0000
0020
0000
0001
0030
0100
0000
1000
0001
,
0100
0000
0010
1000
0000
0000
0001
0000
0020
0100
0030
0000
0200
0000
1000
0000
,
0000
0300
0010
0000
0001
0000
0200
0300
1000
0000
0100
0000
0002
0013
0000
0000
,
1200
0300
0020
0000
0001
0030
0200
0000
1000
0300
0010
0001
0000
1000
0010
0000
,
0100
0000
0001
0000
1000
0000
0020
0030
0001
0000
0010
0000
2000
0000
3100
0000
,
0012
0003
2000
3100
0000
0000
0201
0300
0010
1000
0000
0000
1200
0300
0010
0000
,
0001
0000
0200
0300
1000
0000
0100
0000
0001
0000
0020
0000
0100
0030
0002
0000
,
2000
3003
0000
0000
0110
0000
0000
0000
0011
0000
0110
0000
2100
0000
3000
0000
,
0001
0100
0000
0010
0000
2000
0020
3030
0000
0000
0011
0000
0000
1010
0000
0000
,
0021
0030
0200
0000
1000
0300
0010
0000
0001
0000
1000
0100
0000
0020
0031
0000
,
1020
0030
0100
0000
0001
0000
0010
0000
0100
0000
1000
0000
0020
0030
0001
0000
,
1000
0000
0100
0000
0001
0000
1000
0000
0100
0000
0010
0001
0000
2000
3010
0000
,
0102
0003
1000
0000
0100
0000
0020
0000
0001
0030
0100
0000
1000
0000
0020
0030
,
0001
0000
0010
0000
1000
0000
0001
0000
0100
0000
0010
1000
0000
0002
0013
0000
,
1200
0300
0020
0000
0001
0030
0000
0001
0010
0000
0200
0000
1000
0300
0010
0000
,
0021
0030
0100
0000
1000
0000
0001
0000
0020
0000
0100
0030
0001
0000
1000
0000
,
0010
0000
0100
0000
0001
0000
0010
0000
0100
0000
1000
0000
0020
0030
0002
0000
,
1003
0000
0110
0000
1001
0000
1200
0300
0010
0000
0002
0000
1003
0000
1000
0100
,
0000
0000
0020
0000
0001
0030
0100
0000
1000
0000
0020
0030
0001
0000
0010
0000
,
1000
0000
0200
0000
0010
0300
1000
0000
0001
0000
0200
0000
0310
0000
0010
0100
,
0000
0000
0001
0000
0020
0000
0100
0030
0001
0000
1000
0020
0100
0000
0030
0000
,
0100
0001
0010
0200
1000
0300
1000
0100
,
0010
0000
0000
0000
0001
0000
0100
0000
0000
0020
1000
0030
1000
0001
0000
0100
,
0010
1000
0100
0020
0031
0000
1010
0000
,
0021
0030
0200
0000
1000
0300
0010
0000
0001
0000
0200
0300
1000
0000
0100
0000
,
0010
0000
1000
0000
0001
0000
0200
0000
0010
0300
0001
0000
1000
0000
0200
0300
,
0001
0000
0100
0000
1000
0000
0001
0000
0200
0300
1000
0000
0100
0000
0001
0000
,
0010
0000
0200
0000
1000
0300
0010
0000
0001
0000
1000
0000
0100
0000
0020
0030
,
1000
0000
0010
0000
0001
0000
0100
0000
0020
0000
1000
0030
0100
0000
0001
1000
,
0010
0000
0100
0001
0000
0000
1000
0000
0200
0010
0300
0000
0020
0000
0001
0000
,
0000
0030
0100
0000
1000
0000
0020
0030
0001
0000
0010
0000
2000
3100
0000
0000
,
0021
0030
0200
0000
1000
0300
0020
0000
0001
0030
0200
1000
0300
1000
0100
0000
,
0010
0000
0001
0000
1000
0000
0020
0030
0001
0000
0010
0000
2000
0000
3100
0000
,
0102
0003
2000
3010
0000
0000
0021
0030
0200
1300
0000
0000
1020
0030
0100
0000
,
0001
0000
0020
0030
1000
0000
0010
0000
0001
0000
0200
0000
0010
0300
0002
0000
,
1003
0000
0110
0000
0101
0110
2010
3000
,
0001
0200
0000
0310
0000
0020
2000
3030
0000
0000
0101
0000
0000
1100
0000
0000
,
0201
0300
0020
0000
1000
0030
0100
0000
0001
0000
1000
0010
0000
0200
0301
0000
,
1200
0300
0010
0000
0001
0000
0100
0000
0010
0000
1000
0000
0200
0300
0001
0000
,
1000
0000
0010
0000
0001
0000
1000
0000
0010
0000
0100
0001
0000
2000
3100
0000
,
0012
0003
1000
0000
0010
0000
0200
0000
0001
0300
0010
0000
1000
0000
0200
0300
,
0001
0000
0100
0000
1000
0000
0001
0000
0010
0000
0100
1000
0000
0002
0103
0000
,
1020
0030
0200
0000
0001
0300
0000
0001
0100
0000
0020
0000
1000
0030
0100
0000
,
0201
0300
0010
0000
1000
0000
0001
0000
0200
0000
0010
0300
0001
0000
1000
0000
,
0100
0000
0010
0000
0001
0000
0100
0000
0010
0000
1000
0000
0200
0300
0002
0000
,
1003
0000
0010
0000
0001
0000
1000
0000
0100
0000
0020
0000
0000
0001
0030
0000
,
0100
0000
0000
1000
0000
0000
0010
0000
0100
0000
0001
0000
0020
0030
1000
0000
,
0010
0000
0001
0000
0100
0000
0010
0000
1000
0000
0001
0000
0000
0020
0000
0000
,
0100
0000
0030
0001
0000
0000
1000
0000
0020
0030
0001
0000
1000
0000
0100
0000
,
0001
0000
0200
0010
0300
0000
0020
0000
1000
0030
0100
0000
0001
0000
0020
0030
,
1000
0000
0010
0000
0001
0000
0200
0300
1000
0000
0100
0000
0001
0000
0020
0000
,
0100
0030
0200
1000
0000
0300
0010
0000
0001
0000
0200
0300
1000
0000
0100
0000
,
0001
0000
0020
0030
1000
0000
0001
0000
0100
0000
1000
0000
0010
0000
0100
0000
,
0001
0000
0010
0000
0100
1000
0000
0000
0002
0010
0003
0000
0020
0100
0030
0000
,
0001
0000
1000
0000
0010
0000
0100
0000
0001
0000
0000
0010
0000
0000
0100
0000
,
1000
0000
0020
0030
0001
0000
0010
0000
1000
0000
0001
0000
0010
0000
0001
0000
,
1000
0000
0200
0000
0010
0300
2000
0000
3001
0000
0110
0000
0000
1001
0000
0000
,
0201
0300
0020
0000
1000
0030
0100
0000
0001
0000
1000
0010
0000
0200
0301
0000
,
1200
0300
0010
0000
0001
0000
0100
0000
0010
0000
1000
0000
0200
0300
0001
0000
,
1000
0000
0010
0000
0001
0000
1000
0000
0010
0000
0100
0001
0000
2000
3100
0000
,
0012
0003
1000
0000
0010
0000
0200
0000
0001
0300
0010
0000
1000
0000
0200
0300
,
0001
0000
0100
0000
1000
0000
0001
0000
0010
0000
0100
1000
0000
0002
0103
0000
,
1020
0030
0200
0000
0001
0300
0000
0001
0100
0000
0020
0000
1000
0030
0100
0000
,
0201
0300
0010
0000
1000
0000
0001
0000
0200
0000
0010
0300
0001
0000
1000
0000
,
0100
0000
0010
0000
0001
0000
0200
0300
2000
0000
3001
0000
0000
0110
0000
0000
,
1200
0300
0020
0000
0001
0030
0100
0000
1000
0000
0001
0010
0000
0200
1300
0000
,
0201
0300
0010
0000
1000
0000
0100
0000
0010
0000
0001
0000
0200
0300
1000
0000
,
0001
0000
0010
0000
1000
0000
0001
0000
0010
0000
0100
1000
0000
0002
0103
0000
,
2010
3000
0001
0000
0010
0000
0200
0000
1000
0300
0010
0000
0001
0000
0200
0300
,
1000
0000
0100
0000
0001
0000
1000
0000
0010
0000
0100
0001
0000
2000
3100
0000
,
0021
0030
0200
0000
1000
0300
0000
1000
0100
0000
0020
0000
0001
0030
0100
0000
,
1200
0300
0010
0000
0001
0000
1000
0000
0200
0000
0010
0300
1000
0000
0001
0000
,
0100
0000
0010
0000
1000
0000
0100
0000
0010
0000
0001
0000
0200
0300
2000
0000
,
3001
0000
0110
0000
1001
0000
0021
0030
0100
0000
2000
0000
3001
0000
0001
0010
,
0000
0000
0200
0000
1000
0300
0010
0000
0001
0000
0200
0300
1000
0000
0100
0000
,
0001
0000
0020
0000
0100
0030
0001
0000
1000
0000
0020
0000
0130
0000
0100
0010
,
0000
0000
1000
0000
0200
0000
0010
0300
1000
0000
0001
0200
0020
0000
0000
0000
,
0330
0000
0000
0000
;
