#TITLE:Herald of Darkness (Video Edit) Part 4;
#SUBTITLE:Ft. Alan Wake and Mr. Door;
#ARTIST:Old Gods of Asgard & Alan Wake 2;
#TITLETRANSLIT:;
#SUBTITLETRANSLIT:;
#ARTISTTRANSLIT:;
#GENRE:;
#CREDIT:RxSteps;
#MUSIC:Herald of Darkness (Video Edit) Part 4.ogg;
#BANNER:Herald of Darkness (Video Edit) Part 4.png;
#BACKGROUND:Herald of Darkness (Video Edit) Part 4-bg.png;
#CDTITLE:cdtitle.png;
#SAMPLESTART:41.782;
#SAMPLELENGTH:26.154;
#SELECTABLE:YES;
#OFFSET:-0.244;
#BPMS:0.000=156.000;
#STOPS:;
#BGCHANGES:0.000=Herald of Darkness (Video Edit) Part 4.avi=1.000=0=0=0=StretchNoLoop====;
#FGCHANGES:;

//--------------- dance-single - RxSteps ----------------
#NOTES:
     dance-single:
     RxSteps:
     Beginner:
     3:
     0,0,0,0,0:
0000
0000
0000
0000
,
0000
0000
0000
0001
,
0000
0000
0000
0000
,
1000
0000
0100
0000
,
0010
0000
0001
0000
,
1000
0000
0001
0000
,
0100
0000
0001
0000
,
0010
0000
0100
0000
,
1000
0000
0100
0000
,
0010
0000
0001
0000
,
2000
0000
3000
0000
,
0002
0000
0003
0000
,
0001
0000
0010
0000
,
0100
0000
1000
0000
,
0100
0000
0010
0000
,
0001
0000
1000
0000
,
0001
0000
0100
0000
,
0010
0000
1000
0000
,
0001
0000
0010
0000
,
0100
0000
0010
0000
,
0002
0000
0000
0000
,
0000
0000
0000
0000
,
0003
0000
0000
0000
,
1000
0000
0000
0000
,
1000
0000
0001
0000
,
0100
0000
0010
0000
,
1000
0000
0100
0000
,
0010
0000
0001
0000
,
1000
0000
0001
0000
,
0100
0000
0010
0000
,
1000
0000
0001
0000
,
0010
0000
0100
0000
,
0020
0000
0030
0000
,
0010
0000
0000
0001
0000
0000
0000
0000
,
0100
0000
0010
0000
,
2000
0000
3000
0000
,
0001
0000
0010
0000
,
0100
0000
0010
0000
,
0001
0000
2000
0000
,
3000
0000
0002
0000
,
0003
0000
0100
0000
,
0010
0000
0000
0000
,
1000
0000
0000
0000
,
0001
0000
0000
0000
,
0200
0000
0300
0000
,
0020
0000
0030
0000
,
1000
0000
0001
0000
,
0010
0000
0100
0000
,
0010
0000
0001
0000
,
0010
0000
0001
0000
,
1000
0000
0010
0000
,
1000
0000
0010
0000
,
0100
0000
0001
0000
,
0010
0000
0100
0000
,
1000
0000
0001
0000
,
0100
0000
0010
0000
,
1000
0000
0100
0000
,
0010
0000
0002
0000
,
0003
0000
0000
2000
,
0000
0000
0000
0000
,
3000
0000
0000
0000
;

//--------------- dance-single - RxSteps ----------------
#NOTES:
     dance-single:
     RxSteps:
     Easy:
     6:
     0,0,0,0,0:
0000
0000
0000
0000
,
0000
0000
0000
1000
,
0000
0001
0000
0001
,
0010
0001
0010
0100
,
1000
0010
1000
0010
,
0200
0300
0002
0003
,
1000
0100
0010
0001
,
0020
0030
0200
0300
,
1000
0001
1000
0001
,
0200
0300
0010
0000
,
0010
1000
0001
0010
,
0200
0300
1000
0000
,
0001
0010
0100
1000
,
0002
0003
0100
0010
,
1000
0100
0010
0001
,
2000
3000
0010
0100
,
0001
0010
0100
1000
,
0002
0003
0010
0100
,
0010
0001
1000
0100
,
0020
0030
0002
0003
,
2000
0000
0000
0000
,
0000
0000
0000
0000
,
0000
0000
3000
0000
,
0002
0000
0003
0000
,
0001
0100
0010
1000
,
0010
0100
0010
1000
,
0001
0010
0100
0010
,
0001
1000
0010
0100
,
0010
0000
2000
0000
0002
3000
0000
0000
,
0010
0003
2000
0000
0010
3000
0001
0000
,
2000
3000
0002
0003
,
0010
0000
0100
0000
,
0010
0001
0100
0010
,
0200
0000
0300
0002
0003
0000
1000
0000
,
0020
0030
0200
0300
,
0020
0000
0000
0000
0030
0000
0000
0000
1000
0000
0000
0000
0002
0003
0000
0000
,
0100
1000
0010
0001
,
0010
1000
0100
0001
,
0010
0000
0100
0000
2000
0000
0000
3000
,
0100
0000
0010
0000
0002
0000
0000
0003
,
1000
0010
0100
0001
,
2000
3000
0000
0002
0003
0000
0100
0000
,
0020
0030
2000
3000
,
0002
0003
0200
0300
,
0010
1000
0001
0100
,
0001
1000
0010
1000
,
0001
0100
0010
1000
,
0100
0010
0002
0003
,
1000
0010
0100
0001
,
1000
0010
0100
0001
,
0010
0100
1000
0001
,
0010
0100
0010
0001
,
0100
0010
1000
0001
,
0100
0010
1000
0010
,
0100
0001
1000
0010
,
0100
0001
1000
0100
,
0010
0001
0010
0100
,
1000
0001
0100
0020
,
0000
0000
0000
0030
0000
0000
2000
0000
,
0002
0000
0000
0000
,
3003
0000
0000
0000
;

//--------------- dance-single - RxSteps ----------------
#NOTES:
     dance-single:
     RxSteps:
     Medium:
     8:
     0,0,0,0,0:
0000
0000
0000
0000
,
0000
0000
0000
0000
0000
0000
0000
0000
0000
0000
0000
0001
0100
0000
0000
0020
,
0000
0000
0000
0000
1000
0000
0000
0000
0000
0000
0030
0000
1000
0000
0000
0010
,
0100
0000
0000
0000
0002
0000
0000
0000
0010
0003
0000
0020
0100
0030
0000
0100
,
1000
0000
0000
0000
0001
0000
0000
0100
0010
0000
0000
0000
1000
0000
0000
0010
,
0100
0000
0000
0000
0001
0000
0000
1000
0010
0000
0000
0000
0100
0000
0000
0000
,
0021
0000
0000
0000
0100
0030
0000
0100
1000
0000
0000
0000
0001
0000
0000
0100
,
0010
0000
0000
0000
1000
0000
0000
0001
0020
0000
0000
0000
0100
0030
0000
0100
,
1000
0000
0000
0001
0010
0000
0000
0100
1000
0000
0000
0001
0020
0000
0000
0000
,
0100
0030
0001
0000
1000
0000
0110
0000
,
2001
3000
0000
0010
0100
0000
0000
0001
1000
0000
0000
0010
0100
0000
0000
0001
,
1000
0000
0000
0000
0020
0000
0000
0100
0030
0000
0000
0100
0010
0000
0000
1000
,
0001
0000
0010
0000
0100
0000
1200
0300
,
0010
0000
0000
0001
0000
0000
0100
0000
0010
0000
0000
2000
3100
0000
0000
0000
,
0021
0030
0100
0000
1000
0000
0201
0300
,
0010
0000
2000
0100
3000
0100
0010
0001
,
1000
0000
0100
0000
0010
0000
0201
0300
,
0010
0000
0000
1000
0010
0000
0000
0100
0001
0000
0000
1000
0010
0000
0000
0000
,
0100
0000
0000
0000
0001
0000
0000
0000
0010
0000
0000
0000
1200
0300
0000
0010
,
0002
0000
0000
0003
0000
0000
0000
1000
0020
0000
0000
0030
0000
0000
0000
0200
,
0002
0000
0000
0000
,
0000
0000
0000
0000
,
0300
0000
0000
0003
,
2000
0000
0000
3000
,
0010
1000
0001
0100
0010
1000
0001
0100
,
0010
1000
0100
0010
0001
0010
0100
1000
,
0001
0010
0001
1000
0010
1000
0001
0010
,
0001
1000
0001
0010
0100
2000
3001
0000
,
0110
0000
2000
0000
0002
3000
0000
0000
,
0010
0003
2000
0000
0010
3000
0001
0000
,
1000
0010
1000
0010
0100
0001
0100
0001
,
0020
0030
0000
0000
1000
0000
0000
0000
0100
0000
0000
0000
0001
0000
0000
0000
,
0010
0000
0002
0000
1000
0000
0020
0003
,
0100
0000
0030
0002
0000
0003
1000
0000
,
0001
0100
0010
1000
0001
0010
0001
1000
,
0010
1000
0001
0010
0100
1000
0002
0003
,
0100
1000
0010
0001
,
0010
1000
0100
0001
,
0010
0000
0200
0000
2300
0000
0M00
3000
,
0100
0000
0020
0000
0032
0000
00M0
0003
,
1000
0001
0100
0010
,
0100
0001
0100
0010
1000
0010
0100
0001
,
1000
0100
0010
0001
1000
0010
0100
0010
,
1000
0001
0010
0100
1000
0100
0010
0001
,
1000
0010
0100
0001
1000
0010
0100
0001
,
0100
0010
1000
0001
0010
0100
1000
0100
,
0010
0100
1000
0010
0100
0001
0010
0100
,
1000
0010
0100
0001
2000
0000
0000
3000
,
0010
1000
0001
0100
0010
0100
0001
0010
,
0001
1000
0010
0100
0010
1000
0001
0010
,
0100
0010
0001
0100
0010
1000
0001
0100
,
0010
1000
0100
0010
0001
0010
0100
1000
,
0010
0100
0001
0010
0100
1000
0001
0100
,
0001
1000
0010
1000
0100
0020
0031
0000
,
1010
0110
0201
0310
,
1200
0000
0310
0000
0011
0000
1200
0300
,
0010
0001
0100
0010
1000
0001
0100
0010
,
1000
0001
0010
0100
0010
0001
0200
0020
,
0000
0000
0330
1001
,
0220
0000
0000
0000
,
0330
0000
0000
0000
;

//--------------- dance-single - RxSteps ----------------
#NOTES:
     dance-single:
     RxSteps:
     Hard:
     9:
     0,0,0,0,0:
0000
0000
0000
0000
,
0000
0000
0000
0000
0000
0000
0000
0000
0000
0000
0000
0001
0100
0000
0000
0020
,
0000
0000
0000
0000
1000
0000
0000
0000
0000
0000
0030
0000
1000
0000
0000
0010
,
0100
0000
0000
0000
0002
0000
0000
0000
0010
0003
0000
0020
0100
0030
0000
0100
,
1000
0000
0000
0000
0001
0000
0000
0100
0010
0000
0000
0000
1000
0000
0000
0010
,
0100
0000
0000
0000
0001
0000
0000
1000
0010
0000
0000
0000
0100
0000
0000
0000
,
0021
0000
0000
0000
0100
0030
0000
0100
1000
0000
0000
0000
0001
0000
0000
0100
,
0010
0000
0000
0000
1000
0000
0000
0001
0020
0000
0000
0000
0100
0030
0000
0100
,
1000
0000
0000
0001
0010
0000
0000
0100
1000
0000
0000
0001
0020
0000
0000
0000
,
0100
0030
0001
0000
1000
0000
0110
0000
,
2001
3000
0000
0010
0100
0000
0000
0001
1000
0000
0000
0010
0100
0000
0000
0001
,
1000
0000
0000
0000
0020
0000
0000
0100
0030
0000
0000
0100
0010
0000
0000
1000
,
0001
0000
0010
0000
0100
0000
1200
0300
,
0010
0000
0000
0001
0000
0000
0100
0000
0010
0000
0000
2000
3100
0000
0000
0000
,
0021
0030
0100
0000
1000
0000
0201
0300
,
0010
0000
2000
0100
3000
0100
0010
0001
,
1000
0000
0100
0000
0010
0000
0201
0300
,
0010
0000
0000
1000
0010
0000
0000
0100
0001
0000
0000
1000
0010
0000
0000
0000
,
0100
0000
0000
0000
0001
0000
0000
0000
0010
0000
0000
0000
1200
0300
0000
0010
,
0002
0000
0000
0003
0000
0000
0000
1000
0020
0000
0000
0030
0000
0000
0000
0200
,
0002
0000
0000
0000
,
0000
0000
0000
0000
,
0300
0000
0000
0003
,
2000
0000
0000
3000
,
0010
1000
0001
0100
0010
1000
0001
0100
,
0010
1000
0100
0010
0001
0100
0010
1000
,
0001
0010
0100
1000
0010
0100
0001
0010
,
0100
1000
0001
0010
0100
2000
3001
0000
,
0110
0000
2000
0000
0002
3000
0000
0000
,
0010
0003
2000
0000
0010
3000
0001
0000
,
1000
0010
1000
0010
0100
0001
0100
0001
,
0020
0030
0000
0000
1000
0000
0000
0000
0100
0000
0000
0000
0001
0000
0000
0000
,
0010
0000
0002
0000
1000
0000
0020
0003
,
0100
0000
0030
0002
0000
0003
1000
0000
,
0001
0100
0010
1000
0100
0010
0001
0100
,
0010
1000
0100
0010
0100
1000
0002
0003
,
0100
1000
0010
0001
,
0010
1000
0100
0001
,
0010
0000
0200
0000
2300
0000
0M00
3000
,
0100
0000
0020
0000
0032
0000
00M0
0003
,
1000
0001
0100
0010
,
0100
0001
0100
0010
1000
0010
0100
0001
,
0010
0100
1000
0010
0100
0001
0010
0100
,
1000
0100
0010
0001
0100
0010
0100
0001
,
1000
0010
0100
0001
1000
0010
0100
0001
,
0100
0000
0010
0000
1000
0000
0001
0000
0010
0000
0100
0000
1000
0000
0200
0300
,
0001
0100
1000
0010
0100
0001
1000
0010
,
0100
0000
0001
0000
0020
0030
2000
0000
0002
0000
3000
0000
0000
0000
0003
0000
,
0100
1000
0001
0100
0010
0100
0001
0010
,
0001
0000
1000
0000
0010
0000
0100
0000
0010
0000
1000
0000
0001
0000
0020
0030
,
1000
0010
0001
0100
0010
1000
0001
0100
,
0010
0000
1000
0000
0100
0000
0010
0000
0001
0000
0100
0000
0020
0030
0001
0000
,
1000
0100
0010
1000
0100
0010
0001
0100
,
0010
0100
0001
1000
0100
0020
0031
0000
,
1010
0110
0201
0310
,
1200
0000
0310
0000
0011
0000
1200
0300
,
0010
0001
0100
0010
1000
0001
0100
0010
,
1000
0000
0001
0000
0010
0000
0100
0000
1000
0000
0020
0030
0002
0000
2000
0000
,
0000
0000
0000
3003
0000
0000
0110
0000
,
2002
0000
0000
0000
,
3003
0000
0000
0000
;
