#TITLE:Herald of Darkness (Video Edit) Part 3;
#SUBTITLE:Ft. Alan Wake and Mr. Door;
#ARTIST:Old Gods of Asgard & Alan Wake 2;
#TITLETRANSLIT:;
#SUBTITLETRANSLIT:;
#ARTISTTRANSLIT:;
#GENRE:;
#CREDIT:RxSteps;
#MUSIC:Herald of Darkness (Video Edit) Part 3.ogg;
#BANNER:Herald of Darkness (Video Edit) Part 3.png;
#BACKGROUND:Herald of Darkness (Video Edit) Part 3-bg.png;
#CDTITLE:cdtitle.png;
#SAMPLESTART:35.931;
#SAMPLELENGTH:21.538;
#SELECTABLE:YES;
#OFFSET:-0.546;
#BPMS:0.000=156.000;
#STOPS:;
#BGCHANGES:0.000=Herald of Darkness (Video Edit) Part 3.avi=1.000=0=0=0=StretchNoLoop====;
#FGCHANGES:;

//--------------- dance-single - RxSteps ----------------
#NOTES:
     dance-single:
     RxSteps:
     Beginner:
     3:
     0,0,0,0,0:
0000
0000
0000
0000
,
0000
0000
0000
0000
,
0000
0000
0000
0000
,
0001
0000
0000
0000
,
1000
0000
0000
0000
,
0010
0000
0000
0000
,
1000
0000
0000
0000
,
0001
0000
0000
0000
,
1000
0000
0000
0000
,
0100
0000
0000
0000
,
0010
0000
0000
0000
,
0001
0000
0000
0000
,
0010
0000
0000
0000
,
0100
0000
0000
0000
,
1000
0000
0000
0000
,
0001
0000
0000
0000
,
1000
0000
0000
0000
,
0010
0000
0000
0000
,
0100
0000
0000
0000
,
0002
0000
0000
0000
,
0003
0000
0000
0000
,
2000
0000
0000
0000
,
3000
0000
0000
0000
,
0020
0000
0000
0000
,
0030
0000
0000
0000
,
0200
0000
0000
0000
,
0300
0000
0000
0000
,
0001
0000
1000
0000
,
0001
0000
1000
0000
,
0001
0000
0100
0000
,
0020
0000
0030
0000
,
1000
0000
0001
0000
,
0200
0000
0300
0000
,
0010
0000
1000
0000
,
0200
0000
0300
0000
,
1000
0000
0001
0000
,
0010
0000
0001
0000
,
1000
0000
0100
0000
,
0020
0000
0030
0000
,
0001
0000
0010
0000
,
0200
0000
0300
0000
,
1000
0000
0001
0000
,
2000
0000
3000
0000
,
0010
0000
0100
0000
,
0001
0000
1000
0000
,
0001
0000
0010
0000
,
0010
0000
0001
0000
,
1000
0000
0100
0000
,
0010
0000
0100
0000
,
2000
0000
3000
0000
,
0002
0000
0003
0000
,
0100
0000
0010
0000
,
1000
0000
0001
0000
,
0001
0000
0100
0000
,
0020
0000
0030
0000
,
1000
0000
0001
0000
,
0100
0000
0010
0000
,
1000
0000
0001
0000
,
0010
0000
0100
0000
,
0020
0000
0030
0000
,
0010
0000
0000
0001
0000
0000
0000
0000
,
0100
0000
0010
0000
,
2000
0000
3000
0000
,
0001
0000
0010
0000
,
0100
0000
0010
0000
,
0001
0000
2000
0000
,
3000
0000
0002
0000
,
0003
0000
0100
0000
,
0010
0000
0000
0000
,
1000
0000
0000
0000
,
0001
0000
0000
0000
,
2000
0000
3000
0000
,
0020
0000
0030
0000
,
0010
0000
0100
0000
,
0001
0000
1000
0000
,
0001
0000
0010
0000
,
0100
0000
0010
0000
,
0001
0000
1000
0000
,
0001
0000
1000
0000
,
1000
0000
0010
0000
,
0100
0000
0001
0000
,
2000
0000
3000
0000
,
0010
0000
0100
0000
,
0001
0000
1000
0000
,
0100
0000
0010
0000
,
0001
0000
0010
0000
,
0100
0000
1000
0000
,
0001
0000
1000
0000
,
0001
0000
1000
0000
,
0020
0000
0030
0000
,
0200
0000
0300
0000
,
0002
0000
0003
0000
,
2000
0000
3000
0000
,
1000
0000
0100
0000
,
0010
0000
0001
0000
,
0001
0000
0100
0000
,
0020
0000
0030
0000
,
1000
0000
0001
0000
,
0200
0000
0300
0000
,
0020
0000
0030
0000
;

//--------------- dance-single - RxSteps ----------------
#NOTES:
     dance-single:
     RxSteps:
     Easy:
     6:
     0,0,0,0,0:
0000
0000
0000
0000
,
0000
0000
0000
0000
,
0000
0000
0000
0000
,
1000
0000
0010
0000
,
1000
0000
0001
0000
,
0010
0000
0001
0000
,
0010
0000
0100
0000
,
1000
0000
0001
0100
,
0001
0000
1000
0000
,
0010
0000
0100
0010
,
0100
0000
0001
0000
,
1000
0000
0100
1000
,
0100
0000
0010
0000
,
0001
0000
1000
0000
,
0010
0000
0100
0000
,
0010
0000
1000
0000
,
0001
0000
0010
0000
,
0100
0000
0010
0001
,
0010
0000
0100
0000
,
2000
0000
3000
0000
,
0002
0000
0003
0000
,
0200
0000
0300
0000
,
0020
0000
0030
0000
,
2000
0000
3000
0000
,
0002
0000
0003
0000
,
0020
0000
0030
0000
,
0001
1000
0001
1000
,
0010
1000
0010
1000
,
0001
0100
0001
0100
,
0010
1000
0001
1000
,
0100
0000
0000
0020
0000
0030
0000
0000
,
0001
0010
0100
1000
,
0001
0000
0000
2000
0000
3000
0000
0000
,
0010
1000
0001
0100
,
0010
0000
0000
2000
0000
3000
0000
0000
,
1000
0001
0100
0010
,
1000
0001
0100
0010
,
1000
0001
0010
0100
,
1000
0000
0000
0002
0000
0003
0000
0000
,
0100
0010
1000
0010
,
0100
0000
0000
0002
0000
0003
0000
0000
,
1000
0100
0010
0001
,
0010
0100
1000
0001
,
0100
0010
1000
0010
,
0100
0001
1000
0010
,
1000
0001
0200
0300
,
0010
0100
0001
1000
,
0020
0030
0200
0300
,
0002
0003
2000
3000
,
0200
0300
0200
0300
,
0020
0030
0020
0030
,
0002
0003
0200
0300
,
0020
0030
2000
3000
,
0002
0003
0200
0300
,
0020
0000
0000
0030
,
0000
0000
2000
0000
0002
3000
0000
0000
,
0010
0003
2000
0000
0010
3000
0001
0000
,
2000
3000
0002
0003
,
0010
0000
0100
0000
,
0010
0001
0100
0010
,
0200
0000
0300
0002
0003
0000
1000
0000
,
0020
0030
0200
0300
,
0020
0000
0000
0000
0030
0000
0000
0000
1000
0000
0000
0000
0002
0003
0000
0000
,
0100
1000
0010
0001
,
0010
1000
0100
0001
,
0010
0000
0100
0000
2000
0000
0000
3000
,
0100
0000
0010
0000
0002
0000
0000
0003
,
1000
0010
0100
0001
,
2000
3000
0000
0002
0003
0000
0100
0000
,
0020
0030
2000
3000
,
0002
0003
0200
0300
,
0020
0000
0030
0000
,
2000
0000
3000
0000
,
0001
0100
0010
0100
,
0001
1000
0100
0010
,
0002
0003
2000
3000
,
0020
0030
0200
0300
,
0001
0100
0010
1000
,
0001
0100
0010
0010
,
0100
0001
1000
0010
,
1000
0001
0100
0010
,
2000
0000
3000
0000
,
0001
0100
0010
0100
,
0001
1000
0001
0010
,
0001
1000
0200
0300
,
1000
0100
0010
0001
,
1000
0100
0010
0001
,
2000
3000
0020
0030
,
0200
0300
0002
0003
,
1000
0001
1000
0001
,
0010
0001
0010
0001
,
1000
0100
0010
0001
,
0010
0100
1000
0001
,
0100
0010
1000
0001
,
0100
0010
2000
3000
,
0001
0010
0100
1000
,
0001
0020
0000
0030
,
0002
0003
2000
3000
,
0010
0000
0020
0030
,
0200
0000
0300
0000
;

//--------------- dance-single - RxSteps ----------------
#NOTES:
     dance-single:
     RxSteps:
     Medium:
     8:
     0,0,0,0,0:
0000
0000
0000
0000
,
0000
0000
0000
0000
,
0000
0000
0000
0000
,
1000
0010
0100
0010
,
1000
0100
0010
0001
,
0100
0010
0100
0001
,
1000
0100
0010
0100
,
1000
0000
0001
0000
0100
0010
0100
0000
,
0001
1000
0010
0100
,
0010
0000
1000
0000
0001
0010
0001
0000
,
1000
0100
0010
0001
,
1000
0000
0010
0000
0100
0001
0100
0000
,
0010
1000
0001
0100
,
0010
1000
0100
0010
,
0001
0100
0010
0100
,
0001
0010
0100
0010
,
0001
0100
0010
1000
,
0001
0000
0010
0000
0100
1000
0100
0000
,
0010
0001
1000
0100
,
0020
0000
0000
0000
0001
0030
0200
0000
,
1000
0000
0000
0300
0010
0000
0001
0000
,
2000
3000
0100
1000
,
0020
0000
0000
0000
0100
0030
1000
0000
,
0002
0000
0000
0000
0010
0003
2000
0000
,
0100
3000
0100
0010
,
0002
0003
0100
0010
,
1000
0010
0100
0001
,
1000
0010
1000
0010
1000
0010
1000
0010
,
1000
0001
0100
0010
1000
0001
0100
0010
,
1000
0010
0100
0001
0100
0010
1000
0001
,
0020
0030
0000
0000
0100
0000
0000
0000
1000
0000
0000
0000
0001
0000
0000
0000
,
1000
0010
0100
0001
1000
0010
1000
0001
,
0200
0300
0000
0000
0010
0000
0000
0000
1000
0000
0000
0000
0001
0000
0000
0000
,
0100
0010
1000
0001
0010
0001
1000
0010
,
0200
0300
0000
0000
0001
0000
0000
0000
0010
0000
0000
0000
0001
0000
0000
0000
,
0100
0010
1000
0100
0010
0100
1000
0001
,
0010
0100
0010
0001
1000
0010
1000
0001
,
0100
0010
1000
0010
0100
0001
0010
0100
,
0020
0030
0000
0000
0001
0000
0000
0000
1000
0000
0000
0000
0010
0000
0000
0000
,
0100
0010
1000
0001
0010
0001
1000
0100
,
0020
0030
0000
0000
0001
0000
0000
0000
0100
0000
0000
0000
0010
0000
0000
0000
,
1000
0100
0010
0001
1000
0100
0010
0100
,
2000
3000
0000
0000
0100
0000
0000
0000
0010
0000
0000
0000
0001
0000
0000
0000
,
0010
0100
1000
0001
0100
0001
1000
0010
,
0100
0010
1000
0001
1000
0010
0100
0001
,
1000
0100
0010
0001
1000
0100
1000
0100
,
0010
0001
0010
0100
1000
0100
0010
0002
,
0100
0003
0100
0002
0010
0003
0010
0200
,
1000
0300
1000
0002
0100
0003
0100
0010
,
1000
0000
0001
0000
0020
0000
0100
0000
0030
0000
0200
0000
,
1000
0000
0300
0000
1000
0000
0020
0000
0000
0030
0000
0000
,
0100
0000
0001
0000
1000
0000
0100
0000
0010
0000
0001
0000
,
1000
0000
0010
0000
0200
0000
0001
0000
0000
0300
0000
0000
,
0001
0000
1000
0000
0100
0000
0010
0000
0100
0000
1000
0000
,
0001
0000
0200
0000
0010
0300
0000
0000
0010
0000
2000
0000
3001
0000
0000
0000
,
0110
0000
2000
0000
0002
3000
0000
0000
,
0010
0003
2000
0000
0010
3000
0001
0000
,
1000
0010
1000
0010
0100
0001
0100
0001
,
0020
0030
0000
0000
1000
0000
0000
0000
0100
0000
0000
0000
0001
0000
0000
0000
,
0010
0000
0002
0000
1000
0000
0020
0003
,
0100
0000
0030
0002
0000
0003
1000
0000
,
0001
0010
0100
0010
0001
1000
0010
0100
,
0001
1000
0001
0100
0010
1000
0002
0003
,
0100
1000
0010
0001
,
0010
1000
0100
0001
,
0010
0000
0200
0000
2300
0000
0M00
3000
,
0100
0000
0020
0000
0032
0000
00M0
0003
,
1000
0001
0100
0010
,
1000
0100
0010
0001
1000
0100
1000
0001
,
0100
0001
1000
0100
0010
0001
1000
0010
,
0100
0001
0100
0010
1000
0020
0130
0000
,
2002
0000
0000
0000
0000
3003
0000
0000
,
0220
0000
0000
0000
0000
0330
0000
0000
,
1000
0200
0010
0300
0010
0002
0100
0003
,
0100
0020
1030
0000
0110
0000
0021
0030
,
0100
2000
0010
3000
0010
0200
0001
0300
,
0001
0020
0100
0030
0100
2000
0001
3000
,
0001
0100
0010
0100
0001
1000
0001
0100
,
0010
1000
0001
0200
0010
0300
0010
0100
,
0001
1000
0100
0010
0001
1000
0010
1000
,
0001
0010
0001
0100
0010
1000
0001
0010
,
0200
0000
1000
0300
0010
0000
0001
0000
,
0100
0010
1000
0010
0100
0001
1000
0010
,
0100
0001
1000
0001
0010
0100
0010
0001
,
1000
0010
1000
0002
0010
0000
0003
0000
,
0010
0001
1000
0100
0010
0001
1000
0100
,
0010
0001
0010
0100
0010
0001
1000
0010
,
0100
0010
1000
0100
0010
0100
1000
0010
,
0100
0010
1000
0002
0013
0000
1100
0000
,
0201
0310
1200
0310
,
0021
0130
1020
0230
,
0301
1010
0011
0110
,
1001
0000
1100
0000
0110
0000
0021
0030
,
0100
1000
0100
0010
0001
0010
0100
0010
,
0001
1000
0100
0020
0001
0030
0001
0010
,
0100
1000
0001
0010
0100
1000
0001
0100
,
0010
0000
2000
0000
3000
0000
0010
0000
0000
0200
0000
0000
0300
0000
0000
0000
,
0011
0000
1010
0000
1100
0000
0021
0030
,
0200
0000
0000
0000
0000
0000
1000
0000
0000
0300
0000
0000
0010
0000
0000
0000
0001
0000
0000
0000
0020
0000
0000
0000
,
0002
0000
0033
0000
;

//--------------- dance-single - RxSteps ----------------
#NOTES:
     dance-single:
     RxSteps:
     Hard:
     9:
     0,0,0,0,0:
0000
0000
0000
0000
,
0000
0000
0000
0000
,
0000
0000
0000
0000
,
1000
0010
0100
0010
,
1000
0100
0010
0001
,
0100
0010
0100
0001
,
1000
0100
0010
0100
,
1000
0000
0001
0000
0100
0010
1000
0000
,
0001
0010
0100
0010
,
0001
0000
1000
0000
0010
0100
0001
0000
,
0010
0100
0010
0001
,
1000
0000
0010
0000
0100
0001
0010
0000
,
0100
1000
0001
0100
,
0010
1000
0100
0010
,
0001
0100
0010
0100
,
0001
0010
0100
0010
,
0001
0100
0010
1000
,
0001
0000
0010
0000
0100
1000
0010
0000
,
0100
0001
1000
0100
,
0020
0000
0000
0000
0001
0030
0200
0000
,
1000
0000
0000
0300
0010
0000
0001
0000
,
2000
3000
0100
1000
,
0020
0000
0000
0000
0100
0030
1000
0000
,
0002
0000
0000
0000
0010
0003
2000
0000
,
0100
3000
0100
0010
,
0002
0003
0100
0010
,
1000
0010
0100
0001
,
1000
0010
1000
0010
1000
0010
1000
0010
,
1000
0001
0100
0010
1000
0001
0100
0010
,
1000
0010
0100
0001
0100
0010
1000
0100
,
0010
0100
1000
0100
0010
0100
1000
0001
,
0100
0010
0100
0001
1000
0010
0100
0001
,
0010
0100
1000
0100
0010
0001
1000
0100
,
0010
0100
1000
0010
0100
0001
0100
0010
,
1000
0100
0010
0001
1000
0100
0010
0001
,
0100
0010
1000
0100
0010
0100
1000
0001
,
0010
0100
0010
0001
1000
0010
1000
0001
,
0100
0010
1000
0010
0100
0001
0010
0100
,
0010
0001
1000
0100
0010
0100
1000
0001
,
0100
0010
1000
0001
0010
0001
1000
0100
,
1000
0010
0100
0010
1000
0001
0100
0010
,
1000
0100
0010
0001
1000
0100
0010
0100
,
1000
0001
0100
0010
0100
0001
1000
0010
,
0100
0010
1000
0001
0100
0001
1000
0010
,
0100
0010
1000
0001
1000
0010
0100
0001
,
1000
0100
0010
0001
1000
0100
1000
0100
,
0010
0001
0100
0010
1000
0100
0010
0002
,
0100
0003
0100
0002
0010
0003
0010
0200
,
1000
0300
1000
0002
0100
0003
0100
0010
,
1000
0000
0001
0000
0020
0000
0100
0000
0030
0000
0200
0000
,
1000
0000
0300
0000
1000
0000
0020
0000
0000
0030
0000
0000
,
0100
0000
0001
0000
1000
0000
0100
0000
0010
0000
0001
0000
,
1000
0000
0010
0000
0200
0000
0001
0000
0000
0300
0000
0000
,
0001
0000
1000
0000
0100
0000
0010
0000
0100
0000
1000
0000
,
0001
0000
0200
0000
0010
0300
0000
0000
0010
0000
2000
0000
3001
0000
0000
0000
,
0110
0000
2000
0000
0002
3000
0000
0000
,
0010
0003
2000
0000
0010
3000
0001
0000
,
1000
0010
1000
0010
0100
0001
0100
0001
,
0020
0030
0000
0000
1000
0000
0000
0000
0100
0000
0000
0000
0001
0000
0000
0000
,
0010
0000
0002
0000
1000
0000
0020
0003
,
0100
0000
0030
0002
0000
0003
1000
0000
,
0001
0010
0100
0010
0001
0100
0010
1000
,
0010
0100
0001
0010
0100
1000
0002
0003
,
0100
1000
0010
0001
,
0010
1000
0100
0001
,
0010
0000
0200
0000
2300
0000
0M00
3000
,
0100
0000
0020
0000
0032
0000
00M0
0003
,
1000
0001
0100
0010
,
1000
0100
0010
0001
1000
0100
1000
0001
,
0100
0001
1000
0010
0100
0001
0010
0100
,
1000
0100
0010
0001
1000
0020
0130
0000
,
2002
0000
0000
0000
0000
3003
0000
0000
,
0220
0000
0000
0000
0000
0330
0000
0000
,
1000
0200
0010
0300
0010
0002
0100
0003
,
0100
0020
1030
0000
0110
0000
0021
0030
,
0100
2000
0010
3000
0010
0200
0001
0300
,
0001
0020
0100
0030
0100
2000
0001
3000
,
0001
1000
0010
0100
0001
0010
0001
0100
,
0010
1000
0001
0200
1000
0300
1000
0100
,
0001
0010
0100
0010
0001
0100
0010
1000
,
0100
0000
0010
0000
0001
0000
0200
0300
1000
0000
0001
0000
0010
0000
1000
0000
,
0200
0000
0010
0300
1000
0000
0001
0000
,
0100
0010
1000
0010
0100
0001
0010
0100
,
1000
0010
0100
0001
0010
0100
0010
0001
,
1000
0010
0100
0002
0010
0000
0003
0000
,
0010
0001
1000
0100
0010
0001
1000
0100
,
0010
0000
0001
0000
0010
0000
0100
0000
0010
0000
0001
0000
1000
0000
0020
0030
,
0001
0000
0010
0000
1000
0000
0200
0300
0001
0000
0100
0000
1000
0000
0020
0030
,
0001
1000
0100
0002
0013
0000
1100
0000
,
0201
0310
1200
0310
,
0021
0130
1020
0230
,
0301
1010
0011
0110
,
1001
0000
1100
0000
0110
0000
0021
0030
,
0100
1000
0010
0100
0001
0010
0001
0100
,
0010
1000
0100
0020
0001
0030
0001
0010
,
0100
1000
0001
0010
0100
1000
0001
0100
,
0010
0000
2000
0000
3000
0000
0010
0000
0000
0200
0000
0000
0300
0000
0000
0000
,
0001
0010
0200
1000
0300
0000
1000
0100
0020
0001
0030
0000
,
0001
0100
0010
1000
0010
0100
0001
0000
0200
0000
0301
0000
,
2200
0000
3300
0000
;
