#TITLE:Herald of Darkness (Video Edit) Chorus Practice;
#SUBTITLE:Ft. Alan Wake and Mr. Door;
#ARTIST:Old Gods of Asgard & Alan Wake 2;
#TITLETRANSLIT:;
#SUBTITLETRANSLIT:;
#ARTISTTRANSLIT:;
#GENRE:;
#CREDIT:;
#MUSIC:Herald of Darkness (Video Edit) Chorus Practice.ogg;
#BANNER:Herald of Darkness (Video Edit) Chorus Practice.png;
#BACKGROUND:Herald of Darkness (Video Edit) Chorus Practice-bg.png;
#CDTITLE:cdtitle.png;
#SAMPLESTART:4.701;
#SAMPLELENGTH:26.154;
#SELECTABLE:YES;
#OFFSET:-3.163;
#BPMS:0.000=156.000;
#STOPS:;
#BGCHANGES:0.000=Herald of Darkness (Video Edit) Chorus Practice.avi=1.000=0=0=0=StretchNoLoop====;
#FGCHANGES:;

//--------------- dance-single - RxSteps ----------------
#NOTES:
     dance-single:
     RxSteps:
     Beginner:
     3:
     0,0,0,0,0:
0000
0000
0000
0000
,
0000
0000
0000
0000
,
1000
0000
0001
0000
,
0100
0000
0010
0000
,
1000
0000
0001
0000
,
0010
0000
0100
0000
,
0020
0000
0030
0000
,
0010
0000
0000
0001
0000
0000
0000
0000
,
0100
0000
0010
0000
,
2000
0000
3000
0000
,
0001
0000
0010
0000
,
0100
0000
0010
0000
,
0001
0000
2000
0000
,
3000
0000
0002
0000
,
0003
0000
0100
0000
,
0010
0000
0000
0000
,
1000
0000
0000
0000
,
0001
0000
0000
0000
,
1000
0000
0000
0000
;

//--------------- dance-single - RxSteps ----------------
#NOTES:
     dance-single:
     RxSteps:
     Easy:
     6:
     0,0,0,0,0:
0000
0000
0000
0000
,
0000
0000
0000
0000
,
0000
0000
2000
0000
0002
3000
0000
0000
,
0010
0003
2000
0000
0010
3000
0001
0000
,
2000
3000
0002
0003
,
0010
0000
0100
0000
,
0010
0001
0100
0010
,
0200
0000
0300
0002
0003
0000
1000
0000
,
0020
0030
0200
0300
,
0020
0000
0000
0000
0030
0000
0000
0000
1000
0000
0000
0000
0002
0003
0000
0000
,
0100
1000
0010
0001
,
0010
1000
0100
0001
,
0010
0000
0100
0000
2000
0000
0000
3000
,
0100
0000
0010
0000
0002
0000
0000
0003
,
1000
0010
0100
0001
,
2000
3000
0000
0002
0003
0000
0100
0000
,
0020
0030
2000
3000
,
0002
0003
0200
0300
,
0010
0000
0000
0000
;

//--------------- dance-single - RxSteps ----------------
#NOTES:
     dance-single:
     RxSteps:
     Medium:
     8:
     0,0,0,0,0:
0000
0000
0000
0000
,
0000
0000
0000
1001
,
0110
0000
2000
0000
0002
3000
0000
0000
,
0010
0003
2000
0000
0010
3000
0001
0000
,
1000
0010
1000
0010
0100
0001
0100
0001
,
0020
0030
0000
0000
1000
0000
0000
0000
0100
0000
0000
0000
0001
0000
0000
0000
,
0010
0000
0002
0000
1000
0000
0020
0003
,
0100
0000
0030
0002
0000
0003
1000
0000
,
0001
0100
0010
1000
0100
0010
0001
1000
,
0010
0100
0001
0100
0010
1000
0002
0003
,
0100
1000
0010
0001
,
0010
1000
0100
0001
,
0010
0000
0200
0000
2300
0000
0M00
3000
,
0100
0000
0020
0000
0032
0000
00M0
0003
,
1000
0010
0100
0001
,
2000
3000
0000
0002
0003
0000
0100
0000
,
0010
0100
0010
0100
0001
1000
0001
1000
,
0010
0100
0010
0100
0001
1000
0002
0003
,
1000
0000
0000
0000
;

//--------------- dance-single - RxSteps ----------------
#NOTES:
     dance-single:
     RxSteps:
     Hard:
     9:
     0,0,0,0,0:
0000
0000
0000
0000
,
0000
0000
0000
1001
,
0110
0000
2000
0000
0002
3000
0000
0000
,
0010
0003
2000
0000
0010
3000
0001
0000
,
1000
0010
1000
0010
0100
0001
0100
0001
,
0020
0030
0000
0000
1000
0000
0000
0000
0100
0000
0000
0000
0001
0000
0000
0000
,
0010
0000
0002
0000
1000
0000
0020
0003
,
0100
0000
0030
0002
0000
0003
1000
0000
,
0001
0100
0010
1000
0100
0010
0001
1000
,
0010
0100
0001
0100
0010
1000
0002
0003
,
0100
1000
0010
0001
,
0010
1000
0100
0001
,
0010
0000
0200
0000
2300
0000
0M00
3000
,
0100
0000
0020
0000
0032
0000
00M0
0003
,
1000
0001
0100
0010
,
0100
0001
1000
0010
0100
0010
0100
0001
,
0010
0100
1000
0010
0100
0001
0010
0100
,
1000
0001
0010
0100
0010
0001
2000
3000
,
0001
0000
0000
0000
;
