#TITLE:Derre;
#SUBTITLE:;
#ARTIST:BIBI;
#TITLETRANSLIT:;
#SUBTITLETRANSLIT:;
#ARTISTTRANSLIT:;
#GENRE:;
#CREDIT:RxSteps;
#MUSIC:Derre.ogg;
#BANNER:Derre.png;
#BACKGROUND:Derre-bg.png;
#CDTITLE:cdtitle.png;
#SAMPLESTART:46.314;
#SAMPLELENGTH:26.880;
#SELECTABLE:YES;
#OFFSET:1.686;
#BPMS:0.000=125.000;
#STOPS:;
#BGCHANGES:;
#FGCHANGES:;

//--------------- dance-single - RxSteps ----------------
#NOTES:
     dance-single:
     RxSteps:
     Beginner:
     3:
     0,0,0,0,0:
0000
0000
0000
0000
,
0001
0000
0000
0000
,
1000
0000
0000
0000
,
0010
0000
0000
0000
,
0100
0000
0000
0000
,
0001
0000
0000
0000
,
0010
0000
0000
0000
,
0100
0000
0000
0000
,
1000
0000
0000
0000
,
0001
0000
0100
0000
,
0001
0000
1000
0000
,
0100
0000
1000
0000
,
0002
0000
0003
0000
,
1000
0000
0010
0000
,
0100
0000
0001
0000
,
0010
0000
0001
0000
,
2000
0000
3000
0000
,
0001
0000
0010
0000
,
0100
0000
0100
0000
,
1000
0000
0000
0000
0010
0000
0000
0200
,
0000
0000
0300
0000
,
0001
0000
1000
0000
,
0010
0000
0100
0000
,
0001
0000
0000
0000
1000
0000
0000
0200
,
0000
0000
0300
0000
,
1000
0000
0001
0000
,
0100
0000
0100
0000
,
0001
0000
1000
0000
,
0010
0000
0010
0000
,
0100
0000
0001
0000
,
1000
0000
0100
0000
,
0020
0000
0030
0000
,
0002
0000
0003
0000
,
1000
0000
0010
0000
,
0100
0000
0010
0000
,
1000
0000
0100
0000
,
0010
0000
0001
0000
,
0001
0000
1000
0000
,
0100
0000
1000
0000
,
0010
0000
0100
0000
,
0001
0000
1000
0000
,
1000
0000
0010
0000
,
0100
0000
0001
0000
,
0010
0000
0000
0000
0100
0000
0000
2000
,
0000
0000
3000
0000
,
0001
0000
1000
0000
,
0010
0000
1000
0000
,
0001
0000
0000
0000
0010
0000
0000
0002
,
0000
0000
0003
0000
,
1000
0000
0010
0000
,
0100
0000
0100
0000
,
0001
0000
1000
0000
,
0010
0000
0010
0000
,
0100
0000
0001
0000
,
0010
0000
0100
0000
,
2000
0000
3000
0000
,
0002
0000
0003
0000
,
1000
0000
0100
0000
,
1000
0000
1000
0000
,
0010
0000
0100
0000
,
0001
0000
0001
0000
,
1000
0000
0100
0000
,
0010
0000
0100
0000
,
1000
0000
0001
0000
,
1000
0000
0010
0000
,
0200
0000
0300
0000
,
0001
0000
0010
0000
,
0001
0000
1000
0000
,
0001
0000
0000
1000
,
1000
0000
0010
0000
,
0100
0000
0001
0000
,
1000
0000
0001
0000
,
0010
0000
0100
0000
,
0100
0000
1000
0000
,
0001
0000
1000
0000
,
0010
0000
0100
0000
,
0001
0000
1000
0000
,
0001
0000
0010
0000
,
0100
0000
1000
0000
,
0001
0000
1000
0000
,
0010
0000
0200
0000
,
0300
0000
0000
0000
;

//--------------- dance-single - RxSteps ----------------
#NOTES:
     dance-single:
     RxSteps:
     Easy:
     6:
     0,0,0,0,0:
0000
0000
0000
0000
,
0001
0000
0000
1000
0000
0000
0010
0000
,
0100
0000
0000
0001
0000
0000
0000
1000
,
0100
1000
0001
0100
,
0010
0000
0000
1000
0000
0000
0001
0000
,
0100
0000
0000
0010
0000
0000
1000
0000
,
0001
0000
0000
0010
0000
0000
0000
0001
,
1000
0010
0100
0001
,
0010
0000
0000
0100
0000
0000
1000
0000
,
0001
1000
0010
0010
,
0100
0001
1000
1000
,
0100
0100
0010
0010
,
0001
2000
3000
0010
,
0100
0001
1000
1000
,
0010
0100
0001
0001
,
0010
0010
0100
0100
,
1000
0002
0003
0100
,
0010
1000
0001
0010
,
0001
1000
0100
1000
,
0001
0010
0100
2000
,
0000
3000
0001
0100
,
0001
0001
1000
0010
,
0100
0001
0010
0010
,
0001
1000
0100
0020
,
0000
0030
0001
1000
,
0001
0100
0010
1000
,
0001
1000
0001
0000
1000
0000
0010
0000
,
0100
0001
0010
0001
,
1000
0100
1000
0000
0001
0000
0100
0000
,
0010
1000
0001
0100
,
0010
1000
0100
0010
,
0002
0000
0003
1000
,
0010
0200
0000
0300
,
0001
1000
0200
0300
,
0100
1000
0002
0003
,
0100
0010
0200
0300
,
0001
0010
0010
0001
,
1000
0010
0100
0010
,
1000
0001
0010
0001
,
2000
3000
0020
0030
,
0100
0001
2000
3000
,
0001
0100
0010
0010
,
0100
0001
1000
0001
,
0010
0100
1000
0002
,
0000
0003
0100
0001
,
1000
0100
1000
0001
,
0010
0001
1000
0010
,
0100
0001
0100
0020
,
0000
0030
1000
0001
,
1000
0010
0100
0001
,
1000
0001
1000
0000
0001
0000
0100
0000
,
0010
1000
0100
1000
,
0001
0010
0001
0000
1000
0000
0010
0000
,
0100
0001
1000
0010
,
0100
0001
0010
0100
,
2000
0000
3000
0001
,
0100
0020
0000
0030
,
1000
0001
0020
0030
,
0010
0001
1000
0010
,
0100
0010
2000
3000
,
0001
0100
0100
0001
,
1000
0010
0100
0001
,
1000
0100
0010
0001
,
1000
0010
1000
0001
,
0100
0000
0010
0000
1000
0020
0030
0000
,
0100
0001
0020
0030
,
0001
1000
0020
0030
,
0100
0001
2000
3000
,
0001
0010
0100
0100
,
1000
0001
2000
3000
,
0010
0100
0002
0003
,
1000
0010
0200
0300
,
0001
0000
1000
0000
0010
0000
0000
0100
,
0010
0000
0000
1000
0000
0000
0001
0000
,
0010
0000
0000
0001
0000
0000
0000
1000
,
0010
0100
0001
1000
,
0010
0000
0000
0100
0000
0000
0010
0000
,
1000
0000
0000
0001
0000
0000
0010
0000
,
0001
0000
0000
1000
0000
0000
0000
0010
,
0100
0001
1000
0100
,
0010
0000
0000
0001
0000
0000
2000
0000
,
3000
0000
0000
0000
;

//--------------- dance-single - RxSteps ----------------
#NOTES:
     dance-single:
     RxSteps:
     Medium:
     8:
     0,0,0,0,0:
0000
0000
0000
0000
,
0001
0000
0000
2000
0010
3000
0010
0100
,
0002
0010
0003
0010
0200
0000
0300
1000
,
0010
0100
0001
0010
0200
0300
1000
0001
,
0200
0010
0300
0020
1000
0030
1000
0100
,
0010
0002
0003
0100
0020
0030
1000
0001
,
0020
0000
0100
0000
0030
0000
0200
0000
1000
0000
0000
0300
0000
0000
1000
0000
,
0010
0100
0001
1000
0020
0030
0100
0001
,
2000
0100
3000
0100
0020
0030
0001
1000
,
0010
0100
0010
2000
0100
3000
0100
0010
,
0001
1000
0010
0200
0001
0300
0001
1000
,
0200
0300
1000
0010
0200
0300
0001
0020
,
0100
0030
0002
0003
1000
0010
0100
0001
,
0010
0001
0100
0010
2000
3000
0001
0100
,
0010
0100
0001
2000
0100
3000
0100
1000
,
0020
0030
0100
0001
0020
0030
0001
0200
,
0010
0000
0300
0000
0002
0000
0003
0000
1000
0000
0000
0010
0100
0000
0001
0000
,
0010
0000
0000
0001
1000
0000
0010
0000
0200
0000
0300
0000
0001
0000
1000
0000
,
0100
0000
0020
0000
0001
0030
0100
0000
2000
0000
3000
0000
0010
0000
0100
0000
,
0001
0100
0010
1000
0100
0010
0001
0200
,
0300
0020
0000
0030
1000
0000
0001
0200
,
0010
0300
0010
1000
0100
0010
0100
1000
,
0002
0000
0100
0003
2000
3000
0020
0000
0100
0000
0030
0000
0100
0000
0001
0000
,
1000
0100
0010
0100
1000
0010
0100
0002
,
0000
2000
3003
0000
0110
0000
1001
0000
,
1000
0100
0010
0100
1000
0001
0100
0001
,
1000
0100
0010
0001
1000
0010
1000
0001
,
0010
0001
1000
0010
0100
0001
0010
0100
,
1000
0001
0100
0001
1000
0010
0100
0001
,
0020
0000
0100
0030
0001
0000
1000
0000
0010
0000
0100
0000
0001
0000
1000
0000
,
0100
0010
0001
0010
0100
1000
0001
0100
,
0020
0000
1000
0030
0200
0300
0001
1000
,
0200
0300
1000
0020
0200
0000
0330
0000
,
1200
0300
0010
0000
0001
0000
1000
0000
0020
0000
0100
0000
0030
0000
0100
0000
,
0001
0000
0020
0000
0100
0030
0001
0000
1000
0000
0020
0000
0130
0000
0000
0000
,
0021
0030
0100
0000
1000
0000
0001
0000
0100
0000
0020
0000
0030
0000
1000
0000
,
0200
0000
0010
0300
1000
0000
0001
0000
0200
0000
0010
0000
0301
0000
0000
0000
,
1020
0030
0100
0000
0001
0000
2000
0000
0010
3000
0002
0003
0010
0000
0100
0000
,
1000
0010
0100
0010
1000
0200
0010
0300
,
0010
0000
0100
0000
1000
0000
0001
0000
0200
0000
0010
0300
0001
0000
1000
0000
,
0100
0010
0001
1000
0010
0100
0001
1000
,
0200
0000
0010
0300
1000
0000
0002
0000
0100
0000
0003
0000
0100
0000
0001
0000
,
2000
0000
0100
3000
0002
0003
0020
0000
0100
0000
0030
0000
0100
0000
1000
0000
,
0001
0100
0010
0100
0001
1000
0010
0200
,
0300
0000
0002
0000
0000
0000
0003
0000
1000
0000
0000
0001
0100
0000
0010
0000
,
2000
3000
0100
0010
0001
1000
0010
0100
,
0002
0000
0010
0003
2000
3000
0200
0000
0010
0000
0300
0000
0010
0000
0100
0000
,
1000
0001
0100
0010
0100
0001
0010
0200
,
0000
2000
3300
0000
0101
0000
1100
0000
,
0001
0010
0100
0010
0001
1000
0010
0100
,
0001
0010
0100
1000
0001
0100
0001
1000
,
0100
1000
0010
0100
0001
1000
0100
1000
,
0001
0100
0010
1000
0001
0100
0010
1000
,
0200
0000
0010
0300
1000
0000
0001
0000
0100
0000
0010
0000
1000
0000
0001
0000
,
0010
0100
1000
0100
0010
0001
1000
0010
,
0200
0000
0001
0300
0020
0030
1000
0001
,
0020
0030
0001
0100
0020
0030
1000
0100
,
0010
0100
1000
0001
0200
0010
0300
0010
,
1000
0200
0310
0000
0101
0000
1020
0030
,
0100
0001
1000
0010
0200
0001
0300
0001
,
1000
0100
0010
0100
1000
0001
0200
0300
,
0010
0000
1000
0000
0001
0000
0020
0000
0100
0030
0001
0000
1000
0000
0010
0000
,
1000
0100
0010
0100
1000
0020
0100
0030
,
0100
0000
0001
0000
0010
0000
0200
0000
1000
0300
0010
0000
0001
0000
1000
0000
,
0001
0100
0010
1000
0001
0010
0001
1000
,
0010
0000
1000
0000
0001
0000
0100
0000
0010
1000
0000
0002
0003
0000
0020
0000
,
0100
0030
0001
0000
1000
0000
0010
0000
0100
0001
0000
2000
3000
0000
0200
0000
,
0010
0300
2000
0000
0001
3000
0100
0000
1000
0001
0000
0200
0300
0000
0010
0000
,
1000
0100
0010
0002
1003
0000
0110
0000
,
2001
3000
0100
0000
0010
0000
0100
0000
1000
0001
0000
0200
0300
0000
0001
0000
,
0020
0000
0100
0030
0001
0000
1000
0000
0010
0100
0000
0002
0003
0000
0020
0000
,
0100
0030
0002
0000
1000
0003
0010
0000
0001
1000
0000
0020
0030
0000
0100
0000
,
0001
0000
0010
0000
0100
0000
1000
0000
0002
0000
0103
0000
0000
0000
1200
0300
,
0010
0001
1000
0010
0100
0010
1000
0001
,
0010
0002
1003
0000
0110
0000
1001
0000
,
0021
0030
0100
0000
1000
0000
0020
0000
0100
0000
0030
0000
0100
0000
0001
0000
,
0010
0200
1300
0000
0101
0000
1020
0030
,
0100
0002
0003
2000
0100
3000
0100
1000
,
0010
0200
0300
0001
0020
0000
0030
0001
,
1000
0010
0100
0001
0020
0030
0100
1000
,
0001
0200
0300
0010
2000
3000
0200
0020
,
0330
0000
0000
0000
;

//--------------- dance-single - RxSteps ----------------
#NOTES:
     dance-single:
     RxSteps:
     Hard:
     9:
     0,0,0,0,0:
0000
0000
0000
0000
,
0001
0000
0000
2000
0010
3000
0010
0100
,
0002
0010
0003
0010
0200
0000
0300
1000
,
0010
0100
0001
0010
0200
0300
1000
0001
,
0200
0010
0300
0020
1000
0030
1000
0100
,
0010
0002
0003
0100
0020
0030
1000
0001
,
0020
0000
0100
0000
0030
0000
0200
0000
1000
0000
0000
0300
0000
0000
1000
0000
,
0010
0100
0001
1000
0020
0030
0100
0001
,
2000
0100
3000
0100
0020
0030
0001
1000
,
0010
0100
0010
2000
0100
3000
0100
0010
,
0001
1000
0010
0200
0001
0300
0001
1000
,
0200
0300
1000
0010
0200
0300
0001
0020
,
0100
0030
0002
0003
1000
0010
0100
0001
,
0010
0000
0001
0000
0100
0000
0010
0000
2000
0000
3000
0000
0001
0000
0200
0300
,
1000
0100
0001
2000
0100
3000
0100
1000
,
0020
0030
0100
0001
0020
0030
0001
0200
,
0010
0000
0300
0000
0002
0000
0003
0000
1000
0000
0000
0010
0100
0000
0001
0000
,
0010
0000
0000
0001
1000
0000
0010
0000
0200
0000
0300
0000
0001
0000
1000
0000
,
0100
0000
0020
0000
0001
0030
0100
0000
2000
0000
3000
0000
0010
0000
0100
0000
,
0001
0100
0010
1000
0100
0010
0001
0200
,
0300
0020
0000
0030
1000
0000
0001
0200
,
0010
0300
0010
1000
0100
0010
0100
1000
,
0002
0000
0100
0003
2000
3000
0020
0000
0100
0000
0030
0000
0100
0000
0001
0000
,
1000
0000
0200
0300
0001
0000
0100
0000
1000
0000
0010
0000
0100
0000
0002
0000
,
0000
2000
3003
0000
0110
0000
1001
0000
,
1000
0010
0100
0000
0001
0000
0100
0000
0010
1000
0001
0000
0100
0000
0010
0000
,
1000
0000
0100
0000
0010
0000
0001
0000
1000
0000
0010
0100
0001
0000
0010
0000
,
0100
0000
0010
0001
1000
0000
0010
0000
0100
0001
1000
0001
0100
0000
0010
0000
,
1000
0000
0200
0300
0001
0000
0100
0000
1000
0000
0010
0000
0100
0000
0001
0000
,
0020
0000
0100
0030
0001
0000
1000
0000
0010
0000
0100
0000
0001
0000
1000
0000
,
0100
0010
0001
0010
0100
1000
0001
0100
,
0020
0000
1000
0030
0200
0300
0001
1000
,
0200
0300
1000
0020
0200
0000
0330
0000
,
1200
0300
0010
0000
0001
0000
1000
0000
0020
0000
0100
0000
0030
0000
0100
0000
,
0001
0000
0020
0000
0100
0030
0001
0000
1000
0000
0020
0000
0130
0000
0000
0000
,
0021
0030
0100
0000
1000
0000
0001
0000
0100
0000
0020
0000
0030
0000
1000
0000
,
0200
0000
0010
0300
1000
0000
0001
0000
0200
0000
0010
0000
0301
0000
0000
0000
,
1020
0030
0100
0000
0001
0000
2000
0000
0010
3000
0002
0003
0010
0000
0100
0000
,
1000
0000
0020
0030
0001
0000
0010
0000
1000
0000
0200
0000
0010
0000
0300
0000
,
0010
0000
0100
0000
1000
0000
0001
0000
0200
0000
0010
0300
0001
0000
1000
0000
,
0100
0010
0001
1000
0010
0100
0001
1000
,
0200
0000
0010
0300
1000
0000
0002
0000
0100
0000
0003
0000
0100
0000
0001
0000
,
2000
0000
0100
3000
0002
0003
0020
0000
0100
0000
0030
0000
0100
0000
1000
0000
,
0001
0000
0200
0300
1000
0000
0100
0000
0001
0000
1000
0000
0010
0000
0200
0000
,
0300
0000
0002
0000
0000
0000
0003
0000
1000
0000
0000
0001
0100
0000
0010
0000
,
2000
3000
0100
0010
0001
1000
0010
0100
,
0002
0000
0010
0003
2000
3000
0200
0000
0010
0000
0300
0000
0010
0000
0100
0000
,
1000
0000
0020
0030
0001
0000
0010
0000
1000
0000
0001
0000
0010
0000
0200
0000
,
0000
2000
3300
0000
0101
0000
1100
0000
,
0001
0100
0010
0000
1000
0000
0010
0000
0100
0001
1000
0000
0010
0000
0100
0000
,
0001
0000
0010
0000
0100
0000
1000
0000
0001
0000
0100
0010
1000
0000
0100
0000
,
0010
0000
0100
1000
0001
0000
0100
0000
0010
1000
0001
1000
0010
0000
0100
0000
,
0001
0000
0020
0030
1000
0000
0010
0000
0001
0000
0100
0000
0010
0000
1000
0000
,
0200
0000
0010
0300
1000
0000
0001
0000
0100
0000
0010
0000
1000
0000
0001
0000
,
0010
0100
1000
0100
0010
0001
1000
0010
,
0200
0000
0001
0300
0020
0030
1000
0001
,
0020
0030
0001
0100
0020
0030
1000
0100
,
0010
0100
1000
0001
0200
0010
0300
0010
,
1000
0200
0310
0000
0101
0000
1020
0030
,
0100
0001
1000
0010
0200
0001
0300
0001
,
1000
0000
0200
0300
0001
0000
0100
0000
1000
0000
0001
0000
0200
0000
0300
0000
,
0010
0000
1000
0000
0001
0000
0020
0000
0100
0030
0001
0000
1000
0000
0010
0000
,
1000
0000
0200
0300
0001
0000
0100
0000
1000
0000
0020
0000
0100
0000
0030
0000
,
0100
0000
0001
0000
0010
0000
0200
0000
1000
0300
0010
0000
0001
0000
1000
0000
,
0001
0000
0100
0000
0010
0000
1000
0000
0200
0300
0001
0000
0100
0000
1000
0000
,
0010
0000
1000
0000
0001
0000
0100
0000
0010
1000
0000
0200
0300
0000
0020
0000
,
0001
0030
0100
0000
1000
0000
0010
0000
0100
0001
0000
0020
0030
0000
0200
0000
,
1000
0300
0020
0000
0001
0030
0100
0000
1000
0001
0000
0200
0300
0000
0010
0000
,
1000
0100
0010
0002
1003
0000
0110
0000
,
2001
3000
0100
0000
0010
0000
0100
0000
1000
0010
0000
0200
0300
0000
0001
0000
,
0020
0000
0100
0030
0001
0000
1000
0000
0010
0100
0000
0002
0003
0000
0020
0000
,
0100
0030
0002
0000
1000
0003
0010
0000
0001
1000
0000
0020
0030
0000
0100
0000
,
0001
0000
0010
0000
0100
0000
1000
0000
0002
0000
0103
0000
0000
0000
1200
0300
,
0010
0001
1000
0010
0100
0010
1000
0001
,
0010
0002
1003
0000
0110
0000
1001
0000
,
0021
0030
0100
0000
1000
0000
0020
0000
0100
0000
0030
0000
0100
0000
0001
0000
,
0010
0200
1300
0000
0101
0000
1020
0030
,
0100
0002
0003
2000
0100
3000
0100
1000
,
0010
0200
0300
0001
0020
0000
0030
0001
,
1000
0010
0100
0001
0020
0030
0100
1000
,
0001
0200
0300
0010
2000
3000
0200
0020
,
0330
0000
0000
0000
;
