#TITLE:Chase the Sun;
#SUBTITLE:;
#ARTIST:Koven;
#TITLETRANSLIT:;
#SUBTITLETRANSLIT:;
#ARTISTTRANSLIT:;
#GENRE:;
#CREDIT:RxSteps;
#MUSIC:Chase the Sun.ogg;
#BANNER:Chase the Sun.png;
#BACKGROUND:Chase the Sun-bg.png;
#CDTITLE:cdtitle.png;
#SAMPLESTART:50.688;
#SAMPLELENGTH:27.586;
#SELECTABLE:YES;
#OFFSET:0.691;
#BPMS:0.000=174.000;
#STOPS:;
#BGCHANGES:;
#FGCHANGES:;

//--------------- dance-single - RxSteps ----------------
#NOTES:
     dance-single:
     RxSteps:
     Beginner:
     4:
     0,0,0,0,0:
0000
0000
0000
0000
,
1000
0000
0000
0000
0000
0000
0000
0010
,
0000
0000
0000
0000
0000
0000
0000
0100
,
0000
0000
0000
0000
0000
0000
0000
0001
,
0000
0000
0000
0000
,
1000
0000
0000
0000
0000
0000
0000
0100
,
0000
0000
0000
0000
0000
0000
0000
1000
,
0000
0000
0000
0000
0000
0000
0000
0001
,
0000
0000
0000
0000
,
1000
0000
0010
0000
,
0100
0000
0010
0000
,
1000
0000
0100
0000
,
0010
0000
0001
0000
,
0010
0000
0001
0000
,
0100
0000
0010
0000
,
1000
0000
0001
0000
,
1000
0000
0010
0000
,
1000
0000
0000
0000
0000
0000
0000
0001
,
0000
0000
0000
0000
0000
0000
0000
0010
,
0000
0000
0000
0000
0000
0000
0000
0001
,
0000
0000
1000
0000
,
0010
0000
0000
0000
0000
0000
0000
0100
,
0000
0000
0000
0000
0000
0000
0000
0001
,
0000
0000
0000
0000
0000
0000
0000
1000
,
0000
0000
0100
0000
,
0010
0000
0001
0000
,
1000
0000
0001
0000
,
0100
0000
0010
0000
,
1000
0000
0010
0000
,
0100
0000
0001
0000
,
0010
0000
0100
0000
,
1000
0000
0100
0000
,
0010
0000
0000
0000
,
1001
0000
0000
0000
,
0001
0000
0100
0000
,
0010
0000
0100
0000
,
0001
0000
0010
0000
,
0100
0000
0100
0000
,
0010
0000
0001
0000
,
1000
0000
0010
0000
,
0100
0000
0010
0000
,
1000
0000
0000
0000
0000
0000
0000
0001
,
0000
0000
0000
0000
0000
0000
0000
0100
,
0000
0000
0000
0000
0000
0000
0000
0010
,
0000
0000
1000
0000
,
0001
0000
0000
0000
0000
0000
0000
0010
,
0000
0000
0000
0000
0000
0000
0000
0001
,
0000
0000
0000
0000
,
1000
0000
0100
0000
,
0010
0000
0100
0000
,
1000
0000
0001
0000
,
0100
0000
0010
0000
,
0100
0000
0001
0000
,
1000
0000
0100
0000
,
0010
0000
0100
0000
,
1000
0000
0001
0000
,
0010
0000
0001
0000
,
1000
0000
0010
0000
,
0100
0000
0010
0000
,
1000
0000
0001
0000
,
0010
0000
0001
0000
,
0100
0000
0100
0000
,
0001
0000
0001
0000
,
1000
0000
1000
0000
,
0010
0000
0000
0000
,
0200
0000
0000
0000
,
0300
0000
0000
0000
,
0002
0000
0000
0000
,
0003
0000
0000
0000
,
2000
0000
0000
0000
,
3000
0000
0000
0000
,
0200
0000
0000
0000
,
0300
0000
0000
0000
,
2000
0000
3000
0000
,
0020
0000
0030
0000
,
0200
0000
0300
0000
,
0002
0000
0003
0000
,
0020
0000
0030
0000
,
0200
0000
0300
0000
,
2000
0000
3000
0000
,
0002
0000
0003
0000
,
1000
0000
0000
0000
0000
0000
0000
0001
,
0000
0000
0000
0000
0000
0000
0000
0100
,
0000
0000
0000
0000
0000
0000
0000
0001
,
0000
0000
1000
0000
,
0100
0000
0000
0000
0000
0000
0000
0010
,
0000
0000
0000
0000
0000
0000
0000
0001
,
0000
0000
0000
0000
0000
0000
0000
1000
,
0000
0000
0010
0000
,
0100
0000
0001
0000
,
1000
0000
0001
0000
,
0010
0000
0100
0000
,
1000
0000
0100
0000
,
0010
0000
0001
0000
,
0100
0000
0010
0000
,
1000
0000
0010
0000
,
0100
0000
0000
0000
,
1001
0000
0000
0000
,
0001
0000
0010
0000
,
0100
0000
0010
0000
,
0001
0000
0100
0000
,
0010
0000
0010
0000
,
0100
0000
0001
0000
,
1000
0000
0100
0000
,
0010
0000
0100
0000
,
1000
0000
0000
0000
0000
0000
0000
0001
,
0000
0000
0000
0000
0000
0000
0000
0010
,
0000
0000
0000
0000
0000
0000
0000
0100
,
0000
0000
1000
0000
,
0001
0000
0000
0000
0000
0000
0000
0100
,
0000
0000
0000
0000
0000
0000
0000
0001
,
0000
0000
0000
0000
,
1000
0000
0010
0000
,
0100
0000
0010
0000
,
1000
0000
0001
0000
,
0010
0000
0100
0000
,
0010
0000
0001
0000
,
1000
0000
0010
0000
,
0100
0000
0010
0000
,
1000
0000
0001
0000
,
0100
0000
0001
0000
,
1000
0000
0100
0000
,
0010
0000
0100
0000
,
1000
0000
0001
0000
,
0100
0000
0001
0000
,
0010
0000
0010
0000
,
0001
0000
0001
0000
,
1000
0000
1000
0000
,
0001
0000
0000
0000
,
1000
0000
0000
0000
0000
0000
0000
0010
,
0000
0000
0000
0000
0000
0000
0000
0100
,
0000
0000
0000
0000
0000
0000
0000
0002
,
0000
0000
0003
0000
,
0000
0000
1000
0000
0000
0000
0000
0010
,
0000
0000
0000
0000
0000
0000
0000
1000
,
0000
0000
0000
0000
0000
0000
0000
0002
,
0000
0000
0003
0000
;

//--------------- dance-single - RxSteps ----------------
#NOTES:
     dance-single:
     RxSteps:
     Easy:
     7:
     0,0,0,0,0:
0000
0000
0000
0000
,
1000
0000
0010
0000
1000
0000
0000
0010
,
0000
0000
0100
0000
0001
0000
0000
1000
,
0000
0000
0001
0000
0100
0000
0000
0020
,
0000
0000
0030
0000
,
0000
0000
1000
0000
0010
0000
0000
0100
,
0000
0000
0001
0000
1000
0000
0000
0010
,
0000
0000
0100
0000
0010
0000
0000
2000
,
0000
0000
3000
0000
,
0001
0000
0010
0000
,
0100
0000
0010
0000
,
0001
0000
1000
0000
,
0010
0000
0100
0000
,
0001
0000
0100
0000
0010
0000
0000
1000
,
0000
0000
0001
0000
0010
0000
0000
0100
,
0000
0000
0010
0000
0001
0000
0000
1000
,
0000
0010
1000
0001
,
0100
0000
0010
0000
1000
0000
0000
0001
,
0000
0000
0010
0000
0001
0000
0000
1000
,
0000
0000
0010
0000
0100
0000
0000
0001
,
0000
0000
1000
0000
,
0010
0000
1000
0000
0001
0000
0000
0100
,
0000
0000
0100
0000
0010
0000
0000
1000
,
0000
0000
0001
0000
0100
0000
0000
0010
,
0000
0000
1000
0000
,
0001
0000
1000
0000
0010
0000
0000
0100
,
0000
0000
0001
0000
1000
0000
0000
0010
,
0000
0000
1000
0000
0001
0000
0000
0010
,
0000
0000
0001
0000
,
1000
0000
0100
0000
1000
0000
0000
0001
,
0000
0000
0010
0000
0100
0000
0000
1000
,
0000
0000
0001
0000
0200
0000
0000
0020
,
0000
0330
0000
0000
,
1001
0000
1000
0001
,
0100
0010
1000
0001
,
0100
0001
1000
0010
,
0100
0010
1000
0001
,
0010
0001
1000
0100
,
0010
0100
1000
0001
,
0100
0010
0100
0001
,
1000
0100
0010
0001
,
1000
0000
0001
0000
0100
0000
0000
0010
,
0000
0000
0010
0000
0100
0000
0000
0001
,
0000
0000
1000
0000
0100
0000
0000
0010
,
0000
0000
0001
0000
,
1000
0000
0010
0000
0100
0000
0000
0010
,
0000
0000
0010
0000
1000
0000
0000
0001
,
0000
0010
0001
1000
,
0100
0010
0001
1000
,
0001
0100
0010
1000
,
0010
0100
0001
0010
,
0001
1000
0100
0010
,
0001
0010
0100
1000
,
0001
0100
0010
1000
,
0001
0100
0010
1000
,
0001
0010
0100
1000
,
0100
0010
0001
1000
,
0010
0000
1000
0000
0001
0000
0000
0100
,
0000
0000
0010
0000
1000
0000
0000
0100
,
0000
0000
1000
0000
0100
0000
0000
0010
,
0000
0000
0001
0000
,
1000
0001
0010
0001
,
1000
0010
0100
0010
,
1000
0001
0100
0010
,
1000
0010
0100
0002
,
2000
0000
0000
0000
,
0000
0000
3003
0000
,
0001
0000
0100
0000
,
0010
0000
1000
0000
,
0001
0000
0010
0000
,
0100
0000
1000
0000
,
0001
0000
0100
0000
,
0010
0000
0100
0000
,
0001
0000
0010
0000
,
0100
0000
1000
0000
,
0001
0000
1000
0000
,
0100
0000
0010
0000
,
0001
0000
1000
0000
,
0010
0000
0100
0000
,
0001
0000
1000
0000
,
0010
1000
0010
1000
,
0001
0000
0100
0000
0001
0000
0000
1000
,
0000
0000
0100
0000
1000
0000
0000
0001
,
0000
0000
0100
0000
0010
0000
0000
1000
,
0000
0000
0001
0000
,
0100
0000
0001
0000
1000
0000
0000
0010
,
0000
0000
0010
0000
0100
0000
0000
0001
,
0000
0000
1000
0000
0010
0000
0000
0100
,
0000
0000
0001
0000
,
1000
0000
0001
0000
0100
0000
0000
0010
,
0000
0000
1000
0000
0001
0000
0000
0100
,
0000
0000
0001
0000
1000
0000
0000
0100
,
0000
0000
1000
0000
,
0001
0000
0100
0000
0001
0000
0000
1000
,
0000
0000
0100
0000
0010
0000
0000
0001
,
0000
0000
1000
0000
0020
0000
0000
0200
,
0000
0330
0000
0000
,
1001
0000
0001
1000
,
0010
0100
0001
1000
,
0010
1000
0001
0100
,
0010
0100
0001
1000
,
0100
1000
0001
0010
,
0100
0010
0001
1000
,
0010
0100
0010
1000
,
0001
0010
0100
1000
,
0001
0000
1000
0000
0010
0000
0000
0100
,
0000
0000
0100
0000
0010
0000
0000
1000
,
0000
0000
0001
0000
0010
0000
0000
0100
,
0000
0000
1000
0000
,
0001
0000
0100
0000
0010
0000
0000
0100
,
0000
0000
0100
0000
0001
0000
0000
1000
,
0000
0100
1000
0001
,
0010
0100
1000
0001
,
1000
0010
0100
0001
,
0100
0010
1000
0100
,
1000
0001
0010
0100
,
1000
0100
0010
0001
,
1000
0010
0100
0001
,
1000
0010
0100
0001
,
1000
0100
0010
0001
,
0010
0100
1000
0001
,
0100
0000
0001
0000
1000
0000
0000
0010
,
0000
0000
0100
0000
0001
0000
0000
0010
,
0000
0000
0001
0000
0010
0000
0000
0100
,
0000
0000
1000
0000
,
0001
1000
0100
1000
,
0001
0100
0010
0100
,
0001
1000
0010
0100
,
0001
0100
0010
2000
,
0002
0000
0000
3000
0000
0000
0000
1000
,
0000
0000
0000
0003
0000
0000
0000
0001
,
0000
0000
1000
0000
0000
0000
0000
0020
,
0000
0000
0000
0030
,
0000
0000
0100
0000
0000
0000
0000
0001
,
0000
0000
0100
0000
0000
0000
0000
0010
,
0000
0000
0000
0000
2000
0000
0000
0002
,
0000
0000
3003
0000
;

//--------------- dance-single - RxSteps ----------------
#NOTES:
     dance-single:
     RxSteps:
     Medium:
     9:
     0,0,0,0,0:
0000
0000
0000
0000
,
0001
0000
0100
0000
0010
1000
0002
0010
,
0000
0003
0000
0000
0010
0000
0100
0000
1000
0000
0001
0000
0020
0000
0100
0000
,
0030
0000
0100
0010
0001
1000
0020
0100
,
0000
0000
0000
0030
,
0100
0000
0010
0000
1000
0100
0020
0001
,
0030
0000
0001
0010
0100
1000
0200
0010
,
0300
0000
0010
0100
1000
0001
1000
0200
,
0000
0000
0000
0300
,
1000
0001
0010
0001
,
1000
0010
1000
0001
,
0100
0000
0000
0000
0010
0000
1000
0000
0001
0000
0200
0300
0000
0000
0010
0000
,
1000
0100
0010
0100
,
1000
0000
0001
0000
1000
0010
0200
0001
,
0300
0000
0000
0000
0001
0000
1000
0000
0010
0000
0200
0300
0000
0000
0020
0030
,
0000
0000
1000
0010
0100
0002
0003
0000
,
0010
0100
0010
0001
,
1000
0000
0010
0000
0100
0001
0020
0100
,
0030
0000
0100
0010
0001
1000
0000
0010
,
0000
0000
0100
0010
1000
0001
0000
0100
,
0010
1000
0001
0100
,
0010
0000
1000
0000
0100
0010
0001
1000
,
0000
0000
0100
0010
0001
0100
0000
0010
,
0000
0000
1000
0100
0010
0001
0000
0100
,
0010
0000
1000
0000
0001
0100
0010
1000
,
0001
0010
0100
1000
0001
0010
0200
1000
,
0300
0000
1000
0100
0010
0001
0200
0010
,
0300
0000
0010
0100
0001
1000
0100
0010
,
0001
0010
0100
0010
0001
1000
0100
0010
,
0001
1000
0010
0100
0001
0100
0020
1000
,
0030
0000
1000
0001
0100
0010
0200
0001
,
0300
0000
0001
0010
0200
1000
0300
0010
,
0001
0100
0010
1000
0100
0020
0031
0000
,
0110
0000
0000
0000
1020
0030
0000
0000
0100
0000
0001
0000
1000
0000
0010
0000
,
0100
0001
1000
0100
0010
0001
1000
0010
,
1000
0001
0100
0010
1000
0001
1000
0010
,
0100
0001
1000
0100
0010
0001
0010
0100
,
1000
0001
0010
0001
1000
0010
1000
0001
,
0100
0001
1000
0100
0010
0001
0100
0010
,
0100
0001
1000
0001
0100
0010
0100
0001
,
1000
0100
0010
0001
1000
0200
0310
0000
,
0011
0000
0000
0000
2100
3000
0000
0000
0001
0000
0010
0000
0200
0000
1000
0000
,
0300
0000
1000
0010
0100
0001
0020
0100
,
0030
0000
0100
0010
0001
1000
0010
0100
,
0001
0100
0010
1000
0100
0010
0100
1000
,
0001
0100
0010
0100
0001
0010
0100
2000
,
0000
3000
0000
0000
0001
0000
0100
0000
0001
0000
1000
0000
0100
0000
0010
0000
,
0001
1000
0100
1000
0001
0100
0010
1000
,
0001
0010
0100
1000
0100
0020
0031
0000
,
1100
0000
0000
0000
0201
0300
0000
0000
0010
0000
1000
0000
0001
0000
0100
0000
,
0010
0100
0001
1000
0100
1000
0001
0010
,
0100
0010
0001
0010
0100
1000
0001
0100
,
0001
1000
0100
0010
0001
1000
0010
1000
,
0001
1000
0100
0010
0100
1000
0001
0100
,
0010
0100
0001
1000
0100
1000
0001
0100
,
0001
1000
0010
1000
0001
0010
0001
1000
,
0100
0010
0100
1000
0100
0020
0031
0000
,
0110
0000
0000
0000
1002
0003
0000
0000
0100
0000
0010
0000
2000
0000
0100
0000
,
3000
0000
0100
0010
0001
0100
0020
1000
,
0030
0000
1000
0001
0010
0100
1000
0001
,
0100
0001
1000
0100
0010
0001
1000
0100
,
0010
0001
0010
0100
1000
0100
0010
0001
,
0100
0010
1000
0100
0010
0001
1000
0100
,
1000
0001
0010
0001
1000
0010
0100
0001
,
0010
0100
0010
0001
1000
0010
0100
0002
,
2000
0000
0000
0000
,
0000
0000
0000
0000
0003
0000
0000
3000
,
0010
0000
0100
0000
,
0010
0000
1000
0000
,
0001
0000
0010
0000
,
0200
0000
0000
0000
1000
0000
0000
0300
,
0010
0000
0001
0000
,
1000
0000
0010
0000
,
0100
0001
1000
0010
,
0100
0001
0010
0100
,
1000
0010
0100
0001
,
0010
0001
0100
0010
,
1000
0001
0010
0100
,
1000
0100
0010
0001
,
1000
0010
0100
0010
,
1000
0000
0100
0010
0001
1000
0100
0010
,
0001
0000
0100
0000
0010
1000
0200
0010
,
0300
0000
0010
0100
1000
0001
0000
0100
,
0000
0000
0010
0100
0001
1000
0000
0010
,
0100
0001
1000
0010
,
0100
0000
0001
0000
0010
0100
1000
0001
,
0000
0000
0010
0100
1000
0010
0000
0100
,
0000
0000
0001
0010
0100
1000
0000
0010
,
0100
0000
0001
0000
1000
0010
0100
0001
,
1000
0100
0010
0001
1000
0100
0020
0001
,
0030
0000
0001
0010
0100
1000
0020
0100
,
0030
0000
0100
0010
1000
0001
0010
0100
,
1000
0100
0010
0100
1000
0001
0010
0100
,
1000
0001
0100
0010
1000
0010
0200
0001
,
0300
0000
0001
1000
0010
0100
0020
1000
,
0030
0000
1000
0100
0020
0001
0030
0100
,
1000
0100
0010
0001
0010
0200
1300
0000
,
0110
0000
0000
0000
0201
0300
0000
0000
0010
0000
1000
0000
0001
0000
0100
0000
,
0010
1000
0001
0010
0100
1000
0001
0100
,
0001
1000
0010
0100
0001
1000
0001
0100
,
0010
1000
0001
0010
0100
1000
0100
0010
,
0001
1000
0100
1000
0001
0100
0001
1000
,
0010
1000
0001
0010
0100
1000
0010
0100
,
0010
1000
0001
1000
0010
0100
0010
1000
,
0001
0010
0100
1000
0001
0020
0130
0000
,
1100
0000
0000
0000
0012
0003
0000
0000
1000
0000
0100
0000
0020
0000
0001
0000
,
0030
0000
0001
0100
0010
1000
0200
0010
,
0300
0000
0010
0100
1000
0001
0100
0010
,
1000
0010
0100
0001
0010
0100
0010
0001
,
1000
0010
0100
0010
1000
0100
0010
0002
,
0000
0003
0000
0000
1000
0000
0010
0000
1000
0000
0001
0000
0010
0000
0100
0000
,
1000
0001
0010
0001
1000
0010
0100
0001
,
1000
0100
0010
0001
0010
0200
1300
0000
,
0011
0000
0000
0000
1020
0030
0000
0000
0100
0000
0001
0000
1000
0000
0010
0000
,
0100
0010
1000
0001
0010
0001
1000
0100
,
0010
0100
1000
0100
0010
0001
1000
0010
,
1000
0001
0010
0100
1000
0001
0100
0001
,
1000
0001
0010
0100
0010
0001
1000
0010
,
0100
0010
1000
0001
0010
0001
1000
0010
,
1000
0001
0100
0001
1000
0100
1000
0001
,
0010
0100
0010
0001
0010
0200
1300
0000
,
0110
0000
0000
0000
2001
3000
0000
0000
0010
0000
0100
0000
0002
0000
0010
0000
,
0003
0000
0010
0100
1000
0010
0200
0001
,
0300
0000
0001
1000
0100
0010
0001
1000
,
0010
1000
0001
0010
0100
1000
0001
0010
,
0100
1000
0100
0010
0001
0010
0100
1000
,
0010
0100
0001
0010
0100
1000
0001
0010
,
0001
1000
0100
1000
0001
0100
0010
1000
,
0100
0010
0100
1000
0001
0100
0010
1000
,
0002
0003
0000
0000
0010
0000
0000
0000
0100
0000
1000
0000
0020
0000
0100
0000
,
0030
0000
0100
0010
1000
0001
0000
0010
,
0000
0000
0100
0010
0001
1000
0000
0100
,
0010
0001
1000
0100
,
0010
0000
0001
0000
0100
0010
1000
0001
,
0000
0000
0100
0010
1000
0100
0000
0010
,
0000
0000
0001
0100
0010
2000
0000
0002
,
0000
0000
3003
0000
;

//--------------- dance-single - RxSteps ----------------
#NOTES:
     dance-single:
     RxSteps:
     Hard:
     10:
     0,0,0,0,0:
0000
0000
0000
0000
,
0001
0000
0100
0000
0010
1000
0002
0010
,
0000
0003
0000
0000
0010
0000
0100
0000
1000
0000
0001
0000
0020
0000
0100
0000
,
0030
0000
0100
0010
0001
1000
0020
0100
,
0000
0000
0000
0030
,
0100
0000
0010
0000
1000
0100
0020
0001
,
0030
0000
0001
0100
0010
1000
0200
0010
,
0300
0000
0010
0100
1000
0001
0010
0200
,
0000
0000
0000
0300
,
1000
0001
0010
0001
,
1000
0010
1000
0001
,
0100
0000
0000
0000
0010
0000
1000
0000
0001
0000
0200
0300
0000
0000
0010
0000
,
1000
0100
0010
0100
,
1000
0000
0001
0000
1000
0010
0200
0001
,
0300
0000
0000
0000
0001
0000
1000
0000
0010
0000
0200
0300
0000
0000
0020
0030
,
0000
0000
1000
0010
0100
0002
0003
0000
,
0010
0100
0010
0001
,
1000
0000
0010
0000
0100
0001
0020
0100
,
0030
0000
0100
0010
0001
1000
0000
0010
,
0000
0000
0100
0010
1000
0001
0000
0100
,
0010
1000
0001
0100
,
0010
0000
1000
0000
0100
0010
0001
1000
,
0000
0000
0100
0010
0001
0100
0000
0010
,
0000
0000
1000
0100
0010
0001
0000
0100
,
0010
0000
1000
0000
0001
0100
0010
1000
,
0001
0010
0100
1000
0001
0010
0200
1000
,
0300
0000
1000
0100
0010
0001
0200
0010
,
0300
0000
0010
0100
0001
1000
0100
0010
,
0001
0010
0100
0010
0001
1000
0100
0010
,
0001
1000
0010
0100
0001
0100
0020
1000
,
0030
0000
1000
0001
0100
0010
0200
0001
,
0300
0000
0001
0010
0200
1000
0300
0010
,
0001
0100
0010
1000
0100
0020
0031
0000
,
0110
0000
0000
0000
1020
0030
0000
0000
0100
0000
0001
0000
1000
0000
0010
0000
,
0100
0010
1000
0100
0010
0001
1000
0010
,
1000
0001
0100
0010
1000
0010
0100
0001
,
0010
0100
1000
0100
0010
0001
0010
0100
,
1000
0000
0200
0300
0001
0000
0100
0000
1000
0000
0001
0000
0100
0000
0010
0000
,
0100
0000
0001
0000
1000
0000
0100
0000
0010
0000
0001
0000
0200
0300
1000
0000
,
0100
0001
0010
0001
0100
0010
0100
0001
,
1000
0100
0010
0001
1000
0200
0310
0000
,
0101
0000
0000
0000
2100
3000
0000
0000
0001
0000
0010
0000
0200
0000
1000
0000
,
0300
0000
1000
0010
0100
0001
0020
0100
,
0030
0000
0100
0010
0001
1000
0010
0100
,
0001
0100
0010
1000
0100
0010
0100
1000
,
0001
0000
0200
0300
1000
0000
0100
0000
0001
0000
0010
0000
0100
0000
2000
0000
,
0000
3000
0000
0000
0001
0000
0100
0000
0010
0000
1000
0000
0100
0000
0010
0000
,
0001
0000
0020
0030
1000
0000
0010
0000
0001
0000
0020
0030
1000
0000
0010
0000
,
0001
0100
0010
1000
0100
0020
0031
0000
,
1100
0000
0000
0000
0201
0300
0000
0000
0010
0000
1000
0000
0001
0000
0200
0300
,
1000
0000
0100
0000
0001
0000
0010
0000
0100
0000
1000
0000
0020
0030
0001
0000
,
1000
0100
0001
0010
0100
1000
0010
0100
,
0001
0000
0020
0030
1000
0000
0010
0000
0001
0000
0200
0300
1000
0000
0100
0000
,
0001
0000
1000
0000
0100
0000
0010
0000
0100
0000
1000
0000
0001
0000
0200
0300
,
1000
0100
0001
1000
0100
1000
0001
0100
,
0001
0000
1000
0000
0010
0000
1000
0000
0001
0000
0010
0000
0001
0000
0200
0300
,
1000
0001
0010
1000
0100
0020
0031
0000
,
0110
0000
0000
0000
1002
0003
0000
0000
0100
0000
0010
0000
2000
0000
0100
0000
,
3000
0000
0100
0010
0001
0100
0020
1000
,
0030
0000
1000
0001
0010
0100
1000
0010
,
0100
0010
1000
0100
0010
0001
1000
0100
,
0010
0001
0100
0010
1000
0100
1000
0010
,
0100
0001
0100
0010
1000
0100
0010
0100
,
1000
0010
0100
0001
1000
0010
0100
0001
,
0010
0000
0100
0000
1000
0000
0020
0030
0001
0000
1000
0000
0100
0000
0002
0000
,
2000
0000
0000
0000
,
0000
0000
0000
0000
0003
0000
0000
3000
,
0010
0000
0100
0000
,
0010
0000
1000
0000
,
0001
0000
0010
0000
,
0200
0000
0000
0000
1000
0000
0000
0300
,
0010
0000
0001
0000
,
1000
0000
0010
0000
,
0100
0001
1000
0010
,
0100
0001
0010
0100
,
1000
0010
0100
0001
,
0010
0001
0100
0010
,
1000
0001
0010
0100
,
1000
0100
0010
0001
,
1000
0010
0100
0010
,
1000
0000
0100
0010
0001
1000
0100
0010
,
0001
0000
0100
0000
0010
1000
0200
0010
,
0300
0000
0010
0100
1000
0001
0000
0100
,
0000
0000
0010
0100
0001
1000
0000
0010
,
0100
0001
1000
0010
,
0100
0000
0001
0000
0010
0100
1000
0001
,
0000
0000
0010
0100
1000
0010
0000
0100
,
0000
0000
0001
0010
0100
1000
0000
0010
,
0100
0000
0001
0000
1000
0010
0100
0001
,
1000
0100
0010
0001
1000
0100
0020
0001
,
0030
0000
0001
0010
0100
1000
0020
0100
,
0030
0000
0100
0010
1000
0001
0010
0100
,
1000
0100
0010
0100
1000
0001
0010
0100
,
1000
0001
0100
0010
1000
0010
0200
0001
,
0300
0000
0001
1000
0010
0100
0020
1000
,
0030
0000
1000
0100
0020
0001
0030
0100
,
1000
0010
0100
0001
0010
0200
1300
0000
,
0110
0000
0000
0000
0201
0300
0000
0000
0010
0000
1000
0000
0001
0000
0100
0000
,
0010
0100
0001
0010
0100
1000
0001
0100
,
0001
1000
0010
0100
0001
0100
0010
1000
,
0100
0010
0001
0010
0100
1000
0100
0010
,
0001
0000
0020
0030
1000
0000
0010
0000
0001
0000
1000
0000
0010
0000
0100
0000
,
0010
0000
1000
0000
0001
0000
0010
0000
0100
0000
1000
0000
0020
0030
0001
0000
,
0010
1000
0100
1000
0010
0100
0010
1000
,
0001
0010
0100
1000
0001
0020
0130
0000
,
1010
0000
0000
0000
0012
0003
0000
0000
1000
0000
0100
0000
0020
0000
0001
0000
,
0030
0000
0001
0100
0010
1000
0200
0010
,
0300
0000
0010
0100
1000
0001
0100
0010
,
1000
0010
0100
0001
0010
0100
0010
0001
,
1000
0000
0020
0030
0001
0000
0010
0000
1000
0000
0100
0000
0010
0000
0002
0000
,
0000
0003
0000
0000
1000
0000
0010
0000
0100
0000
0001
0000
0010
0000
0100
0000
,
1000
0000
0200
0300
0001
0000
0100
0000
1000
0000
0200
0300
0001
0000
0100
0000
,
1000
0010
0100
0001
0010
0200
1300
0000
,
0011
0000
0000
0000
1020
0030
0000
0000
0100
0000
0001
0000
1000
0000
0020
0030
,
0001
0000
0010
0000
1000
0000
0100
0000
0010
0000
0001
0000
0200
0300
1000
0000
,
0001
0010
1000
0100
0010
0001
0100
0010
,
1000
0000
0200
0300
0001
0000
0100
0000
1000
0000
0020
0030
0001
0000
0010
0000
,
1000
0000
0001
0000
0010
0000
0100
0000
0010
0000
0001
0000
1000
0000
0020
0030
,
0001
0010
1000
0001
0010
0001
1000
0010
,
1000
0000
0001
0000
0100
0000
0001
0000
1000
0000
0100
0000
1000
0000
0020
0030
,
0001
1000
0100
0001
0100
0020
1030
0000
,
0110
0000
0000
0000
2001
3000
0000
0000
0010
0000
0100
0000
0002
0000
0010
0000
,
0003
0000
0010
0100
1000
0010
0200
0001
,
0300
0000
0001
1000
0100
0010
0001
0100
,
0010
0100
0001
0010
0100
1000
0001
0010
,
0100
1000
0010
0100
0001
0010
0001
0100
,
0010
1000
0010
0100
0001
0010
0100
0010
,
0001
0100
0010
1000
0001
0100
0010
1000
,
0100
0000
0010
0000
0001
0000
0200
0300
1000
0000
0001
0000
0010
0000
1000
0000
,
0002
0003
0000
0000
0010
0000
0000
0000
0100
0000
1000
0000
0020
0000
0100
0000
,
0030
0000
0100
0010
1000
0001
0000
0010
,
0000
0000
0100
0010
0001
1000
0000
0100
,
0010
0001
1000
0100
,
0010
0000
0001
0000
0100
0010
1000
0001
,
0000
0000
0100
0010
1000
0100
0000
0010
,
0000
0000
0001
0100
0010
2000
0000
0002
,
0000
0000
3003
0000
;
