#TITLE:BFF;
#SUBTITLE:;
#ARTIST:MGNA Crrrta;
#TITLETRANSLIT:;
#SUBTITLETRANSLIT:;
#ARTISTTRANSLIT:;
#GENRE:;
#CREDIT:RxSteps;
#MUSIC:BFF.ogg;
#BANNER:BFF.png;
#BACKGROUND:BFF-bg.png;
#CDTITLE:cdtitle.png;
#SAMPLESTART:49.684;
#SAMPLELENGTH:24.000;
#SELECTABLE:YES;
#OFFSET:1.516;
#BPMS:0.000=150.000;
#STOPS:;
#BGCHANGES:;
#FGCHANGES:;

//--------------- dance-single - RxSteps ----------------
#NOTES:
     dance-single:
     RxSteps:
     Beginner:
     4:
     0,0,0,0,0:
0000
0000
0000
0000
,
1000
0000
0010
0000
,
0100
0000
0001
0000
,
1000
0000
0100
0000
,
0010
0000
0100
0000
,
1000
0000
0001
0000
,
0010
0000
0001
0000
,
0100
0000
0001
0000
,
1000
0000
0010
0000
,
0200
0000
0300
0000
,
0002
0000
0003
0000
,
2000
0000
3000
0000
,
0020
0000
0030
0000
,
0200
0000
0300
0000
,
0002
0000
0003
0000
,
2000
0000
3000
0000
,
0200
0000
0300
0000
,
0010
0000
0001
0000
,
1000
0000
0001
0000
,
0100
0000
0010
0000
,
0100
0000
0001
0000
,
1000
0000
0010
0000
,
0100
0000
0010
0000
,
1000
0000
0001
0000
,
0010
0000
0001
0000
,
1000
0000
0100
0000
,
0010
0000
0001
0000
,
0001
0000
0010
0000
,
0100
0000
1000
0000
,
1000
0000
0010
0000
,
0100
0000
0001
0000
,
0001
0000
0010
0000
,
0100
0000
1000
0000
,
0001
0000
0001
0000
,
0100
0000
0100
0000
,
0010
0000
0010
0000
,
1000
0000
1000
0000
,
1000
0000
0001
0000
,
0010
0000
0001
0000
,
1000
0000
0100
0000
,
0010
0000
0100
0000
,
2000
0000
3000
0000
,
0002
0000
0003
0000
,
0100
0000
0010
0000
,
1000
0000
0001
0000
,
0100
0000
0010
0000
,
0100
0000
0001
0000
,
1000
0000
0100
0000
,
0010
0000
0100
0000
,
1000
0000
0001
0000
,
0100
0000
0010
0000
,
0100
0000
0001
0000
,
1000
0000
0100
0000
,
0020
0000
0030
0000
,
0002
0000
0003
0000
,
2000
0000
3000
0000
,
0020
0000
0030
0000
,
0100
0000
0001
0000
,
1000
0000
0010
0000
,
0100
0000
0001
0000
,
1000
0000
0100
0000
,
0100
0000
1000
0000
,
0001
0000
0010
0000
,
0010
0000
0001
0000
,
1000
0000
0010
0000
,
0100
0000
0100
0000
,
0001
0000
0001
0000
,
1000
0000
1000
0000
,
0010
0000
0010
0000
,
0010
0000
1000
0000
,
0001
0000
0010
0000
,
0100
0000
0100
0000
,
0010
0000
0001
0000
,
1000
0000
1000
0000
,
0010
0000
0010
0000
,
1000
0000
0100
0000
,
0010
0000
0001
0000
,
0001
0000
0010
0000
,
0100
0000
1000
0000
,
0001
0000
1000
0000
,
0001
0000
0001
0000
,
2000
0000
3000
0000
,
0020
0000
0030
0000
,
0200
0000
0300
0000
,
0002
0000
0003
0000
,
1000
0000
0010
0000
,
2000
0000
3000
0000
,
0001
0000
0100
0000
,
0020
0000
0000
0000
0000
0000
0000
0030
;

//--------------- dance-single - RxSteps ----------------
#NOTES:
     dance-single:
     RxSteps:
     Easy:
     7:
     0,0,0,0,0:
0000
0000
0000
0000
,
0001
0100
0010
0100
,
0001
1000
0100
0010
,
0001
0010
0001
0010
0001
0000
1000
0010
,
1000
0010
1000
0000
0001
0000
0100
0000
,
0001
1000
0010
0100
,
0001
1000
0100
1000
,
0001
0100
0010
0100
,
0001
0010
0100
1000
,
0002
0003
0200
0300
,
0010
0000
0000
2000
0000
0000
3000
0000
,
0001
0100
0001
1000
,
0010
0000
0100
0000
0002
0000
0010
0003
,
0010
0001
1000
0100
,
0010
0000
0000
0002
0000
0000
0003
0000
,
1000
0010
0100
0010
,
1000
0001
0010
0100
,
1000
0001
1000
0010
,
0100
0001
0010
0001
,
1000
0010
0100
0010
,
1000
0001
0010
0100
,
1000
0100
0010
0001
,
2000
3000
0000
0020
0030
0000
1000
0000
,
0001
0100
0010
0100
,
0002
0003
0000
2000
3000
0000
0010
0000
,
1000
0001
0100
0010
,
1000
0010
0100
0001
,
1000
0100
0010
0001
,
0010
0000
0100
0000
1000
0100
1000
0100
,
1000
0001
0100
0010
,
1000
0001
0010
0100
,
0100
0010
0001
1000
,
0010
0000
0100
0000
0001
0100
0001
0100
,
0001
2000
0010
3000
0010
0200
0001
0300
,
0001
2000
0100
3000
0100
1000
0001
0200
,
0010
0300
0010
0200
0001
0300
0001
2000
,
0010
3000
0010
0100
0002
0000
0003
0000
,
1000
0200
0010
0300
0010
0200
1000
0300
,
1000
0002
0100
0003
0100
0001
1000
0000
,
0010
0100
0010
0100
0010
0000
1000
0000
,
0001
0010
0001
0010
0001
1000
0100
1000
,
0200
0300
2000
3000
,
0002
0003
0200
0300
,
0010
1000
0001
0100
,
0010
1000
0001
0010
,
0010
0001
1000
0010
,
0100
0010
1000
0001
,
0100
0010
1000
0100
,
0010
0001
1000
0100
,
1000
0001
0100
0010
,
0100
0001
1000
0010
,
0100
0010
1000
0001
,
0010
0001
1000
0100
,
2000
3000
0000
0020
0030
0000
0100
0000
,
0002
0003
0000
2000
3000
0000
0100
0000
,
2000
3000
0000
0020
0030
0000
0100
0000
,
0002
0003
0000
0020
0030
0000
0100
0000
,
1000
0100
0010
0001
,
1000
0001
0010
0001
,
0100
0010
1000
0001
,
0100
0000
0010
0000
1000
0010
1000
0010
,
1000
0001
0100
0010
,
0100
0001
1000
0010
,
0010
1000
0001
0010
,
0001
0000
1000
0000
0001
0100
0001
0100
,
0001
2000
0100
3000
0100
0020
0001
0030
,
0001
2000
0010
3000
0010
1000
0001
0020
,
0100
0030
0100
0020
0001
0030
0001
2000
,
0100
3000
0100
0010
0002
0000
0003
0000
,
1000
0020
0100
0030
0100
0020
1000
0030
,
1000
0002
0010
0003
0010
0001
1000
0000
,
0100
0010
0100
0010
0100
0000
1000
0000
,
0001
0100
0001
0100
0001
1000
0010
1000
,
0020
0000
0030
0000
0100
0000
0001
0100
,
0001
0000
1000
0000
0010
1000
0001
0000
,
0100
0020
1000
0030
1000
0020
0100
0030
,
0100
0001
1000
0000
0010
0100
0010
0100
,
0001
0000
1000
0000
0200
0000
0010
0300
,
1000
0000
0001
0000
0020
0000
0100
0030
,
0001
1000
0100
0010
,
0001
0000
1000
0000
0001
0000
0100
0001
,
0100
0010
1000
0001
,
0010
0100
1000
0100
,
0010
0001
1000
0010
,
2000
3000
0000
0002
0003
0000
0010
0000
,
0001
0010
0100
1000
,
0001
0100
0010
1000
,
0001
0100
0010
1000
,
0010
0000
0100
0001
1000
0001
1000
0010
;

//--------------- dance-single - RxSteps ----------------
#NOTES:
     dance-single:
     RxSteps:
     Medium:
     9:
     0,0,0,0,0:
0000
0000
0000
0000
,
1000
0100
0010
0100
1000
0001
0100
0010
,
0100
0001
1000
0100
0010
0100
1000
0001
,
0100
0010
2000
0100
3000
0100
0010
0001
,
0100
0010
1000
0100
0010
0100
1000
0010
,
0100
0001
0010
0100
0010
0001
1000
0010
,
0100
0010
1000
0001
0010
0200
1000
0300
,
1000
0100
0010
0001
0100
0010
0100
0001
,
0010
0200
1000
0000
0000
0000
0300
0000
,
1000
0100
0010
0001
0100
0010
1000
0001
,
0010
0100
1000
0020
0000
0000
0000
0030
,
0100
0001
1000
0100
0010
0001
1000
0010
,
0100
0001
0010
0200
0000
1000
0300
0010
,
0001
0100
0010
0100
0001
1000
0100
0010
,
0001
1000
0010
1000
0001
0010
0100
0010
,
0001
0010
0100
1000
0100
0010
0001
0100
,
0010
0100
0001
1000
0100
0020
0001
0030
,
0100
1000
0010
0100
0001
0010
0001
1000
,
0010
0100
0010
1000
0100
0010
0001
0010
,
0100
0010
0001
0100
0010
1000
0001
0100
,
0010
0100
0001
1000
0100
0010
0100
1000
,
0001
0100
0010
1000
0010
0100
0001
0010
,
0200
0000
0000
1000
0000
0300
0010
0000
,
0001
1000
0100
0010
0100
1000
0001
0100
,
0020
0000
0000
1000
0000
0030
0100
0000
,
0001
0010
0100
1000
0001
0010
0100
1000
,
0100
0010
0100
1000
0100
0010
0001
0100
,
0010
1000
0100
1000
0010
0100
0001
0010
,
0100
0010
0001
1000
0010
0100
0010
1000
,
0001
0100
0010
1000
0010
0100
0001
0010
,
0100
1000
0100
0010
0001
0200
0010
0300
,
0010
0100
0001
0010
0001
1000
0010
1000
,
0001
0010
0001
1000
0100
0010
0100
1000
,
0001
0100
0010
0100
0001
1000
0100
1000
,
0001
0100
0010
1000
0100
0010
0001
0200
,
0010
0300
0010
0100
0001
0010
0100
1000
,
0001
0010
0100
0020
0001
0000
0130
0000
,
1100
0101
0110
1001
,
0011
0000
1020
0030
0100
0002
0010
0003
,
0010
0100
1000
0100
0010
0100
1000
0001
,
1000
0100
0010
0100
1000
0001
0010
0200
,
1000
0300
0020
0000
0001
0030
0100
0000
,
1000
0000
0001
0000
0200
0000
0010
0300
,
0001
1000
0010
0200
0001
0300
0001
0100
,
0010
1000
0001
0020
0000
0100
0030
0001
,
1000
0000
0020
0000
0100
0030
1000
0000
,
0001
0000
0010
0000
0200
0000
1000
0300
,
0010
0001
0100
0010
,
1000
0100
0010
0001
,
1000
0100
1000
0001
0100
0001
1000
0100
,
1000
0001
0100
0001
0010
0100
1000
0010
,
0100
0010
1000
0001
0010
0100
0010
0001
,
1000
0010
0100
0001
0100
0010
1000
0100
,
0020
0000
0000
0001
0000
0030
0100
0000
,
1000
0010
0100
0001
1000
0010
1000
0001
,
0020
0000
0000
0100
0000
0030
0001
0000
,
2000
0000
0000
0010
0000
3000
0001
0000
,
1000
0010
0100
0001
0100
0010
1000
0001
,
0010
0100
0010
0001
0010
0100
1000
0010
,
0100
0001
0010
0001
0200
0010
0300
0010
,
1000
0100
0010
0001
0100
0010
0100
0001
,
1000
0010
0100
0001
0100
0010
1000
0100
,
0010
0001
0010
0100
1000
0020
0100
0030
,
0100
0010
1000
0100
1000
0001
0100
0001
,
1000
0100
1000
0001
0010
0100
0010
0001
,
1000
0010
0100
0010
1000
0100
0010
0100
,
1000
0010
0100
0001
0010
0100
1000
0020
,
0100
0030
0100
0010
1000
0100
0010
0001
,
1000
0100
0010
0200
1000
0000
0310
0000
,
0011
1010
0110
1001
,
1100
0000
0201
0300
0010
2000
0100
3000
,
0100
0010
0001
0010
0100
0010
0001
1000
,
0001
0010
0100
0010
0001
1000
0100
0020
,
0001
0130
1010
0011
,
1020
0000
0130
0000
0011
0000
1020
0030
,
1000
0010
0100
0010
1000
0001
1000
0010
,
0100
0001
0010
0001
0100
0010
1000
0001
,
1000
0010
0100
0001
1000
0010
0100
0010
,
0100
0001
0010
0100
1000
0020
0100
0030
,
0100
0001
0010
0100
2000
0010
3000
0010
,
0100
0001
0100
0010
0100
0001
0100
0010
,
1000
0100
0010
0001
1000
0100
0010
0001
,
2000
3000
0020
0000
0100
0030
1000
0000
,
0001
0000
0010
0000
0200
0000
1000
0300
,
0020
0000
0000
0000
0000
0000
0001
0000
0000
0030
0000
0000
0100
0000
0000
0000
,
1000
0010
0100
0020
,
1000
0030
0100
0000
0001
0000
0010
0000
,
0100
0000
1000
0000
0200
0000
0010
0300
,
1000
0000
0001
0100
0010
1000
0100
0010
;

//--------------- dance-single - RxSteps ----------------
#NOTES:
     dance-single:
     RxSteps:
     Hard:
     10:
     0,0,0,0,0:
0000
0000
0000
0000
,
1000
0100
0010
0100
1000
0001
0100
0010
,
0100
0001
1000
0100
0010
0100
1000
0001
,
0100
0010
2000
0100
3000
0100
0010
0001
,
0100
0000
0010
0000
1000
0000
0200
0300
0001
0000
0100
0000
1000
0000
0010
0000
,
0100
0001
0010
0100
0010
0001
1000
0010
,
0100
0010
1000
0001
0010
0200
1000
0300
,
1000
0000
0100
0000
0010
0000
0001
0000
0200
0300
1000
0000
0100
0000
0001
0000
,
0010
0200
1000
0000
0000
0000
0300
0000
,
1000
0100
0010
0001
0100
0010
1000
0001
,
0010
0100
1000
0020
0000
0000
0000
0030
,
0100
0001
1000
0100
0010
0001
1000
0010
,
0100
0001
0010
0200
0000
1000
0300
0010
,
0001
0100
0010
0100
0001
1000
0100
0010
,
0001
0000
0200
0300
1000
0000
0001
0000
0010
0000
1000
0000
0100
0000
0010
0000
,
0001
0010
0100
1000
0100
0010
0001
0100
,
0010
0100
0001
1000
0100
0020
0001
0030
,
0100
1000
0010
0100
0001
0010
0001
1000
,
0010
0100
0010
1000
0100
0010
0001
0010
,
0100
0010
0001
0100
0010
1000
0001
0100
,
0010
0000
0100
0000
0001
0000
1000
0000
0200
0300
0001
0000
0100
0000
1000
0000
,
0001
0100
0010
1000
0010
0100
0001
0010
,
0200
0000
0000
1000
0000
0300
0010
0000
,
0001
1000
0100
0010
0100
1000
0001
0100
,
0020
0000
0000
1000
0000
0030
0100
0000
,
0001
0010
0100
1000
0001
0010
0100
1000
,
0100
0010
0100
1000
0100
0010
0001
0100
,
0010
1000
0100
1000
0010
0100
0001
0010
,
0100
0000
0010
0000
0001
0000
1000
0000
0200
0300
0001
0000
0100
0000
1000
0000
,
0001
0100
0010
1000
0010
0100
0001
0010
,
0100
1000
0100
0010
0001
0200
0010
0300
,
0010
0100
0001
0010
0001
1000
0010
1000
,
0001
0010
0001
1000
0100
0010
0100
1000
,
0001
0000
0200
0300
1000
0000
0100
0000
0001
0000
0020
0030
1000
0000
0010
0000
,
0001
0000
0100
0000
0010
0000
1000
0000
0100
0000
0010
0000
0001
0000
0200
0300
,
1000
0001
0010
1000
0100
0010
0100
1000
,
0001
0010
0100
0020
0001
0000
0130
0000
,
1100
0101
0110
1001
,
0011
0000
1020
0030
0100
0002
0010
0003
,
0010
0000
0100
0000
1000
0000
0200
0300
0001
0000
0100
0000
1000
0000
0001
0000
,
1000
0000
0200
0300
0001
0000
0100
0000
1000
0000
0001
0000
0010
0000
0200
0000
,
1000
0300
0020
0000
0001
0030
0100
0000
,
1000
0000
0001
0000
0200
0000
0010
0300
,
0001
1000
0010
0200
0001
0300
0001
0100
,
0010
1000
0001
0020
0000
0100
0030
0001
,
1000
0000
0020
0000
0100
0030
1000
0000
,
0001
0000
0010
0000
0200
0000
1000
0300
,
0010
0001
0100
0010
,
1000
0100
0010
0001
,
1000
0100
1000
0001
0100
0001
1000
0100
,
1000
0001
0100
0001
0010
0100
1000
0010
,
0100
0000
0010
0000
1000
0000
0001
0000
0020
0030
1000
0000
0010
0000
0001
0000
,
1000
0010
0100
0001
0100
0010
1000
0100
,
0020
0000
0000
0001
0000
0030
0100
0000
,
1000
0000
0010
0000
0100
0000
0001
0000
0200
0300
1000
0000
0100
0000
0001
0000
,
0020
0000
0000
0100
0000
0030
0001
0000
,
2000
0000
0000
0010
0000
3000
0001
0000
,
1000
0010
0100
0001
0100
0010
1000
0001
,
0010
0100
0010
0001
0010
0100
1000
0010
,
0100
0001
0010
0001
0200
0010
0300
0010
,
1000
0000
0100
0000
0010
0000
0001
0000
0200
0300
1000
0000
0100
0000
0001
0000
,
1000
0010
0100
0001
0100
0010
1000
0100
,
0010
0001
0010
0100
1000
0020
0100
0030
,
0100
0010
1000
0100
1000
0001
0100
0001
,
1000
0100
1000
0001
0010
0100
0010
0001
,
1000
0000
0020
0030
0001
0000
0010
0000
1000
0000
0200
0300
0001
0000
0100
0000
,
1000
0000
0010
0000
0100
0000
0001
0000
0010
0000
0100
0000
1000
0000
0020
0030
,
0001
1000
0100
0001
0010
0100
0010
0001
,
1000
0100
0010
0200
1000
0000
0310
0000
,
0011
1010
0110
1001
,
1100
0000
0201
0300
0010
2000
0100
3000
,
0100
0000
0010
0000
0001
0000
0020
0030
1000
0000
0010
0000
0001
0000
1000
0000
,
0001
0000
0020
0030
1000
0000
0010
0000
0001
0000
1000
0000
0100
0000
0020
0000
,
0001
0130
1010
0011
,
1020
0000
0130
0000
0011
0000
1020
0030
,
1000
0000
0020
0030
0001
0000
0010
0000
1000
0000
0001
0000
1000
0000
0020
0030
,
0001
0000
0010
0000
1000
0000
0200
0300
0001
0000
1000
0000
0010
0000
0001
0000
,
1000
0010
0100
0001
1000
0010
0100
0010
,
0100
0000
0001
0000
0010
0000
0100
0000
1000
0000
0020
0030
0001
0000
1000
0000
,
0100
0001
0010
0100
2000
0010
3000
0010
,
0100
0001
0100
0010
0100
0001
0100
0010
,
1000
0100
0010
0001
1000
0100
0010
0001
,
2000
3000
0020
0000
0100
0030
1000
0000
,
0001
0000
0010
0000
0200
0000
1000
0300
,
0020
0000
0000
0000
0000
0000
0001
0000
0000
0030
0000
0000
0100
0000
0000
0000
,
1000
0010
0100
0020
,
1000
0030
0100
0000
0001
0000
0010
0000
,
0100
0000
1000
0000
0200
0000
0010
0300
,
1000
0000
0001
0100
0010
1000
0100
0010
;
