#TITLE:MAX 300;
#SUBTITLE:(Super-Max-Me Mix);
#ARTIST:Jondi & Spesh;
#TITLETRANSLIT:;
#SUBTITLETRANSLIT:;
#ARTISTTRANSLIT:;
#CREDIT:dominator;
#BANNER:max 300 super-max-me mix.png;
#BACKGROUND:max 300 super-max-me mix-bg.png;
#LYRICSPATH:;
#CDTITLE:Dance Dance Revolution Ultramix 2.png;
#MUSIC:MAX 300 Super-Max-Me Mix.mp3;
#OFFSET:-1.055;
#SAMPLESTART:12.950;
#SAMPLELENGTH:12.000;
#SELECTABLE:YES;
#DISPLAYBPM:140.000:300.000;
#BPMS:0.000=300.000,124.000=320.000,252.000=140.000,268.000=300.000,396.000=320.000;
#STOPS:;
#BGCHANGES:;

//---------------dance-single - Dominator's----------------
#NOTES:
     dance-single:
     Dominator's:
     Challenge:
     10:
     1.000,1.000,0.509,0.601,0.074: // measure 1
0000
0000
0000
0000
,  // measure 2
0000
0000
0000
0000
,  // measure 3
0000
0000
0000
0000
,  // measure 4
0000
0000
0000
0000
,  // measure 5
0000
0000
0000
0000
,  // measure 6
0000
0000
0000
0000
,  // measure 7
0000
0000
0000
0000
,  // measure 8
1100
0000
1000
0100
0010
0000
0010
0001
,  // measure 9
0100
0010
1000
0000
0101
0000
0010
0000
,  // measure 10
1100
0000
1000
0100
0010
0000
0100
0010
,  // measure 11
0001
1000
0010
0000
0110
0000
1000
0000
,  // measure 12
1100
0000
0100
1000
0010
0000
0100
0001
,  // measure 13
0010
0100
1000
0000
1100
0000
0010
0000
,  // measure 14
0101
0000
0010
1000
0100
0000
0010
0001
,  // measure 15
0100
1000
0100
0000
0110
0000
0001
0000
,  // measure 16
1100
0000
0012
0000
0000
1003
0100
0000
,  // measure 17
0120
0000
0000
0031
0100
0000
0001
1000
,  // measure 18
0010
0000
0201
0000
0000
0310
0100
0000
,  // measure 19
0120
0000
0000
1030
0001
0000
0001
0100
,  // measure 20
0010
0000
1000
0100
0000
0100
0010
0000
,  // measure 21
0001
0010
0000
0010
0100
0000
1000
0001
,  // measure 22
0100
0000
0001
0100
0000
0100
0010
0000
,  // measure 23
1000
0100
0000
1000
0010
0000
0010
0100
,  // measure 24
0001
0000
0021
0000
0000
0130
1000
0000
,  // measure 25
2100
0000
0000
3010
0100
0000
0100
0001
,  // measure 26
0010
0000
0210
0000
0000
1300
0001
0000
,  // measure 27
1002
0000
0000
0103
0010
0000
0010
1000
,  // measure 28
0100
0000
0010
0001
0000
0001
1000
0000
,  // measure 29
0001
0100
0000
0100
0010
0000
0010
1000
,  // measure 30
0001
0000
0010
0100
0000
0100
1000
0000
,  // measure 31
1000
0001
0000
0001
0010
0000
0001
0100
,  // measure 32
0010
1000
0100
0010
0001
0100
0010
0100
,  // measure 33
0001
0010
0001
0010
0001
0000
1000
0010
,  // measure 34
0100
0001
0010
0100
1000
0010
0100
0010
,  // measure 35
1000
0100
1000
0100
1000
0000
0001
0010
,  // measure 36
0100
1000
0010
0100
0001
0010
0100
0010
,  // measure 37
0001
0100
0001
0100
0001
0000
1000
0100
,  // measure 38
0010
0001
0100
0010
1000
0100
0010
0100
,  // measure 39
1000
0010
1000
0010
1000
0000
0010
0100
,  // measure 40
0001
0100
0001
0000
1000
0010
1000
0000
,  // measure 41
0010
0100
0010
0000
1000
0001
1000
0000
,  // measure 42
0010
1000
0010
0000
0100
0010
0100
0000
,  // measure 43
0010
0001
0010
0000
0010
1000
0010
0000
,  // measure 44
1000
0010
0100
0000
0001
0010
0100
0000
,  // measure 45
1000
0100
0010
0000
0001
0100
0010
0000
,  // measure 46
1000
0001
0100
0000
0001
1000
0100
0000
,  // measure 47
0010
0001
1000
0000
0010
1000
0001
0000
,  // measure 48
0101
0101
1100
1100
,  // measure 49
1001
1001
0101
0101
,  // measure 50
0010
1000
0100
0010
0001
0100
0010
1000
,  // measure 51
0001
0010
0100
1000
0010
0100
0001
0000
,  // measure 52
0101
0101
1010
1001
,  // measure 53
1100
0110
0011
1001
,  // measure 54
0100
0001
0010
0100
1000
0010
0100
0001
,  // measure 55
1000
0100
0010
0001
0100
0010
1000
0000
,  // measure 56
1010
0101
0011
1100
,  // measure 57
1001
1100
1001
0101
,  // measure 58
0010
1000
0001
0010
0100
1000
0010
0100
,  // measure 59
0001
1000
0100
0010
0001
0100
0010
0000
,  // measure 60
1010
0101
1001
1100
,  // measure 61
1001
0011
0110
1100
,  // measure 62
0010
0001
1000
0010
0100
0001
0010
0100
,  // measure 63
1000
0001
0100
0010
1000
0100
0010
0000
,  // measure 64
0110
0000
0001
0010
0100
0000
0010
0100
1000
0000
0001
0010
0000
1000
0100
0000
,  // measure 65
0110
0000
0001
1000
0100
0000
0010
0001
0100
0000
0010
1000
0000
0100
0010
0000
,  // measure 66
1100
0000
0010
0001
1000
0000
0010
1000
0001
0000
0010
0100
0000
0100
1000
0000
,  // measure 67
0011
0000
0100
1000
0001
0000
0010
0100
1000
0000
0001
1000
0000
0100
0010
0000
,  // measure 68
0012
0000
0103
0010
1000
0200
0000
0310
,  // measure 69
0002
0000
0013
0100
1000
0002
0000
0013
,  // measure 70
0200
0000
1300
0010
0100
0002
0000
0013
,  // measure 71
0200
0000
1300
0100
2000
0000
0100
0000
,  // measure 72
3002
0000
0013
0100
1000
0020
0000
0130
,  // measure 73
0002
0000
1003
0100
0010
0200
0000
1300
,  // measure 74
0020
0000
0130
0001
0010
0200
0000
1300
,  // measure 75
0020
0000
0130
0010
0200
0000
0010
0000
,  // measure 76
0302
0000
0013
0100
1000
0010
0100
0001
,  // measure 77
0010
0100
1000
0100
1000
0010
0100
0001
,  // measure 78
2000
0000
3010
0100
0001
0010
0100
1000
,  // measure 79
0010
0100
0001
0010
0100
1000
0100
0010
,  // measure 80
0002
0000
0103
0010
1000
0100
0010
0001
,  // measure 81
0010
0100
0010
0001
0100
0010
0100
0001
,  // measure 82
0020
0000
0130
1000
0001
0000
0010
0100
,  // measure 83
1000
0010
0100
0001
0010
0100
1000
0100
,  // measure 84
2000
0000
3002
0000
0013
0100
0010
0001
,  // measure 85
2000
0000
3020
0000
0130
0001
0100
0010
,  // measure 86
2000
0000
3200
0000
0310
0001
0010
0100
,  // measure 87
2000
3200
0302
0203
,  // measure 88
0320
0000
0032
0000
1003
0100
0001
0100
,  // measure 89
2000
0000
3020
0000
1030
0100
0010
0001
,  // measure 90
0020
0000
0230
0000
1300
0010
0100
0001
,  // measure 91
2000
3200
0320
0032
,  // measure 92
2003
0000
0100
0000
3001
0020
0000
0031
,  // measure 93
2000
0000
3010
0100
0001
0020
0000
0130
,  // measure 94
0020
0000
0031
1000
0010
0200
0000
0310
,  // measure 95
2000
3020
0230
0302
,  // measure 96
0023
0000
0130
1000
0001
0200
0000
0310
,  // measure 97
2000
0000
3020
0000
0001
0000
0130
0001
,  // measure 98
1000
0010
0000
0010
0100
0000
0100
0001
,  // measure 99
0000
0001
0010
0000
0010
0100
1000
0100
,  // measure 100
0010
0001
0010
0001
1000
0001
1000
0001
,  // measure 101
1000
0100
1000
0100
0010
0100
0010
0100
,  // measure 102
0010
0001
0010
0001
0100
0001
0100
0001
,  // measure 103
0100
0010
0100
0010
1000
0010
1000
0010
,  // measure 104
1000
0100
1000
0100
0010
0100
0010
0100
,  // measure 105
0010
0001
0010
0001
1000
0001
1000
0001
,  // measure 106
1000
0010
1000
0010
0100
0010
0100
0010
,  // measure 107
0100
0001
0100
0001
0010
0001
0010
0001
,  // measure 108
0010
0100
0010
0100
1000
0100
1000
0100
,  // measure 109
1000
0001
1000
0001
0100
0001
0100
0001
,  // measure 110
0100
0010
0100
0010
1000
0010
1000
0010
,  // measure 111
1000
0100
1000
0100
0010
0100
0010
0100
,  // measure 112
1000
0100
0010
0001
0100
0001
0010
0001
,  // measure 113
0100
0001
0100
0010
0100
0010
0100
0010
,  // measure 114
1000
0010
1000
0100
0010
0100
1000
0100
,  // measure 115
0010
0001
0010
0100
0010
0001
0010
0000
,  // measure 116
0001
0100
0010
0100
1000
0100
0010
0100
,  // measure 117
0001
0100
0010
0100
1000
0100
0010
0100
,  // measure 118
0001
1000
0100
1000
0001
1000
0010
1000
,  // measure 119
0001
1000
0100
1000
0001
1000
0010
1000
,  // measure 120
0001
0010
0100
0010
1000
0010
0100
0010
,  // measure 121
0001
0010
0100
0010
1000
0010
0100
0010
,  // measure 122
0001
1000
0010
1000
0001
0010
0100
0000
,  // measure 123
0100
1000
0001
0100
0001
1000
0100
0000
,  // measure 124
1000
0100
0010
0100
0001
0100
0010
0100
,  // measure 125
1000
0100
0010
0100
0001
0100
0010
0100
,  // measure 126
1000
0001
0010
0001
1000
0001
0100
0001
,  // measure 127
1000
0001
0010
0001
1000
0001
0100
0001
,  // measure 128
1000
0010
0100
0010
0001
0010
0100
0010
,  // measure 129
1000
0010
0100
0010
0001
0010
0100
0010
,  // measure 130
0200
0000
0300
2002
0000
0000
0000
0000
,  // measure 131
0000
3003
0000
0000
0000
0000
0000
0000
;
