#TITLE:Wonderbolt (feat. Prince Whateverer);
#SUBTITLE:;
#ARTIST:dBPony;
#TITLETRANSLIT:;
#SUBTITLETRANSLIT:;
#ARTISTTRANSLIT:;
#GENRE:Inspirational Rock;
#CREDIT:;
#BANNER:Wonderbolt.png;
#BACKGROUND:Wonderbolt-bg.png;
#LYRICSPATH:;
#CDTITLE:;
#MUSIC:Wonderbolt.mp3;
#OFFSET:0.956000;
#SAMPLESTART:36.431999;
#SAMPLELENGTH:15.000000;
#SELECTABLE:YES;
#BPMS:0.000000=170.000000
,236.000000=85.000000
;
#STOPS:
;
#BGCHANGES:;
#KEYSOUNDS:;
#ATTACKS:;

//---------------dance-single - ----------------
#NOTES:
     dance-single:
     :
     Easy:
     7:
     0.337081,0.383430,0.211305,0.096848,0.000000,268.000000,244.000000,24.000000,11.000000,0.000000,0.000000,0.337081,0.383430,0.211305,0.096848,0.000000,268.000000,244.000000,24.000000,11.000000,0.000000,0.000000:
0000
0000
0000
1001
,
1000
0010
1000
0001
,
0010
0001
0010
0100
,
0010
0110
0000
0110
,
0100
0100
1000
0100
,
0010
0001
1000
0010
,
0100
0001
1000
0100
,
0010
0110
0000
0110
,
0100
1000
0100
0010
,
0001
0000
0000
0001
0000
0000
0001
0000
,
0000
0001
0000
0000
0001
0000
0001
0000
,
1000
0000
0000
1000
0000
0000
1000
0000
,
0000
1000
0000
0000
1000
0000
1000
0000
,
0010
0000
0000
0010
0000
0000
0010
0000
,
0000
0010
0000
0000
0010
0000
0010
0000
,
0100
0000
0000
0100
0000
0000
0100
0000
,
0000
0100
0000
0000
0100
0000
0100
0000
,
0101
0000
0000
0101
0000
0000
0101
0000
,
0000
0101
0000
0000
0101
0000
0101
0000
,
0010
0000
0000
0010
0000
0000
0010
0000
,
0000
0010
0000
0000
0010
0000
0010
0000
,
1000
0000
0000
1000
0000
0000
1000
0000
,
0000
1000
0000
0000
1000
0000
1000
0000
,
0100
0000
0000
0100
0000
0000
0100
0000
,
0000
0100
0000
0000
0100
0000
0100
0000
,
0110
0000
0000
0110
0000
0000
0110
0000
,
0000
0110
0000
0000
0010
0000
0001
0000
,
0200
0000
0310
0100
,
0010
0100
0001
1000
,
1100
0000
0100
0100
,
0010
0001
0100
1000
,
0001
0010
1000
0001
,
0010
0010
0100
0100
,
1000
0000
1010
0010
,
0100
0001
0010
0100
,
1000
0001
1000
1000
,
0020
0130
0010
0100
,
0101
0000
0011
0010
,
0100
1000
0010
0100
,
0001
1000
0001
0001
,
1000
0001
1000
1000
,
0010
0000
0110
0100
,
0001
1000
0100
0010
,
0001
0100
0001
0100
,
0010
1000
0010
1000
,
0100
0010
0100
0010
,
0001
1000
0001
1000
,
0100
0100
1000
0010
,
0100
0100
0001
0010
,
0001
0100
1000
0100
,
0001
0010
1000
0010
,
0100
0010
0001
0100
,
0010
1000
0100
0010
,
0001
1001
1000
0010
,
0100
0001
0011
0011
,
0010
0100
0010
0100
,
1000
0010
1000
0010
,
0100
0001
0100
0001
,
0010
0100
0010
0100
,
0210
0000
0000
0010
0320
0000
0000
0100
,
0130
0000
0000
0010
0001
0000
0100
0010
,
2000
0000
0000
0001
3002
0000
0000
1000
,
1003
0000
0000
0001
0100
0100
0010
0000
,
2000
0000
0000
3010
0020
0000
0000
0130
,
0100
0000
0000
0010
1000
1000
0001
0000
,
0020
0000
0000
0031
0002
0000
0000
0103
,
0100
0000
0000
0010
1000
1000
0002
0000
,
0003
0000
0000
0000
;

//---------------dance-single - ----------------
#NOTES:
     dance-single:
     :
     Medium:
     12:
     0.486756,0.442419,0.510653,0.211305,0.000000,387.000000,329.000000,58.000000,24.000000,0.000000,0.000000,0.486756,0.442419,0.510653,0.211305,0.000000,387.000000,329.000000,58.000000,24.000000,0.000000,0.000000:
0000
0000
0000
0110
,
0100
1000
0100
0000
1000
0001
1000
0000
,
0001
0100
0001
0000
0100
0010
0100
0110
,
0000
0000
0110
0000
0010
1000
0010
0000
,
1000
0001
1000
0000
0001
0010
0001
0000
,
0010
0100
1000
0000
0010
0100
0001
0000
,
0100
0010
1000
0000
0001
1000
0010
0110
,
0000
0000
0110
0000
0100
0001
0100
0000
,
0001
0010
0001
0000
0010
0100
0010
0000
,
0100
0000
1000
0100
0000
1000
0100
0000
,
1000
0100
0000
1000
0100
0000
0010
0100
,
1000
0000
0001
0000
1000
0001
0000
0101
,
0000
0110
0000
1010
0000
0110
0000
0101
,
0000
0001
0000
0000
1000
0100
0010
0200
,
0000
0310
0000
0000
0001
0010
0100
0000
,
1100
0000
1000
0010
0000
0000
0100
0101
,
0000
1001
0000
1100
0000
0000
0010
0110
,
0000
1100
0000
0000
0100
0000
0010
0002
,
0000
0103
0000
0000
0001
0000
0010
0100
,
1000
0000
1010
0000
1000
0001
0000
0010
,
0000
0000
0100
0000
1000
0010
0000
0110
,
0000
0000
0100
0000
0001
1000
0000
1100
,
0000
0101
0000
0000
0100
1000
0000
0000
,
0010
1000
0000
0001
0000
1000
0000
1010
,
0000
0101
0000
0000
0001
0010
0000
0110
,
0000
0000
0100
0000
1000
0000
0010
0100
,
0000
0101
0000
0000
0001
0010
0100
1000
,
0001
0000
0101
0000
0100
0010
0100
0000
,
0010
0000
1010
0000
1000
0001
1000
1001
,
0000
0000
0001
0000
0010
0100
0000
0110
,
0000
1100
0000
1001
0000
0101
0000
0000
,
0210
0301
0110
1010
,
1200
0000
0310
0000
0100
0000
1000
1002
,
0000
0003
0011
0000
0010
0100
0010
0100
,
1000
0010
0000
1010
0000
0101
0000
0002
,
0000
1003
0000
0000
1010
0000
0101
0000
,
0021
0000
0130
0000
0010
0000
0001
1001
,
0000
0000
1000
0000
0010
0100
0000
0100
,
0010
0000
1000
0001
0000
1000
0000
2001
,
0000
3010
0000
0010
0110
0000
0110
0000
,
0102
0000
1003
0000
0001
0000
0010
0210
,
0000
1300
0000
0000
0100
1000
0010
0000
,
0110
0000
0100
0001
0000
0000
0001
1000
,
0100
0000
0010
0000
0100
0010
0100
0000
,
1000
0000
0001
0000
1000
0001
0100
0000
,
0010
0000
1000
0000
0010
1000
0001
0000
,
0010
0000
0100
0000
1000
0100
1000
0100
,
1000
0000
0001
0000
0100
0010
0100
0000
,
0010
0000
1000
0000
0001
0010
0001
0010
,
0000
0000
0110
0000
0100
1000
0100
1000
,
0000
0000
1001
0000
0001
0100
0001
0101
,
0000
0100
0010
0000
1000
0000
0020
0000
,
0130
0000
0010
0000
1000
0001
1000
0000
,
0100
0000
1001
0000
0001
0010
0001
0000
,
0010
0100
0010
0000
0100
1000
0100
0000
,
1100
0010
0101
0010
,
1100
0000
0001
0010
0000
0001
0010
0000
,
0101
1000
0011
1000
,
0100
0000
0010
0000
0100
0010
0100
0010
,
0200
0000
1000
1000
2300
0000
0010
0010
,
3020
0000
0100
0100
0130
0010
0100
0000
,
0200
0000
0001
0001
0302
0000
0010
0010
,
0023
0000
0100
0100
0130
0010
0100
0000
,
2000
0000
0001
0001
3002
0000
0100
0100
,
0203
0000
1000
1000
1300
0100
0010
0000
,
0200
0000
0001
0001
0302
0000
0010
0010
,
0023
0000
1000
1000
1030
0010
0002
0000
,
0103
0000
0000
0000
;

//---------------dance-single - ----------------
#NOTES:
     dance-single:
     :
     Hard:
     16:
     0.821322,0.825850,0.387392,0.017609,0.449023,653.000000,609.000000,44.000000,2.000000,0.000000,0.000000,0.821322,0.825850,0.387392,0.017609,0.449023,653.000000,609.000000,44.000000,2.000000,0.000000,0.000000:
0000
0000
0000
0110
,
0010
1000
0100
1000
0001
0100
0001
0100
,
0010
1000
0001
0010
0100
1000
0001
1001
,
0000
1000
1001
0000
0010
0010
0110
0000
,
0100
0000
0001
0000
0010
0000
0100
1000
0100
0000
1000
0100
0010
0000
0001
0000
,
0100
0010
1000
0100
1000
0010
0100
0001
,
0010
0100
1000
0010
0001
0010
0100
0110
,
0000
0100
0101
0000
0001
0001
1001
0000
,
1000
0000
0100
0000
0010
0000
0100
1000
0001
0000
0100
0001
0100
0001
0100
0000
,
0010
0100
0010
0100
0010
0000
0100
0010
0100
0010
0100
0000
0010
0100
0010
0100
,
0001
0000
1000
0001
1000
0001
1000
0000
0001
0000
0010
0000
0110
0000
0010
0000
,
0100
1000
0100
1000
0100
0000
1000
0100
1000
0100
1000
0000
0100
1000
0100
1000
,
0100
0000
0010
0100
0010
0100
0010
0000
0100
0000
0010
0000
0001
0000
0100
0000
,
0010
1000
0010
1000
0010
0000
1000
0010
1000
0010
1000
0000
0010
1000
0010
1000
,
0010
0000
0100
0010
0100
0010
0100
0000
0001
0000
0010
0000
0110
0000
0100
0000
,
1000
0100
1000
0100
1000
0000
0100
0010
0100
0010
0100
0000
0010
0001
0010
0001
,
0010
0000
0001
0100
0001
0100
0001
0000
0100
0000
0010
0000
1000
0000
0001
0000
,
0010
0100
0010
0100
0010
0000
0100
1000
0100
1000
0100
0000
1000
0001
1000
0001
,
1000
0000
0001
0100
0001
0100
0001
0000
0010
0000
0100
0000
0110
0000
0100
0000
,
1000
0001
1000
0001
1000
0000
0001
0010
0001
0010
0001
0000
0010
0100
0010
0100
,
0010
0000
0100
1000
0100
1000
0100
0000
1000
0000
0010
0000
0100
0000
0001
0000
,
1000
0001
1000
0001
1000
0000
0001
0100
0001
0100
0001
0000
0100
0010
0100
0010
,
0100
0000
0010
1000
0100
0010
0001
0000
1000
0001
0000
0000
1001
0000
0000
0000
,
1000
0100
1000
0100
0010
0000
0100
1000
0100
1000
0001
0000
0100
0001
0100
0001
,
0010
0000
0100
1000
0100
1000
0010
0000
0100
0000
0001
0000
1000
0000
0010
0000
,
0100
0010
1000
0001
0100
0000
0010
0100
0001
1000
0100
0000
0010
0001
1000
0100
,
0010
0000
0001
0010
0100
1000
0001
0000
0100
0000
0100
0000
0010
0000
0010
0000
,
1000
0010
0001
0010
1000
0100
0001
0100
,
1000
0010
0100
0001
1000
0001
0100
0110
,
0000
0010
0110
0000
0010
0010
1000
0100
,
0010
0000
0001
0000
0010
0000
0100
0010
0001
0000
0010
0100
1000
0000
0100
0000
,
1000
0001
0100
1000
0001
0010
1000
0001
,
0010
0010
0100
0100
1000
1000
0001
0101
,
0000
0100
0101
0000
0001
0001
0010
0100
,
1000
0000
0001
0000
1000
0000
0010
0000
0100
0010
1000
0001
0010
0100
1000
0000
,
1000
0100
1000
0100
0010
0001
0010
0001
,
0100
0001
0100
0001
0010
0010
0100
1100
,
0000
1000
1100
0000
0100
0100
0010
0001
,
1000
0000
0010
0000
1000
0000
0001
0000
0010
0001
0010
0001
1000
0000
0100
0000
,
1000
0010
1000
0010
0110
0100
0101
0001
,
0010
0100
1000
0010
0100
0001
1000
1001
,
0000
1000
1100
0000
0100
0010
0100
0010
,
0001
0000
0010
0000
0001
0000
1000
0000
0010
0000
1000
0000
0001
0000
0100
0010
,
0100
0010
1000
0100
0001
1000
0010
0001
,
0100
0010
0100
0001
0010
0001
1000
0100
,
0010
0010
0100
1000
0001
0001
0100
0010
,
1000
0000
1000
0000
0010
0000
0100
0001
0100
0000
0001
0100
0010
0000
0100
0000
,
0001
0010
0001
0100
0010
1000
0010
0100
,
0001
1000
0001
0100
0010
1000
0100
0110
,
0000
0010
0110
0000
0100
1000
0010
0110
,
0000
0100
0110
0000
0100
0001
0010
0210
,
0000
1300
0100
0010
0001
0100
0001
0010
,
0100
1000
0100
0001
1000
0010
0001
1001
,
0000
0001
1001
0000
1000
0010
1000
0010
,
0100
0000
0001
0000
0100
0000
0010
0000
1000
0001
1000
0000
0010
0100
0001
0000
,
0010
0100
0010
0100
1000
0100
1000
0100
,
0010
0001
0010
0001
0100
0010
0100
0010
,
1000
1000
1000
1000
0010
0010
0010
0010
,
0100
0000
0100
0000
0100
0000
0100
0000
0001
0100
0001
0100
0001
0100
0001
0100
,
1000
0100
0001
0101
1000
0010
0001
0011
,
0010
0000
0000
0000
1000
0000
0000
0000
0100
0000
0000
0000
0110
0000
0000
0000
0010
0000
0000
0000
0001
0000
0100
0010
0100
0000
0000
0000
0110
0000
0000
0000
,
0010
1000
0001
1001
0010
0001
1000
1001
,
1000
0000
0000
0000
0100
0000
0000
0000
0010
0000
0000
0000
0110
0000
0000
0000
0100
0000
0000
0000
1000
0000
0001
0100
0001
0000
0000
0000
0101
0000
0000
0000
,
0100
0010
1000
1010
1000
0001
0010
0011
,
0010
0000
0000
0000
0100
0000
0000
0000
1000
0000
0000
0000
1100
0000
0000
0000
0100
0000
0000
0000
0010
0000
0001
0010
0001
0000
0000
0000
0101
0000
0000
0000
,
0100
0010
1000
1001
0001
0010
0100
0110
,
0100
0000
0000
0000
1000
0000
0000
0000
0010
0000
0000
0000
0011
0000
0000
0000
0010
0000
0000
0000
1000
0000
0100
0001
0100
0000
0000
0000
0201
0000
0000
0000
,
1300
0000
0000
0000
;

//---------------dance-single - ----------------
#NOTES:
     dance-single:
     :
     Beginner:
     4:
     0.171056,0.294946,0.184892,0.052826,0.000000,136.000000,115.000000,21.000000,6.000000,0.000000,0.000000,0.171056,0.294946,0.184892,0.052826,0.000000,136.000000,115.000000,21.000000,6.000000,0.000000,0.000000:
0000
0000
0000
0000
,
0010
0000
0010
0000
,
0010
0000
0010
0000
,
0110
0000
0000
0000
,
1001
0000
0000
0000
,
1000
0000
1000
0000
,
1000
0000
1000
0000
,
1001
0000
0000
0000
,
0110
0000
0000
0000
,
0010
0000
0000
0010
,
0000
0000
0010
0000
,
0100
0000
0000
0100
,
0000
0000
0100
0000
,
1000
0000
0000
1000
,
0000
0000
1000
0000
,
0001
0000
0000
0001
,
0000
0000
0001
0000
,
0100
0000
0000
0100
,
0000
0000
0100
0000
,
0010
0000
0000
0010
,
0000
0000
0010
0000
,
1000
0000
0000
1000
,
0000
0000
1000
0000
,
0001
0000
0000
0001
,
0000
0000
0001
0000
,
0100
0000
0000
0100
,
0000
0000
0100
0010
,
0010
0000
0010
0000
,
0010
0000
0010
0000
,
0110
0000
0000
0000
,
1001
0000
0000
0000
,
1000
0000
1000
0000
,
1000
0000
1000
0000
,
1001
0000
0000
0000
,
0110
0000
0000
0000
,
0100
0000
0100
0000
,
0100
0000
0100
0000
,
0110
0000
0000
0000
,
1001
0000
0000
0000
,
0001
0000
0001
0000
,
0001
0000
0001
0000
,
1001
0000
0000
0000
,
0110
0000
0000
0000
,
0020
0000
0000
0000
,
2030
0000
0000
0000
,
3002
0000
0000
0000
,
0023
0000
0000
0000
,
0130
0000
0100
0000
,
1000
0000
1000
0000
,
0010
0000
0010
0000
,
0100
0000
0100
0000
,
0002
0000
0000
0000
,
2003
0000
0000
0000
,
3100
0000
0100
0000
,
0010
0000
0010
0000
,
0001
0000
0001
0000
,
1000
0000
1000
0000
,
0001
0000
0010
0000
,
0100
0000
1000
0000
,
1001
0000
1001
0000
,
0110
0000
0110
0000
,
1001
0000
1001
0000
,
0110
0000
0110
0000
,
1000
1000
0010
0010
,
0100
0100
0001
0001
,
0010
0010
0001
0001
,
1000
1000
0100
0100
,
1001
0000
0000
0000
;

//---------------dance-single - ----------------
#NOTES:
     dance-single:
     :
     Challenge:
     18:
     1.007471,0.973323,0.140870,0.079239,1.148970,801.000000,785.000000,16.000000,9.000000,0.000000,0.000000,1.007471,0.973323,0.140870,0.079239,1.148970,801.000000,785.000000,16.000000,9.000000,0.000000,0.000000:
// measure 0
0000
0000
0000
1100
,  // measure 1
0001
0010
0100
1000
0010
0100
1000
0100
,  // measure 2
0010
0000
1000
0000
0100
0000
0010
0001
1000
0000
0010
0100
0001
0000
1001
0000
,  // measure 3
0000
0000
0100
0000
0110
0000
0000
0000
1000
0000
0001
0000
0010
0001
0010
0000
,  // measure 4
0100
0000
1000
0000
0001
0100
0010
0000
1000
0100
0001
0100
0010
0001
1000
0000
,  // measure 5
1001
0001
0100
0010
0100
1000
0001
0010
,  // measure 6
1000
0000
0010
0000
0100
0000
0001
0010
0100
0000
0100
1000
0010
0000
0110
0000
,  // measure 7
0000
0000
0001
0000
2001
0000
0000
0000
3100
0000
0010
0000
0100
1000
0200
0000
,  // measure 8
0001
0000
0310
0000
0001
1000
0010
0000
0100
1000
0100
0010
1000
0100
0010
0000
,  // measure 9
0001
0010
0001
0010
0001
0000
1000
0100
1000
0100
1000
0000
0001
1000
0001
1000
,  // measure 10
0001
0000
0100
0010
0100
0010
0100
0000
0001
0100
0010
1000
0001
0000
0010
0000
,  // measure 11
0100
1000
0010
0100
0001
0000
0010
0100
1000
0001
1000
0000
0100
0001
0100
0010
,  // measure 12
0001
0000
1000
0010
0100
1000
0100
0000
0010
1000
0100
0010
1000
0010
0001
0000
,  // measure 13
1000
0001
0100
0010
1000
0000
0001
0010
0100
1000
0010
0000
0001
0010
0100
0001
,  // measure 14
1000
0000
0100
0010
0001
0100
0010
0000
0100
1000
0100
0010
1000
0001
0010
0000
,  // measure 15
0100
1000
0010
0100
1000
0000
1000
0100
0010
1000
0100
0000
0001
0100
1000
0001
,  // measure 16
0100
0000
0010
0100
1000
0100
0001
0000
1000
0100
0001
0100
0010
0001
1000
0000
,  // measure 17
0010
0100
0001
1000
0100
0000
1000
0001
0010
0100
1000
0000
0001
1000
0010
1000
,  // measure 18
0100
0000
1000
0100
0010
0001
0100
0001
0100
1000
0100
0001
0010
0100
1000
0000
,  // measure 19
1000
0001
0100
0001
0010
0000
0010
0100
1000
0001
0100
0000
0001
0100
0010
1000
,  // measure 20
0001
0000
0010
0100
0010
0001
1000
0000
0001
0010
1000
0010
0001
0100
0010
0000
,  // measure 21
1000
0001
0100
0001
0010
0000
0100
0001
0100
0010
0001
0000
1000
0010
0100
0001
,  // measure 22
0010
0000
0100
0010
0001
0100
0010
0000
1000
0001
0010
0100
1000
0001
0100
0000
,  // measure 23
0010
0100
1000
0100
0001
0000
1000
0100
0001
0100
0010
0000
0100
1000
0001
0100
,  // measure 24
0010
0000
0100
0001
1000
0100
0010
0000
0100
1000
0001
1000
0010
0000
1000
0010
,  // measure 25
0100
0001
1000
0000
0001
0010
0001
0010
0100
0000
0100
1000
0100
1000
0001
0000
,  // measure 26
0001
0010
0100
0010
0100
0000
0010
0100
1000
0000
0100
1000
0010
0000
0001
0010
,  // measure 27
0100
0000
0001
0000
1000
0000
0010
0000
1000
0001
0010
0000
0010
0100
1000
0000
,  // measure 28
1000
0100
1000
0001
0100
0000
0100
0001
1000
0100
1000
0100
0010
0000
0011
0000
,  // measure 29
0000
0000
1000
0000
0001
0000
1000
0000
0010
0000
0100
0000
1000
0000
0100
0001
,  // measure 30
1000
0000
0100
1000
0001
0000
1000
0010
0100
0010
1000
0001
0010
0100
0010
0000
,  // measure 31
0011
0100
1000
0001
0011
0010
0001
0100
,  // measure 32
1100
0000
0100
0000
0010
0000
1000
0000
0001
0010
0001
1000
0100
0000
1100
0000
,  // measure 33
0001
1000
2010
0001
3100
1000
0100
0010
,  // measure 34
0011
0000
1010
0000
0001
0100
0010
0100
1000
0100
0010
1000
0001
0010
0100
0000
,  // measure 35
0001
0000
1000
0000
0010
0000
0001
1000
0010
0000
1000
0001
0010
0000
1000
0010
,  // measure 36
0100
1000
0001
0100
0010
0000
0100
0001
0100
1000
0100
0000
0010
0000
1010
0000
,  // measure 37
0000
0000
1000
0000
0010
0000
0100
0000
1000
0000
0100
0000
0001
0000
1000
0100
,  // measure 38
0010
0000
0001
1000
0010
0100
0010
0000
0010
1000
0001
0000
0010
0100
0010
0001
,  // measure 39
1000
0001
0100
0000
0010
0000
1000
0000
0100
1000
0010
0000
0001
0010
0100
0000
,  // measure 40
0001
0010
1000
0010
0100
0000
1000
0001
0100
0010
0100
0000
0010
1000
0100
0001
,  // measure 41
0100
0010
0001
0000
0100
0000
1000
0000
0100
0000
0001
1000
0100
0000
0010
0001
,  // measure 42
0010
0001
0010
0000
1000
0000
0001
0100
0010
0001
1000
0010
0100
0000
1010
0000
,  // measure 43
0100
0001
1000
0100
0020
0001
0100
1030
,  // measure 44
0001
0100
1000
0001
0100
0010
0100
1000
,  // measure 45
0100
0001
0010
0100
1000
0010
0100
0001
,  // measure 46
0010
0100
0010
0001
1000
0010
0100
0000
0010
0100
1000
0100
0010
1000
0001
0000
,  // measure 47
1000
0100
0010
0100
0001
0100
0010
0001
,  // measure 48
1000
0000
0010
0000
0100
0000
0010
1000
0010
0100
0001
1000
0100
0000
0010
0001
,  // measure 49
0010
0001
0010
0000
0100
1000
0001
0000
0100
1000
0100
0010
1000
0000
0010
1000
,  // measure 50
0010
1000
0010
0000
1000
0000
0001
0000
0010
0100
0001
0100
0010
0000
0001
0010
,  // measure 51
0001
1000
0010
0100
0010
0000
0100
0000
1000
0000
0001
0000
0010
0000
0100
0000
,  // measure 52
0001
0000
1000
0000
0100
0000
0010
0001
0010
0100
0001
0000
0100
0010
0001
1000
,  // measure 53
0010
0100
1000
0100
0001
0010
0100
1000
,  // measure 54
0001
0000
0100
0000
0010
0000
0100
0010
1000
0100
0001
0000
0100
0010
0001
1000
,  // measure 55
0020
0001
0100
1030
2000
0100
0010
3001
,  // measure 56
0002
0010
1000
0103
0200
1000
0001
0310
,  // measure 57
0010
1000
0010
1000
0010
1000
0010
1000
0001
0100
0001
0100
0001
0100
0001
0100
,  // measure 58
0010
0100
0010
0100
0001
1000
0001
1000
0001
0010
0100
0010
0100
1000
0001
0100
,  // measure 59
0010
1000
0001
0100
0010
0000
0100
0001
0010
0100
1000
0000
1000
0010
0100
0010
,  // measure 60
0001
0000
0010
0100
0010
1000
0100
0000
0100
0010
0001
0100
0010
1000
0100
0010
,  // measure 61
0001
0001
0100
0010
1000
0000
1000
0010
0100
1000
0100
0000
0010
1000
0100
0010
,  // measure 62
0100
0000
0001
0100
0010
0001
1000
0000
0010
0100
1000
0100
0001
0010
1000
0010
,  // measure 63
1000
0001
0100
0010
0100
0010
0001
0010
0100
0001
0100
1000
0100
0010
0001
0100
,  // measure 64
0010
0001
0010
0100
0001
1000
0100
0010
1000
0010
0100
0010
0100
1000
0010
0010
,  // measure 65
1000
0010
0001
0010
0100
0001
1000
0010
0100
0001
1000
0100
1000
0010
0100
1000
,  // measure 66
0100
0010
0001
0010
1000
0100
0010
1000
0010
0100
0010
0001
1000
0001
0200
0000
,  // measure 67
0310
0000
0000
0000
;
