#TITLE:TSUGARU(APPLE MIX);
#SUBTITLE:"Apple" Special;
#ARTIST:RevenG VS DE-SIRE;
#TITLETRANSLIT:;
#SUBTITLETRANSLIT:;
#ARTISTTRANSLIT:;
#CREDIT:dominator;
#BANNER:TSUGARU(APPLE MIX).png;
#BACKGROUND:TSUGARU(APPLE MIX)-bg.png;
#LYRICSPATH:;
#CDTITLE:./CDTITLES/DDRMAX2 -Dance Dance Revolution 7thMIX-.PNG;
#MUSIC:TSUGARU(APPLE MIX).mp3;
#OFFSET:-0.048;
#SAMPLESTART:18.920;
#SAMPLELENGTH:15.000;
#SELECTABLE:YES;
#DISPLAYBPM:165.000;
#BPMS:0.000=165.000,232.000=155.840,236.000=130.910,240.000=126.760,242.000=111.110,243.000=92.780,244.000=80.900;
#STOPS:;
#BGCHANGES:;

//---------------dance-double - ----------------
#NOTES:
     dance-double:
     :
     Challenge:
     8:
     0.460,0.457,0.096,0.075,0.165:
00000000
00000000
00000000
00000000
,
00000000
00000000
00000000
00000000
,
00000000
00000000
00000000
00000000
,
00000000
00000000
00000000
00000000
,
00000001
00000001
00000001
00000001
,
00000100
00000000
00000100
00000000
00000100
00000000
00000100
00001000
,
00010000
00010000
00010000
00010000
,
01000000
00000000
01000000
00000000
01000000
00000000
01000000
10000000
,
00100000
00100000
00100000
00100000
,
00010000
00000000
00010000
00000000
00010000
00000000
00010000
00001000
,
00000010
00000000
00000001
00000100
00000001
00000000
00000100
00001000
,
00000100
00000000
00001000
00010000
00001000
00000000
00010000
00100000
,
00010000
00000000
00100000
10000000
00100000
00000000
10000000
01000000
,
00000000
00010000
00000000
10000000
01000000
00000000
01000000
00010000
,
00000000
00001000
00000000
00000010
00000001
00000000
00000001
00000100
,
00000000
00000100
00001000
00000100
00000000
00010000
00001000
00010000
,
00000000
01000000
00000000
01000000
00000000
10000000
00100000
10000000
,
00100000
00000000
10000000
01000000
10000000
00000000
01000000
00010000
,
01000000
00000000
00010000
00001000
00010000
00000000
00001000
00000100
,
00000000
00000001
00000100
00000001
00000000
00000001
00000010
00000001
,
00000000
00000010
00000000
00001000
00000000
00010000
00001000
00010000
,
00001000
00010000
01000000
10000000
,
01000000
00010000
00001000
00000010
,
00000001
00000010
00001000
00010000
,
00100000
00000000
00000000
00100000
10000000
00000000
00000000
00000000
01000000
00000000
00000000
01000000
00010000
00000000
00000000
00000000
,
00001000
00000000
00000000
00001000
00000100
00000000
00000000
00000000
00000001
00000000
00000000
00000001
00000010
00000000
00000000
00000000
,
00001000
00000000
00000000
00001000
00010000
00000000
00000000
00000000
00100000
00000000
00000000
00100000
10000000
00000000
00000000
00000000
,
01000000
00000000
00000000
01000000
00010000
00000000
00000000
00000000
00001000
00000000
00000000
00001000
00000100
00000000
00000000
00000000
,
00000001
00000000
00000000
00000100
00001000
00000000
00000000
00000000
00010000
00000000
00000000
00001000
00010000
00000000
00000000
00000000
,
00010000
00000000
00000000
00100000
10000000
00000000
00000000
00000000
01000000
00000000
00000000
10000000
01000000
00000000
00000000
00000000
,
01000000
00000000
00000000
00010000
00001000
00000000
00000000
00000000
00001000
00000000
00000000
00010000
00001000
00000000
00000000
00000000
,
00000010
00000000
00000000
00000001
00000100
00000000
00000000
00000000
00000100
00000000
00000000
00000001
00000100
00000000
00000000
00000000
,
00000001
00000000
00000000
00000100
00001000
00000000
00000000
00000000
00010000
00000000
00000000
00000000
00010000
00000000
00000000
00000000
,
00010000
00000000
00000000
01000000
10000000
00000000
00000000
00000000
10000000
00000000
00000000
00000000
10000000
00000000
00000000
00000000
,
10000000
00000000
00000000
00100000
00010000
00000000
00000000
00000000
00001000
00000000
00000000
00000000
00001000
00000000
00000000
00000000
,
00001000
00000000
00000000
00000010
00000100
00000000
00000000
00000001
00001000
00000000
00000000
00000100
00000010
00000000
00000000
00000001
,
00000100
00001000
00010000
01000000
,
00010000
00001000
00000100
00001000
,
00010000
00100000
10000000
00100000
,
00010000
00001000
00011000
00000000
,
00000000
00001000
00000010
00000000
00000001
00000000
00000001
00000000
,
00000000
00000100
00001000
00000000
00010000
00001000
00010000
00000000
,
00000000
00100000
10000000
00000000
01000000
10000000
01000000
00010000
,
00000000
00001000
00000010
00000000
00000000
00000001
00000000
00000100
,
00000001
00000100
00001000
00000000
00000100
00001000
00010000
00000000
,
00001000
00010000
00100000
00000000
00010000
00100000
10000000
00000000
,
00100000
10000000
01000000
00000000
10000000
01000000
00010000
00001000
,
00000000
00010000
00000000
00001000
00000000
00000010
00000001
00000000
,
00001001
00000000
00000000
00001100
00000000
00000000
00000110
00000000
,
00000010
00000000
00000000
00000001
00000100
00000000
00000000
00000000
00001000
00000000
00000000
00000000
00001000
00000000
00000000
00010000
,
00100000
10000000
00010000
01000000
,
00100000
00000000
00000000
10000000
01000000
00000000
00000000
00000000
00010000
00000000
00000000
00000000
00010000
00000000
00000000
00001000
,
00000010
00000001
00001000
00000100
,
00000010
00000000
00000000
00000001
00000100
00000000
00000000
00000000
00000001
00000000
00000000
00000000
00001000
00000000
00000000
00010000
,
00100000
10000000
00010000
01000000
,
00100000
00000000
00000000
10000000
01000000
00000000
00000000
00000000
10000000
00000000
00000000
00000000
00010000
00000000
00000000
00000000
,
00001000
00000000
00011000
00000000
00001010
00000000
00000000
00011000
,
00000000
01010000
00000000
10000000
01000000
00000000
00010000
00000000
,
00022000
00000000
00000000
00000000
00000000
00000000
00033000
00001000
,
00000020
00000000
00000000
00000000
00000000
00000000
00000030
00000001
,
00000200
00000000
00000000
00000000
00002300
00000000
00000000
00000000
00023000
00000000
00000000
00000000
01030000
00000000
00100000
00010000
,
02000000
03000000
00000000
00000000
;

//---------------dance-single - Apple mix----------------
#NOTES:
     dance-single:
     Apple mix:
     Challenge:
     10:
     0.757,0.817,0.427,0.053,0.661:
0000
0000
0000
0000
,
0000
0000
0000
0000
,
0000
0000
0000
0000
,
0000
0000
0000
0000
0000
0000
0000
0000
0000
0000
0000
0000
0000
0000
0000
0010
,
1000
0101
1100
0011
,
1000
0000
0100
0000
1000
0000
0100
0000
1000
0000
0100
0000
1000
0000
0001
1000
,
0100
0010
0100
0010
0100
0010
0100
0010
,
0001
0000
1000
0000
0010
0000
1000
0000
0010
0000
1000
0000
0010
0000
1000
0001
,
0010
0100
0010
0100
0010
0100
1000
0001
,
0100
0001
0100
0001
0100
0001
0100
0010
,
1000
0000
0101
1000
1000
0000
1000
0100
,
0010
0000
0000
0000
0001
1000
0010
0000
0100
0000
0000
0000
1010
0000
0001
0000
,
1100
0000
0000
0000
0010
0001
1000
0000
0010
0000
0000
0000
0010
0000
0100
0000
,
0010
0000
1000
0001
0010
0000
0001
0000
0010
0000
0000
0000
0010
0000
0100
0000
,
0010
0000
0001
1000
0010
0000
0100
0000
0001
0000
0000
0000
1001
0000
1100
0000
,
0000
0001
1000
0100
1000
0001
0100
1000
,
0100
0000
0010
1000
0001
0000
1000
0000
0100
0000
0010
0001
0010
0001
1000
0100
,
0010
0000
0100
0000
1000
0000
0100
0000
0010
0000
0100
0000
0001
0100
0010
0100
,
1000
0000
0001
0000
1000
0000
0100
0000
0010
0000
0100
0000
0010
0001
1000
0001
,
0010
0100
0010
0001
1000
0010
0100
0010
,
1000
0001
1000
0000
0100
0000
0010
0000
0001
0000
0100
0000
0010
0000
1000
0000
,
0002
1000
0100
1000
,
0010
2003
0010
0001
,
0100
0001
0010
3100
,
1000
0000
0000
0100
1000
0000
0000
0001
0100
0000
0000
0010
0100
0000
0000
1000
,
0001
0000
0000
0010
0100
0000
0000
0010
0001
1000
0100
1000
0100
0000
0000
1000
,
0001
0000
0000
1000
0001
0100
0010
0100
0010
0000
0000
1000
0001
0010
0001
0010
,
0100
0000
0000
1000
0100
1000
0001
0100
0001
0000
0000
1000
0010
1000
0001
0010
,
0001
0000
0000
1000
0100
1000
0001
0010
0001
0000
0000
1000
0010
1000
0001
0100
,
0001
0000
0000
1000
0001
0010
0001
1000
0010
0000
0000
0100
0001
1000
0100
1000
,
0001
0000
0000
0100
0001
0000
0000
1000
0100
0000
0000
0010
0001
0000
0000
1000
,
0010
0000
0000
0100
0010
0000
0000
1000
0001
0000
0000
0010
0100
0000
1000
0000
,
1001
0000
0000
0100
0010
0000
0000
1000
0010
0000
0000
0001
0010
0000
0001
0000
,
1100
0000
0000
0001
0100
0000
0000
0010
1000
0000
0000
0001
0010
0000
0001
0000
,
1001
0000
0000
0100
1000
0000
0000
0000
0101
0000
0000
0010
1000
0000
0000
0000
,
1100
1001
0101
1010
,
0100
0001
0100
0010
1000
0001
0100
0000
0000
0010
1000
0001
,
0100
0001
1000
0100
1000
0001
0100
0000
0000
0010
1000
0001
,
0010
0001
0010
0100
1000
0001
0100
0001
1000
0100
1000
0001
,
0010
0001
1000
0010
1000
0001
0100
0000
0000
0000
0000
0000
,
1100
0000
0001
0000
0001
0000
0000
0010
0100
0000
1000
0000
0100
0000
0010
0001
,
1000
0000
0001
0000
0100
0000
0010
1000
0001
0000
0010
0000
0100
0000
1000
0001
,
0100
0000
0001
1000
0100
0000
0010
0001
1000
0000
0010
1000
0001
0000
0100
0010
,
1000
0001
0100
0001
1000
0100
0010
0100
,
1000
0000
0001
0010
0100
0000
1000
0000
0001
0000
0100
0010
1000
0000
0001
0000
,
0010
0000
0100
1000
0001
0000
0100
0000
0010
0000
1000
0001
0010
0000
0100
0000
,
0010
0000
0001
1000
0010
0000
1000
0001
0100
0000
0001
1000
0100
0000
1000
0001
,
0010
0100
1000
0001
0100
0001
1000
0010
,
0101
0000
0000
1000
0010
0000
1010
0000
0000
0001
0010
0000
0011
0000
0000
1000
,
0010
0000
0000
0100
0001
0000
0000
1000
0100
0000
0000
0010
0001
0000
0000
1000
,
0010
0000
0000
0000
0110
0000
0000
0000
1001
0000
0000
0000
1100
0000
0000
1000
,
0100
0000
0000
0010
0001
0000
0000
1000
0010
0000
0000
0100
0001
0000
0000
0001
,
1000
0001
0010
0001
1000
0010
0100
0001
,
1100
0000
0000
0001
0100
0000
0101
0000
0000
0000
0000
1000
0001
0000
0000
0000
,
0011
0000
0000
1000
0010
0000
1010
0000
0000
0000
0000
0100
0010
0000
0000
0000
,
1010
0000
0000
0100
0001
0000
1100
0000
0000
0000
0000
0001
1000
0000
0000
1000
,
0001
0000
0011
0000
1100
0000
0000
0110
,
0000
0011
0000
1001
1100
0000
0110
0000
,
0012
0000
0000
0000
0000
0000
0000
1000
,
2003
0000
0000
0000
0000
0000
0000
3001
,
0100
0000
0000
0000
1001
0000
0000
0000
1100
0000
0000
0000
0110
0000
0001
1000
,
0200
0300
0000
0000
;
