#TITLE:She's An Alarm Clock;
#SUBTITLE:;
#ARTIST:Omnipony;
#TITLETRANSLIT:;
#SUBTITLETRANSLIT:;
#ARTISTTRANSLIT:;
#GENRE:Dubstep;
#CREDIT:;
#BANNER:She's An Alarm Clock.png;
#BACKGROUND:She's An Alarm Clock-bg.png;
#LYRICSPATH:;
#CDTITLE:;
#MUSIC:She's An Alarm Clock.mp3;
#OFFSET:-11.308882;
#SAMPLESTART:22.568237;
#SAMPLELENGTH:11.294121;
#SELECTABLE:YES;
#BPMS:0.000000=170.000000
;
#STOPS:
;
#BGCHANGES:;
#KEYSOUNDS:;
#ATTACKS:;

//---------------dance-single - ----------------
#NOTES:
     dance-single:
     :
     Hard:
     12:
     0.462547,0.553867,0.083288,0.333153,0.635073,311.000000,303.000000,8.000000,32.000000,0.000000,0.000000,0.462547,0.553867,0.083288,0.333153,0.635073,311.000000,303.000000,8.000000,32.000000,0.000000,0.000000:
// measure 0
1001
0000
0000
1000
0000
1000
0001
0000
0000
0100
0000
0100
,  // measure 1
0010
0000
0000
1000
0000
1000
0100
0000
0000
0010
0000
0010
,  // measure 2
0100
0000
0100
1000
0000
1000
0001
0000
0000
0100
0000
0000
,  // measure 3
0020
0030
0220
0330
,  // measure 4
0100
0000
0000
0001
0000
0001
1000
0000
0000
0100
0000
0100
,  // measure 5
0010
0000
0000
0100
0000
1000
0100
0000
0000
1000
0000
0001
,  // measure 6
0100
0000
0100
0010
0000
0010
0100
0000
0100
0001
0010
0100
,  // measure 7
2000
0000
0000
0001
0000
0000
0002
0000
0000
3003
0000
0001
,  // measure 8
0100
0000
0000
0010
1000
0010
1000
0000
0000
0001
0010
0001
,  // measure 9
0010
0000
0000
0100
1000
0100
1000
0000
0000
0001
0100
0001
,  // measure 10
0100
0000
0100
0010
0000
0010
2000
0000
0000
0001
0000
0000
,  // measure 11
3020
0000
0100
0000
,  // measure 12
0130
0000
0000
0001
0100
0001
0100
0000
0000
0010
1000
0010
,  // measure 13
1000
0000
0000
0001
0010
0001
0010
0000
0000
0100
1000
0100
,  // measure 14
1000
0001
1000
0010
0100
0010
2000
0000
0000
0000
0000
0000
,  // measure 15
3001
0000
1000
0100
0000
1000
0001
0010
0001
1000
0010
1000
,  // measure 16
0002
0000
0010
0000
,  // measure 17
0023
0000
0100
0000
,  // measure 18
0230
0000
1000
0000
,  // measure 19
2300
0000
0001
0000
,  // measure 20
3002
0000
0100
0000
,  // measure 21
2003
0000
0010
0000
,  // measure 22
3002
0000
0100
0000
,  // measure 23
2003
0000
0010
0000
,  // measure 24
3001
0000
0000
0101
0000
0000
0010
1000
0010
1000
0000
0000
,  // measure 25
1100
0000
0000
0011
0000
0000
0100
1000
0100
1000
0000
1000
,  // measure 26
0001
0000
0001
0100
0000
0100
0010
0000
0000
1000
0100
0010
,  // measure 27
0002
0000
1000
0000
,  // measure 28
1003
0000
0000
1010
0000
0000
0010
0100
0010
0100
0000
0000
,  // measure 29
0101
0000
0000
1010
0000
0000
1000
0001
1000
0001
0000
0001
,  // measure 30
0010
0000
0010
0100
0000
0100
1000
0000
1000
0100
0010
0001
,  // measure 31
2000
0010
0002
0003
,  // measure 32
3001
0000
0001
0100
0000
0100
0010
0000
0010
1000
0000
1000
,  // measure 33
0001
0000
0001
0010
0000
0010
0100
0000
0100
1000
0000
1000
,  // measure 34
0001
0000
1000
0001
0000
1000
0002
0000
0000
0103
0000
0000
,  // measure 35
0020
0000
0130
0000
,  // measure 36
0001
0000
0001
0010
0000
0010
0100
0000
0100
1000
0000
1000
,  // measure 37
0010
0000
0010
0100
0000
0100
0001
0000
0001
1000
0000
1000
,  // measure 38
0100
0000
1000
0001
0000
1000
0010
0000
0100
0001
0000
0100
,  // measure 39
0010
0000
0100
0010
0000
0100
0010
0000
0100
0010
0100
0010
,  // measure 40
0100
0000
0100
0001
0000
0001
0100
0000
0100
0001
0000
0001
,  // measure 41
1000
0000
1000
0001
0000
0001
1000
0000
1000
0001
0000
0001
,  // measure 42
0010
0000
0010
0001
0000
0001
0010
0000
0010
0001
0000
0001
,  // measure 43
0100
0000
0100
0010
0000
0010
0100
0000
0100
0010
0000
0010
,  // measure 44
1000
0000
1000
0100
0000
0100
0010
0000
0010
0001
0000
0001
,  // measure 45
0100
0000
0100
0010
0000
0010
1000
0000
1000
0001
0000
0001
,  // measure 46
0010
0000
0010
0100
0000
0100
0010
0000
0010
0001
0000
0001
,  // measure 47
1000
0000
1000
0010
0000
0010
0100
0000
0100
0001
0000
0001
,  // measure 48
2000
0000
0100
0000
,  // measure 49
3002
0000
0010
0000
,  // measure 50
2003
0000
0010
0000
,  // measure 51
3002
0000
0100
0000
,  // measure 52
2003
0000
3020
0000
,  // measure 53
0230
0000
0302
0000
,  // measure 54
0023
0000
0230
0000
,  // measure 55
2300
0000
0001
0000
,  // measure 56
3000
0000
0000
0000
;

//---------------dance-single - ----------------
#NOTES:
     dance-single:
     :
     Medium:
     7:
     0.301920,0.408112,0.458085,0.530962,0.000000,203.000000,159.000000,44.000000,51.000000,0.000000,0.000000,0.301920,0.408112,0.458085,0.530962,0.000000,203.000000,159.000000,44.000000,51.000000,0.000000,0.000000:
0010
1000
0101
0010
,
0100
0001
1001
0100
,
0110
0110
1001
0000
,
0210
0000
0001
0000
,
0310
1000
1100
1000
,
0001
0010
0110
0100
,
1001
0110
2001
0000
,
3020
0100
0230
0000
,
0301
0100
1010
0010
,
0100
0001
1001
0100
,
0110
0110
1001
0000
,
0002
0000
1003
0000
,
0010
1000
1100
1000
,
0001
0100
0110
0010
,
0110
0110
1001
0100
,
0020
0000
0100
0100
,
0230
0000
0001
0000
,
0302
0000
1000
0000
,
2003
0000
0100
0000
,
3200
0000
0010
0000
,
0320
0000
0001
0000
,
0032
0000
1000
0000
,
2003
0000
0010
0000
,
3020
0000
0100
0000
,
0130
0110
0001
1001
,
0100
0011
0100
1100
,
0001
1000
0110
0010
,
0200
0000
0310
0000
,
0100
0101
0010
1010
,
0001
0110
1000
0011
,
0100
1000
1100
0000
,
0002
0000
1000
0000
,
1003
1010
0100
0101
,
0010
1001
0100
0110
,
0001
1000
0110
0000
,
2002
0003
0010
0000
,
3010
0101
0010
1010
,
0001
0011
0100
1100
,
0001
1000
0110
0110
,
2001
0001
0001
3001
,
0002
0000
0203
0000
,
0320
0000
2030
0000
,
3020
0000
0230
0000
,
0302
0000
2003
0000
,
3200
0000
0320
0000
,
0032
0000
0203
0000
,
0320
0000
2030
0000
,
3200
0000
0320
0000
,
0032
0000
0023
0000
,
0230
0000
2300
0000
,
3020
0000
0230
0000
,
0302
0000
2003
0000
,
3200
0000
0320
0000
,
0032
0000
0203
0000
,
2300
0000
3200
0000
,
0302
0000
0023
0000
,
0030
0000
0000
0000
;

//---------------dance-single - ----------------
#NOTES:
     dance-single:
     :
     Easy:
     5:
     0.187398,0.320660,0.093699,0.333153,0.000000,126.000000,117.000000,9.000000,32.000000,0.000000,0.000000,0.187398,0.320660,0.093699,0.333153,0.000000,126.000000,117.000000,9.000000,32.000000,0.000000,0.000000:
1000
0000
0100
0000
,
0010
0000
0001
0000
,
1000
0001
1001
0000
,
0020
0000
0130
0000
,
0001
0000
0010
0000
,
0100
0000
1000
0000
,
0010
0100
0110
0000
,
0200
0000
0310
0000
,
1000
0000
0100
0000
,
0010
0000
0001
0000
,
1000
0001
1001
0000
,
0002
0000
1003
0000
,
0010
0000
0100
0000
,
0001
0000
1000
0000
,
0100
0010
0110
0000
,
0002
0000
1000
1000
,
2003
0000
0000
0000
,
3002
0000
0000
0000
,
0203
0000
0000
0000
,
0320
0000
0000
0000
,
2030
0000
0000
0000
,
3200
0000
0000
0000
,
0320
0000
0000
0000
,
0032
0000
2000
3003
,
0010
0010
0100
0100
,
0001
0001
1000
1000
,
0100
0010
0110
0000
,
0002
0000
1003
0000
,
0001
0001
0100
0100
,
0010
0010
1000
1000
,
0001
1000
1001
0000
,
0200
0000
0310
0000
,
0100
1000
0100
1000
,
0010
0100
0010
0100
,
0001
1000
1001
0000
,
2000
0000
3001
0000
,
0010
0100
1000
0100
,
0010
0001
1000
0010
,
0100
0100
0110
0010
,
0100
0100
0010
0010
,
2001
0000
0000
0000
,
3002
0000
0000
0000
,
0203
0000
0000
0000
,
0320
0000
0000
0000
,
2030
0000
0000
0000
,
3002
0000
0000
0000
,
0023
0000
0000
0000
,
0230
0000
0000
0000
,
2300
0000
0000
0000
,
3200
0000
0000
0000
,
0302
0000
0000
0000
,
0203
0000
0000
0000
,
0320
0000
0000
0000
,
0032
0000
0000
0000
,
2003
0000
0000
0000
,
3020
0000
0000
0000
,
0030
0000
0000
0000
;

//---------------dance-single - ----------------
#NOTES:
     dance-single:
     :
     Beginner:
     3:
     0.116009,0.200412,0.010411,0.031233,0.000000,78.000000,77.000000,1.000000,3.000000,0.000000,0.000000,0.116009,0.200412,0.010411,0.031233,0.000000,78.000000,77.000000,1.000000,3.000000,0.000000,0.000000:
1000
0000
0000
0000
,
0001
0000
0000
0000
,
0100
0000
0100
0000
,
0200
0000
0300
0000
,
0010
0000
0000
0000
,
1000
0000
0000
0000
,
0001
0000
0001
0000
,
0002
0000
0003
0000
,
0010
0000
0000
0000
,
0100
0000
0000
0000
,
1000
0000
1000
0000
,
2000
0000
3000
0000
,
0001
0000
0000
0000
,
0100
0000
0000
0000
,
0010
0000
0010
0000
,
0010
0000
0000
0000
,
0110
0000
0000
0000
,
0000
0000
0000
0000
,
0100
0000
0000
0000
,
0001
0000
0000
0000
,
1000
0000
0000
0000
,
0000
0000
0000
0000
,
0100
0000
0000
0000
,
0010
0000
0000
0000
,
0001
0000
0001
0000
,
0001
0000
0000
0000
,
0100
0100
0100
0000
,
0100
0000
0100
0000
,
0010
0000
0010
0000
,
0010
0000
0000
0000
,
1000
1000
1000
0000
,
1000
0000
1000
0000
,
0001
0000
0001
0000
,
0010
0000
0010
0000
,
0100
0100
0100
0000
,
0100
0000
0100
0000
,
1000
0000
1000
0000
,
0010
0000
0010
0000
,
0100
0000
0100
0000
,
0001
0001
0001
0001
,
0001
0000
0000
0000
,
0010
0000
0000
0000
,
0100
0000
0000
0000
,
1000
0000
0000
0000
,
0001
0000
0000
0000
,
0100
0000
0000
0000
,
0010
0000
0000
0000
,
1000
0000
0000
0000
,
0010
0000
0000
0000
,
0100
0000
0000
0000
,
0001
0000
0000
0000
,
1000
0000
0000
0000
,
0100
0000
0000
0000
,
0010
0000
0000
0000
,
0001
0000
0000
0000
,
1000
0000
0000
0000
;

//---------------dance-single - Truare!----------------
#NOTES:
     dance-single:
     RING RING MUTHAFUKKA:
     Challenge:
     16:
     0.835857,0.787074,0.385208,0.208221,1.572065,562.000000,525.000000,37.000000,20.000000,0.000000,0.000000,0.835857,0.787074,0.385208,0.208221,1.572065,562.000000,525.000000,37.000000,20.000000,0.000000,0.000000:
1001
0000
0000
1000
0100
0010
0001
0000
0000
1000
0010
0100
,
0001
0000
0000
0001
0010
0100
1000
0000
0000
0001
0100
0010
,
1000
0000
0001
0010
0000
0000
2002
0000
0000
3003
0000
0000
,
0201
0310
0120
1030
,
1001
0000
0000
0001
0010
0100
0010
0000
0000
0001
0100
0010
,
1000
0000
0000
1000
0100
0010
0100
0000
0000
1000
0010
0100
,
0001
0000
0010
0100
0000
0000
1000
0010
0100
0001
0010
0100
,
2000
0000
0000
3002
0000
0000
0203
0000
0000
0310
0000
0100
,
0010
0000
0000
1000
0100
0001
0100
0000
0000
0010
0001
0100
,
1000
0000
0000
0100
0010
1000
0100
0000
0000
0001
0100
1000
,
0010
0000
0100
0010
0000
0000
2020
0000
0000
3030
0000
0000
,
2001
3100
0120
0031
,
1001
0000
0000
0001
0010
1000
0010
0000
0000
0001
0100
1000
,
0100
0000
0000
0001
1000
0100
0001
0000
0000
0100
1000
0001
,
0100
0001
0100
0010
0100
0010
2000
0000
0000
3001
0000
0000
,
1001
0000
1000
1100
0000
0010
0001
0010
0100
1000
0001
1000
,
0100
0010
0001
0010
0100
1000
0001
0100
1000
0100
0001
1000
,
0100
0001
0100
0010
0001
0100
0010
1000
0100
0010
0001
0010
,
0100
0010
0001
0100
1000
0100
0010
1000
0100
0010
0100
0001
,
0100
0010
0001
1000
0010
0100
0001
0100
1000
0100
0010
1000
,
0100
0010
1000
0010
0100
1000
0001
0100
0010
0100
1000
0100
,
0010
1000
0001
0010
0100
1000
0100
0010
0100
1000
0001
0100
,
0010
0100
1000
0100
0010
1000
0100
0001
0100
0010
0001
1000
,
0010
0000
0100
0000
1000
0000
0100
0000
0010
0000
1000
0000
0100
0000
0010
0001
0010
0000
0100
0000
1000
0000
0001
0000
,
0101
0000
0000
1001
0000
1000
0100
0000
0100
0010
0000
0001
,
0101
0000
0000
1001
0000
0001
0100
0000
0100
0010
0000
1000
,
1100
0110
2002
3003
,
1020
0130
0210
0301
,
0101
0000
0000
1001
0000
1000
0100
0000
0100
0010
0000
1000
,
0010
0000
0000
1010
0000
0100
0001
0000
1000
0100
0000
0010
,
0001
0000
0010
0011
0000
0000
0001
0100
0010
1000
0100
0010
,
0002
0000
0000
2003
0000
0000
3020
0000
0000
0130
0000
0010
,
1010
0000
0000
1001
0000
1000
0100
1000
0001
0100
0010
0100
,
0101
0000
0000
1001
0000
0001
0100
0001
1000
0100
0010
0100
,
0110
0000
0001
1001
0000
0000
2001
0000
0000
3001
0100
0010
,
1000
0000
0000
1000
0100
0010
0001
0000
0000
1000
0010
0100
,
0101
0000
0001
1001
0000
1000
0100
0010
0100
1000
0001
0100
,
0101
0000
0001
1001
0000
0001
0100
0010
0100
0001
1000
0100
,
1100
0000
0001
1001
0000
0000
1000
0010
0100
0001
0010
0100
,
1000
0010
0100
0001
0010
0100
1000
0001
0100
0010
0100
0010
,
1000
0100
0010
0001
0010
0100
1000
0001
0100
0010
0100
0001
,
1000
0100
0001
0100
0010
0001
0100
0010
0100
1000
0100
0010
,
0100
0001
1000
0100
0010
0100
0001
0100
0010
0100
1000
0001
,
0100
1000
0100
0010
1000
0100
0010
0100
0001
0100
0010
0001
,
1000
0010
0100
1000
0100
0010
1000
0001
0010
0100
1000
0001
,
0010
1000
0001
0100
1000
0001
0100
1000
0001
0010
1000
1000
,
0010
0001
1000
0100
0001
1000
0100
0001
1000
0010
0001
1000
,
0010
0100
0010
0001
0010
0100
0010
1000
0100
0010
0100
0001
,
0100
0010
0001
0100
0010
1000
0100
0010
0001
1000
0010
0100
,
0010
0100
1000
0100
0010
0001
1000
0100
0001
1000
0100
0010
,
0100
0001
0100
0010
1000
0001
0100
1000
0100
1000
0001
0100
,
0010
0100
1000
0100
0010
1000
0100
0001
0100
0010
0001
1000
,
0010
0100
1000
0100
0001
1000
0100
0010
0001
1000
0010
0100
,
0001
0100
1000
0100
0010
0100
0001
1000
0100
0010
0100
0001
,
0100
0010
0100
1000
0001
0100
1000
0100
0010
1000
0100
0010
,
0001
0100
0010
1000
0100
0010
0001
0100
0010
1000
0100
0010
,
0001
0000
0000
0000
;
