#TITLE:rainbow rainbow;
#SUBTITLE:;
#ARTIST:Ryu☆;
#TITLETRANSLIT:;
#SUBTITLETRANSLIT:;
#ARTISTTRANSLIT:Ryu;
#CREDIT:Dominator;
#BANNER:rainbow rainbow.png;
#BACKGROUND:rainbow rainbow-bg.png;
#LYRICSPATH:;
#CDTITLE:./CDTITLES/BeatmaniaIIDX.png;
#MUSIC:Rainbow Rainbow.mp3;
#OFFSET:-0.064;
#SAMPLESTART:31.230;
#SAMPLELENGTH:15.000;
#SELECTABLE:YES;
#BPMS:0.000=177.000;
#STOPS:;
#BGCHANGES:;

//---------------dance-double - ----------------
#NOTES:
     dance-double:
     :
     Easy:
     2:
     0.173,0.247,0.000,0.000,0.000:
00000000
00000000
00000000
00000000
,
00010000
00000000
00010000
00000000
,
00010000
00000000
10000000
00000000
,
00010000
00000000
00010000
00000000
,
01000000
00000000
00001000
00000000
,
00010000
00000000
00010000
00000000
,
00010000
00000000
00010000
00000000
,
00010000
00000000
00010000
00000000
,
00000010
00000000
00001000
00000000
,
00000001
00000000
00000010
00000000
,
00000100
00000000
00001000
00000000
,
00000001
00000100
00000010
00001000
,
00000001
00000100
00000010
00001000
,
00000100
00000000
00000000
00000000
,
00000100
00000000
00000000
00000000
,
00010000
00000000
00001000
00000000
,
00100000
00010000
00100000
00000000
,
01000000
00000000
10000000
00000000
,
00010000
01000000
00010000
00000000
,
00100000
00000000
01000000
00000000
,
00100000
00000000
01000000
00000000
,
00100000
00000000
01000000
00000000
,
10000000
00000000
00010000
10000000
,
00100000
00000000
00100000
00000000
,
01000000
00000000
00000000
00000000
,
00001000
00000000
00001000
00000000
,
00010000
00000000
00000000
00000000
,
00000010
00000000
00000000
00000000
,
00001000
00000000
00000000
00000000
,
00000001
00000000
00000000
00000000
,
00000010
00000000
00000100
00000000
,
00001000
00000000
00001000
00000000
,
00000010
00000000
00000000
00000000
,
00010000
00000000
00010000
00000000
,
00001000
00000000
00000000
00000000
,
00100000
00000000
00000000
00000000
,
00010000
00000000
00000000
00000000
,
10000000
00000000
00000000
00000000
,
00100000
00000000
01000000
00000000
,
00010000
00000000
00000000
00000000
,
00000000
00000000
00000000
00000000
,
00000000
00000000
00000000
00000000
,
10000000
00000000
10000000
00000000
,
00010000
10000000
00010000
10000000
,
00010000
01000000
00001000
00010000
,
00000010
00000000
00000000
00000000
,
00001000
00000000
00000001
00000000
,
00000100
00000000
00000100
00000000
,
00000010
00000000
00000000
00000000
,
00010000
00000000
00010000
00000000
,
00001000
00000000
00000000
00000000
,
00100000
00000000
00000000
00000000
,
00010000
00000000
00000000
00000000
,
10000000
00000000
00000000
00000000
,
01000000
00000000
00100000
00000000
,
00010000
00000000
00010000
00000000
,
01000000
00000000
00000000
00000000
,
00001000
00000000
00001000
00000000
,
00010000
00000000
00000000
00000000
,
00000010
00000000
00000000
00000000
,
00001000
00000000
00000000
00000000
,
00000001
00000000
00000000
00000000
,
00000010
00000000
00000100
00000000
,
00010000
00000000
00000000
00001000
;

//---------------dance-double - ----------------
#NOTES:
     dance-double:
     :
     Medium:
     5:
     0.360,0.389,0.000,0.011,0.022:
00000000
00000000
00000000
00000000
,
00000001
00000100
00001000
00000100
,
00000001
00000100
00001000
00000100
,
00000001
00000100
00000010
00001000
,
00000100
00010000
00001000
00100000
,
00010000
01000000
10000000
01000000
,
00010000
01000000
10000000
01000000
,
00010000
01000000
10000000
01000000
,
00010000
00000000
01000000
00001000
,
00010000
00000000
00000010
00001000
,
00000001
00000000
00000010
00000100
,
00000001
00000100
00001000
00000100
,
00000001
00000100
00000010
00001000
00000100
00000010
00000001
00000100
,
00000010
00000000
00000000
00000000
,
00000000
00000000
00000000
00000000
,
00001000
00000001
00000000
00000001
,
00000000
00000100
00000000
00000010
,
00000000
00001000
00000000
00000100
,
00000000
00010000
00000000
00001000
,
00100000
00010000
00100000
00000000
01000000
00000000
00000000
00000000
,
10000000
00100000
10000000
00000000
01000000
00000000
00000000
00000000
,
00100000
00010000
00100000
00000000
00001000
00000000
00000000
00000000
,
00010000
00000010
00010000
00000000
00001000
00000000
00010000
00000000
,
00000010
00001000
00000001
00000010
,
00000100
00010000
00000010
00001000
,
00000001
00000010
00000100
00001000
,
00000010
00000000
00010000
00000000
00001000
00000000
00100000
00010000
,
00100000
01000000
10000000
00010000
,
00100000
01000000
10000000
00010000
,
00100000
01000000
10000000
00010000
,
01000000
00000000
01000000
00000000
,
00001000
00010000
00000010
00001000
,
00000100
00010000
00001000
00100000
,
00010000
10000000
00100000
01000000
,
00010000
00000000
00000000
10000000
00000000
00000000
00010000
00000000
00000000
01000000
00000000
00000000
00000000
00000000
00000000
00000000
,
00001000
00010000
00000010
00001000
,
00000001
00000010
00000100
00001000
,
00000001
00000100
00001000
00010000
,
01000000
00000000
10000000
00000000
,
00010000
00000000
00000000
00000000
,
00000000
00000000
10000000
00000000
,
10000000
00000000
00000000
00000000
,
00010000
00000000
00010000
00000000
,
10000000
01000000
00100000
00010000
,
10000000
01000000
00100000
00010000
01000000
00100000
10000000
00010000
,
00100000
00000000
00000000
00000000
,
00001000
00000000
00010000
00001000
,
00100000
00010000
10000000
01000000
,
00100000
00010000
01000000
00001000
,
00010000
00000010
00001000
00000100
,
00010000
00000000
00001000
00000000
00100000
00000000
00010000
01000000
,
00100000
00000000
10000000
00000000
00010000
00000000
00100000
01000000
,
10000000
00000000
00010000
00000000
01000000
00000000
00100000
10000000
,
02000000
00000000
03000000
01000000
,
10000000
00010000
01000000
00100000
,
10000000
01000000
00010000
00001000
,
00000100
00000001
00000010
00000100
,
00001000
00000001
00000100
00000010
,
00001000
00000000
00000000
00000001
00000000
00000000
00000010
00000000
00000000
00000100
00000000
00000000
00000000
00000000
00000000
00000000
,
00010000
00001000
00100000
00010000
,
01000000
00001000
00010000
00000010
,
00001000
00000100
00000010
00000001
,
00000100
00000000
00000010
00001000
00000100
00000000
00010000
00000000
,
00001000
00000000
00000000
00100000
;

//---------------dance-double - ----------------
#NOTES:
     dance-double:
     :
     Hard:
     8:
     0.497,0.460,0.011,0.122,0.000:
00000000
00000000
00000000
00000000
,
10000000
01000000
00100000
00000000
00100000
00000000
00100000
00010000
,
01000000
00100000
10000000
00000000
20000000
00000000
30000000
00000000
,
01000000
00100000
00010000
00000000
00010000
00000000
00010000
01000000
,
00200000
00300000
00020000
00030000
,
00001000
00100000
00010000
00000000
10000000
00000000
10000000
01000000
,
00010000
00001000
00000100
00000000
00000001
00000000
00000001
00000010
,
00001000
00010000
00100000
00000000
10000000
00000000
10000000
01000000
,
00200000
00300000
00020000
00030000
,
02000000
03000000
00002000
00003000
,
00020000
00030000
00000020
00000030
,
00000100
00001000
00010000
00100000
,
10000000
01000000
00100000
00010000
01000000
00001000
00010000
00000010
,
00000200
00000000
00000000
00000000
,
00000000
00000000
00000000
00000300
,
00000001
00000000
00000001
00000010
00000000
00000010
00000100
00000000
,
00000100
00001000
00000010
00000100
00000000
00000100
00000001
00000000
,
00000010
00000000
00000100
00001000
00000000
00001000
00000010
00000000
,
00000010
00000100
00001000
00010000
00000000
00010000
01000000
00000000
,
10000000
00000000
00010000
01000000
00000000
10000000
01000000
00000000
,
00010000
00000000
00100000
01000000
00000000
01000000
00100000
00000000
,
00010000
00000000
01000000
10000000
00000000
10000000
01000000
00000000
,
00010000
00100000
01000000
00010000
00001000
00000100
00000001
00000000
,
00001000
00000000
00000100
00000010
00000001
00000000
00001000
00000000
,
00000010
00000000
00000100
00001000
00010000
00000000
01000000
00000000
,
10000000
00000000
00010000
01000000
00100000
00000000
10000000
00000000
,
01000000
00000000
00010000
00001000
00000100
00000000
00000001
00000000
,
00001000
00000000
00001000
00000100
00000010
00000000
00000010
00000001
,
00000100
00000000
00000100
00000010
00001000
00000000
00001000
00000100
,
00000010
00000000
00000010
00000001
00000100
00000000
00000100
00000010
,
00001000
00000100
00010000
00001000
00100000
00010000
10000000
00000000
,
10000000
00000000
01000000
00100000
00010000
00000000
10000000
00000000
,
10000000
00000000
00100000
01000000
00010000
00000000
10000000
00000000
,
10000000
00000000
01000000
00100000
00010000
00000000
01000000
00000000
,
01000000
00000000
00100000
00010000
00001000
00000000
00000010
00000000
,
00000001
00000000
00001000
00000010
00000100
00000000
00000001
00000010
,
00000100
00000000
00001000
00000001
00000100
00000000
00000010
00001000
,
00000001
00000000
00000010
00000100
00010000
00000000
00001000
00000100
,
00000010
00001000
00000100
00010000
00001000
00100000
00010000
00000000
,
10000000
00000000
00000000
00000000
,
00000000
00010000
00000000
10000000
,
00000000
00010000
00000000
00000000
,
10000000
00000000
10000000
00000000
,
01000000
00010000
00001000
00000010
,
00000001
00000100
00000010
00001000
00000100
00010000
00001000
00100000
,
02000000
00000000
00000000
03000000
,
10000000
00010000
10000000
00000000
,
10000000
00000000
01000000
00000000
00010000
00000000
00001000
00000100
,
00000001
00000000
00001000
00000000
00000010
00000100
00000001
00001000
,
00000100
00000000
00010000
00000000
00001000
00000000
00100000
00010000
,
01000000
00000000
00100000
00000000
10000000
01000000
00100000
00010000
,
01000000
00000000
00100000
00010000
00001000
00000000
00100000
00000000
,
01000000
00000000
00010000
00001000
00000100
00000000
00000001
00000000
,
00001000
00000000
00000100
00000010
00000001
00000000
00000100
00000000
,
00001000
00010000
00000010
00001000
00000100
00010000
00001000
00000000
,
00100000
00000000
00010000
01000000
00100000
00000000
10000000
00000000
,
01000000
00100000
00010000
01000000
00100000
00000000
10000000
00000000
,
01000000
00000000
00010000
00001000
00000100
00000000
00000010
00000000
,
00001000
00000100
00010000
00001000
00100000
00000000
01000000
00000000
,
10000000
00000000
00010000
01000000
00100000
00000000
10000000
01000000
,
00010000
00000000
00001000
00000100
00001000
00000000
00010000
00000000
,
01000000
00000000
10000000
00100000
01000000
00000000
00010000
00000000
,
00100000
01000000
00010000
00001000
00000100
00000001
00000010
00000000
,
00000100
00000000
00000000
00001001
;

//---------------dance-single - CHALLENGE----------------
#NOTES:
     dance-single:
     CHALLENGE:
     Challenge:
     10:
     0.846,0.790,0.399,0.322,0.516: // measure 1
0000
0000
0000
0000
,  // measure 2
0100
0000
0010
0001
0010
0000
0001
0000
0100
0000
0010
0000
1000
0000
0001
0000
,  // measure 3
0100
0010
1000
0010
0200
0000
0001
0300
,  // measure 4
0001
0000
0010
0100
0010
0000
0100
0000
1000
0000
0010
0000
0100
0000
0001
0000
,  // measure 5
2100
0000
3001
0000
0102
0000
1000
1003
,  // measure 6
0010
0000
1000
0010
1000
0000
0010
0000
1000
0000
0001
0000
0100
0000
0010
0000
,  // measure 7
1000
0001
0100
0010
1000
0100
0010
0001
,  // measure 8
0010
0100
1000
0010
0100
0001
0100
0010
,  // measure 9
2020
3030
2002
3003
,  // measure 10
0022
0033
2002
3003
,  // measure 11
2200
3300
0220
0330
,  // measure 12
0011
0000
0001
0010
0001
0000
0010
0100
0010
0000
0100
1000
0100
0000
1000
0001
,  // measure 13
1000
0100
0010
0001
0100
0010
1000
0100
,  // measure 14
0020
0000
0000
0000
,  // measure 15
0002
0000
0000
0033
,  // measure 16
0010
0000
0001
0000
0100
0000
0010
0000
1000
0000
0100
0010
0000
0000
0001
0100
,  // measure 17
0010
1000
0100
0001
0100
0010
0100
0100
,  // measure 18
0001
0000
0100
0000
1000
0000
0100
0000
0010
0000
0001
1000
0000
0001
1000
0100
,  // measure 19
0010
0001
0010
1000
0010
0001
1001
1001
,  // measure 20
0010
0000
0001
0000
0100
0000
0001
0000
0010
0000
0100
1000
0000
0001
0000
0100
,  // measure 21
0010
0000
1000
0000
0100
0000
1000
0000
0010
0000
0100
0001
0000
0100
0000
0010
,  // measure 22
1000
0000
0001
0000
0100
0000
1000
0000
0100
0000
0001
0010
0000
0100
0000
0010
,  // measure 23
0001
0010
0001
0000
1000
0010
1000
0000
0110
0000
0000
0000
1001
0000
0000
0000
,  // measure 24
0001
0000
0100
0000
0010
0000
0100
0000
0001
0000
0010
0100
0000
0000
1000
0100
,  // measure 25
0010
0100
0010
0001
1000
0010
0100
0100
,  // measure 26
0010
0000
1000
0000
0100
0000
1000
0000
0010
0000
0100
0001
0000
1000
0001
0100
,  // measure 27
0010
1000
0100
0001
0100
0100
1001
1001
,  // measure 28
0010
0000
1000
0000
0100
0000
0001
0000
0100
0000
1000
0010
0000
0100
0000
0010
,  // measure 29
0100
0000
0001
0000
0010
0000
0001
0000
0100
0000
0010
1000
0000
0100
0000
0010
,  // measure 30
0001
0000
0100
0000
1000
0000
0100
0000
0001
0000
0100
0010
0000
1000
0000
0100
,  // measure 31
0010
0000
0001
0000
0010
0000
0100
0000
1000
0100
0010
0001
0020
0000
0030
0000
,  // measure 32
0001
0000
0100
0000
1000
0000
0100
0000
0001
0000
0010
0100
0000
0000
0100
0010
,  // measure 33
0001
0100
0010
1000
0001
0010
0100
0100
,  // measure 34
1000
0000
0100
0000
0001
0000
0100
0000
1000
0000
0100
0010
0000
0100
1000
0000
,  // measure 35
1100
0000
0000
0011
0000
0000
1001
0000
0000
0101
0000
0000
0110
0000
0110
0000
,  // measure 36
1000
0000
0010
0000
0100
0000
0010
0000
1000
0000
0001
0010
0000
0100
0000
0010
,  // measure 37
0001
0000
0100
0000
1000
0000
0100
0000
0001
0000
0010
0100
0000
0010
0000
0100
,  // measure 38
0010
0000
0001
0000
0100
0000
1000
0000
0100
0000
0001
0010
0000
0100
0000
1000
,  // measure 39
0010
0000
0100
0000
0001
0000
0010
0000
0001
0010
0100
1000
0100
0000
1100
0000
,  // measure 40
0020
0000
0000
0030
,  // measure 41
0002
0000
0000
0003
,  // measure 42
0200
0000
0000
0300
,  // measure 43
0020
0000
0000
0000
0000
0000
0000
0000
2030
0000
0000
0000
3000
0000
0001
1000
,  // measure 44
0001
0000
0100
0010
0100
0000
0001
0010
0001
0000
1000
0100
1000
0000
0001
0100
,  // measure 45
0001
0100
0010
1000
0100
0010
0001
0100
,  // measure 46
0020
0000
0000
2030
,  // measure 47
3100
0011
1100
1001
,  // measure 48
0100
0000
0001
0000
0010
0000
0001
0000
0100
0000
0010
1000
0000
0000
0001
0100
,  // measure 49
0010
0100
0001
0010
1000
0010
0100
0100
,  // measure 50
1000
0000
0010
0000
0001
0000
0010
0000
1000
0000
0100
0010
0000
0001
0100
0010
,  // measure 51
1000
0010
0100
0001
0010
0100
1001
1001
,  // measure 52
0010
0000
1000
0000
0100
0000
1000
0000
0010
0000
0100
0001
0000
0010
0000
0100
,  // measure 53
1000
0000
0010
0000
0100
0000
0010
0000
1000
0000
0100
0010
0000
0100
0000
0010
,  // measure 54
0001
0000
0100
0000
1000
0000
0100
0000
0001
0000
0100
0010
0000
1000
0000
0100
,  // measure 55
0010
0000
0100
0000
1000
0000
0001
0000
1000
0010
0100
0001
0200
0000
0300
0000
,  // measure 56
0010
0000
1000
0000
0100
0000
1000
0000
0010
0000
0100
0001
0000
0000
0100
0010
,  // measure 57
1000
0010
0100
0001
1000
0010
0100
0100
,  // measure 58
0001
0000
0010
0000
0100
0000
0010
0000
0001
0000
0010
0100
0000
1000
0010
0000
,  // measure 59
0101
0000
0000
1010
0000
0000
1001
0000
0000
0011
0000
0000
0110
0000
0110
0000
,  // measure 60
1000
0000
0010
0000
0100
0000
0010
0000
1000
0000
0001
0010
0000
0100
0000
1000
,  // measure 61
0100
0000
0010
0000
0001
0000
0100
0000
1000
0000
0100
0001
0000
0010
0000
0001
,  // measure 62
1000
0000
0100
0000
0001
0000
0100
0000
1000
0000
0001
0010
0000
0100
1000
0100
,  // measure 63
1000
0000
0100
0000
0010
0000
0001
0010
0001
0000
0010
0000
0100
0000
1000
0000
,  // measure 64
0002
0003
0011
0000
1100
0000
2002
0000
,  // measure 65
0000
0000
0000
3003
;
