#TITLE:Party With Pinkie (Discord Special);
#SUBTITLE:;
#ARTIST:Alex S.;
#TITLETRANSLIT:;
#SUBTITLETRANSLIT:;
#ARTISTTRANSLIT:;
#GENRE:Dubstep;
#CREDIT:;
#BANNER:Party With Pinkie.png;
#BACKGROUND:Party With Pinkie-bg.png;
#LYRICSPATH:;
#CDTITLE:;
#MUSIC:Party With Pinkie.ogg;
#OFFSET:-0.120000;
#SAMPLESTART:15.440000;
#SAMPLELENGTH:15.000000;
#SELECTABLE:YES;
#BPMS:0.000000=124.999992
;
#STOPS:126.000000=0.480000
;
#BGCHANGES:;
#KEYSOUNDS:;
#ATTACKS:;

//---------------dance-single - Party Special----------------
#NOTES:
     dance-single:
     :
     Challenge:
     15:
     0.720944,0.747229,0.140184,0.080105,0.916200,504.000000,490.000000,14.000000,8.000000,0.000000,0.000000,0.720944,0.747229,0.140184,0.080105,0.916200,504.000000,490.000000,14.000000,8.000000,0.000000,0.000000:
// measure 0
0000
0000
0000
0000
,  // measure 1
0000
0000
0000
0000
,  // measure 2
0000
0000
0000
0000
,  // measure 3
0000
0000
0000
0000
,  // measure 4
1000
0000
0001
0000
0100
0000
0010
0000
0100
0001
0100
0001
0000
1000
0100
1000
,  // measure 5
0001
0000
0001
0000
0100
0000
0010
0000
1000
0100
1000
0001
0000
0100
0001
0100
,  // measure 6
0010
0000
0010
0000
1000
0000
0100
0000
0010
0001
0010
0100
0000
1000
0100
1000
,  // measure 7
0020
0000
2030
0000
3100
0020
0000
0130
,  // measure 8
0110
0000
0010
0000
0011
0000
0001
0000
0010
0001
0010
0100
0000
0100
0010
0001
,  // measure 9
1000
0000
0010
0000
0101
0000
1000
0000
0100
1000
0001
0100
0000
0100
0010
1000
,  // measure 10
0001
0000
0010
0000
0010
0100
1000
0000
0100
0001
0100
0010
0000
0010
0100
1000
,  // measure 11
0010
0000
0100
0000
0001
0100
0001
0000
0100
0010
0000
1010
0000
0001
0010
0000
,  // measure 12
1100
0000
0001
0000
0100
0010
1000
0000
0010
1000
0100
0010
0000
0100
1000
0001
,  // measure 13
0100
0000
1000
0000
0100
0001
1000
0000
0100
0010
0001
0100
0000
0010
1000
0100
,  // measure 14
0010
0000
0001
0000
1000
0001
0100
0000
0100
0001
0100
0010
0000
0001
0010
0100
,  // measure 15
0001
0000
1000
0000
0100
0010
0001
0000
0011
0010
0100
0000
1001
0000
0001
0100
,  // measure 16
1010
0000
1000
0000
1000
0100
0010
0000
0010
0001
1000
0010
0000
0100
0001
1000
,  // measure 17
0100
0000
1000
0000
0001
0100
0010
0000
0100
0010
0100
0001
0000
1000
0100
0001
,  // measure 18
0100
0000
0011
0000
1000
0001
0100
0000
0001
0100
1000
0100
0000
0010
1000
0001
,  // measure 19
0010
0000
1100
0000
0010
0001
0100
0000
0100
0001
0020
0000
0000
0000
0130
0000
,  // measure 20
1100
0000
0001
0000
0100
0001
1000
0000
1000
0100
1000
0001
0000
0001
0100
0010
,  // measure 21
1000
0000
0001
0000
1000
0100
0010
0000
0001
1000
0001
1000
0001
0100
0010
0100
,  // measure 22
0001
0000
0010
0000
0100
1000
0001
0000
0100
0010
0100
0010
1000
0001
1000
0001
,  // measure 23
0100
0010
1000
0001
0100
0010
1000
0001
0010
0001
0010
0100
1000
0001
1000
0001
,  // measure 24
0100
0000
0010
0000
0100
0000
0010
0000
0100
0000
0010
0000
0100
0001
0010
0100
,  // measure 25
0010
0000
0100
0000
0010
0000
0100
0000
0010
0000
0100
0000
0010
0001
0100
0010
,  // measure 26
1000
0000
0010
0000
1000
0000
0010
0000
1000
0000
0010
0000
1000
0100
0010
0001
,  // measure 27
0001
0000
1000
0000
0001
0000
1000
0000
0001
0000
1000
0000
0001
1000
0100
0010
,  // measure 28
0010
0000
0001
0000
0010
0000
0001
1000
0100
0000
1000
0000
0100
0000
1000
0010
,  // measure 29
0100
0000
0001
0000
0100
0000
0001
0100
0010
0000
0100
0000
0010
0000
0100
0010
,  // measure 30
1000
0001
1000
0001
0010
0100
0010
0100
1000
0100
1000
0100
1000
0001
1000
0001
,  // measure 31
1000
0010
0100
0001
1000
0100
0010
0001
1000
0000
0001
0000
1000
0100
0000
0000
,  // measure 32
1000
0100
0000
0000
0010
0001
0000
0000
0010
0001
0000
0000
1000
0010
0000
0000
,  // measure 33
1000
0010
0000
0000
0100
0000
0010
0000
0100
0000
0010
0000
1000
0000
0100
0000
,  // measure 34
0010
0000
0001
0000
1000
0010
0100
0010
1000
0010
0100
0001
1000
0000
0100
0000
,  // measure 35
0001
0000
0100
0000
0010
0001
1000
0001
0010
0001
1000
0001
0100
0010
0000
0000
,  // measure 36
0100
0001
0000
0000
0100
0001
0000
0000
1000
0010
0000
0000
1000
0001
0000
0000
,  // measure 37
1000
0001
0000
0000
0001
0010
0000
0100
0000
0001
0000
0100
1000
0000
0001
0000
,  // measure 38
1000
0000
0010
0000
0100
0010
0001
0010
0100
0010
0001
0010
1000
0000
0010
0000
,  // measure 39
0100
0000
0001
0000
0010
0100
0001
0100
0010
0100
0001
0100
0010
0100
0000
0000
,  // measure 40
0010
0100
0000
0000
0010
0001
0000
0000
0010
0001
0000
0000
1000
0010
0000
0000
,  // measure 41
1000
0010
0000
0000
0010
1000
0100
0010
0000
0001
0010
0000
1100
0000
0001
0000
,  // measure 42
0101
0000
0010
0000
1000
0100
0001
0100
1000
0100
0001
0100
0010
0000
0001
0000
,  // measure 43
0101
0000
1000
0000
0001
0100
1000
0100
0001
0100
1000
0100
0010
0100
0000
0000
,  // measure 44
0010
0100
0000
0000
0001
0100
0000
0000
0001
1000
0000
0000
0010
1000
0000
0000
,  // measure 45
0010
1000
0000
0000
1000
0100
0010
0001
0000
0100
0010
1000
0001
0000
0010
0000
,  // measure 46
0100
1000
0001
0000
0100
0010
1000
0010
0100
0010
0001
0010
0100
0001
0100
0001
,  // measure 47
1000
0100
1000
0100
0010
0001
0010
0001
1000
0010
1000
0010
0200
0000
0000
0000
,  // measure 48
0000
0302
0000
2003
,  // measure 49
0000
3200
0000
0310
;
