#TITLE:One Dark Mare;
#SUBTITLE:;
#ARTIST:Hanna & Hiffa;
#TITLETRANSLIT:;
#SUBTITLETRANSLIT:;
#ARTISTTRANSLIT:;
#GENRE:Drum 'n Bass;
#CREDIT:;
#BANNER:odm-bn.png;
#BACKGROUND:odm-bg.png;
#LYRICSPATH:;
#CDTITLE:;
#MUSIC:odm.ogg;
#OFFSET:-10.340000;
#SAMPLESTART:20.666756;
#SAMPLELENGTH:20.659382;
#SELECTABLE:YES;
#DISPLAYBPM:92.000000:280.000000;
#BPMS:0.000000=185.899994
,31.000000=371.799988
,32.000000=185.899994
,150.500000=743.599976
,164.000000=185.899994
,212.000000=92.949997
,213.000000=122.690002
,214.500000=185.899994
,282.500000=280.000000
;
#STOPS:31.750000=0.160000,
93.000000=0.810000,
98.500000=0.162000,
100.000000=0.162000,
105.500000=0.162000,
107.000000=0.162000,
112.500000=0.162000,
114.000000=0.162000,
150.500000=0.202000,
214.250000=0.535000,
278.500000=0.162000,
279.000000=0.162000,
279.500000=0.162000,
280.500000=0.162000,
281.000000=0.162000,
281.500000=0.162000,
282.000000=0.162000,
282.500000=0.162000,
339.000000=0.215000
;
#BGCHANGES:;
#KEYSOUNDS:;
#ATTACKS:;

//---------------dance-single - ----------------
#NOTES:
     dance-single:
     :
     Beginner:
     7:
     0.328565,0.482519,0.017164,0.077237,0.000000,268.000000,266.000000,2.000000,9.000000,0.000000,0.000000,0.328565,0.482519,0.017164,0.077237,0.000000,268.000000,266.000000,2.000000,9.000000,0.000000,0.000000:
0001
0100
0010
1000
,
0100
0000
0100
0000
,
0010
0100
1000
0001
,
0100
0000
0100
0000
,
0010
1000
0001
0010
,
0100
0000
0100
0000
,
1000
0010
0100
0001
,
1000
1000
1000
0000
,
1000
0001
1000
0001
,
0100
0010
0100
0010
,
1000
0100
0010
0001
,
0100
0010
1000
0000
,
0010
1000
0010
1000
,
0001
0010
0001
0010
,
0100
1000
0010
0100
,
0001
1000
0100
0000
,
0010
0001
1000
0010
,
1000
0001
0010
0001
,
1000
0010
0100
0001
,
0010
0100
0000
0100
,
1000
0100
0010
0001
,
1000
0010
0100
0001
,
1000
0100
0010
0001
,
1000
0000
0010
0001
0000
0010
0000
1000
,
0000
0100
0000
0001
0000
0100
1000
0000
,
0100
0010
0000
0001
0000
0100
0000
0010
,
0000
1000
0000
0100
1000
0000
0010
0100
,
0000
0001
0000
0010
0000
0100
0000
1000
,
0000
0010
1000
0000
0100
0010
0000
0001
,
0000
0100
0000
0010
0000
1000
0000
0100
,
0000
0010
0000
0001
0000
1000
0000
0010
,
0000
1000
0000
0100
0000
0010
0000
0010
,
0000
0100
0000
0100
0000
1000
0000
0010
,
0000
0100
0000
0001
0000
0020
0000
0000
,
0000
0000
0000
0030
0000
0100
0000
1000
,
0000
0010
0000
1000
0000
0001
0000
0001
,
0000
1000
0000
1000
0000
0010
0000
0100
,
0000
0001
0000
1000
0000
0000
0000
0000
,
0000
0000
0000
0000
,
0000
0000
0000
0000
,
0000
0000
0000
0000
,
0010
0100
0010
0100
,
1000
0001
1000
0001
,
0100
0010
0100
0010
,
2000
3000
0002
0003
,
0010
0001
0010
0001
,
1000
0010
1000
0010
,
0100
0001
0100
0001
,
2000
3000
0002
0003
,
1000
0100
0010
0001
,
1000
0010
0100
0000
,
0010
0100
0001
1000
,
0100
0010
0001
0000
,
2000
0000
0000
0000
3000
1001
0000
0001
,
0000
1000
0000
0001
0000
0100
0000
0010
,
0000
0100
0010
1000
0000
0001
0000
0010
,
0000
0001
0000
0100
0000
0010
0000
1000
,
0000
0100
1000
0010
0000
0100
0000
0001
,
0000
0010
0000
0001
0000
1000
0000
0010
,
0000
1000
0100
0010
0000
0001
0000
1000
,
0000
0010
0000
1000
0000
0100
0000
0010
,
0000
0001
1000
0010
0000
0100
0000
0001
,
0000
0100
0000
0010
0000
1000
0000
0001
,
0000
0010
0001
0100
0000
0010
0000
1000
,
0000
0100
0000
0010
0000
0100
0000
1000
,
0000
0010
1000
0001
0000
0010
0000
0100
,
0000
1000
0000
0100
0000
0010
0000
0001
,
0000
1000
0000
0010
1000
0100
0000
0010
,
0000
0001
0000
1000
0000
0010
0000
0100
,
0000
0001
0000
0010
0100
1000
0001
1000
,
0010
0000
0100
0001
1000
0100
0020
0000
,
0000
0000
0000
0000
,
0000
0000
0000
0000
,
0000
0000
0000
0000
,
0000
0000
0000
0000
,
0000
0000
0000
0000
,
0000
0000
0000
0000
,
0000
0000
0000
0000
,
0000
0000
0000
0000
,
0000
0000
0000
0000
,
0000
0000
0000
0000
,
0000
0000
0000
0000
,
0000
0000
0000
0030
,
0000
0000
0000
0000
,
0000
0000
0000
0220
,
0000
0000
0000
0000
,
0000
0000
0330
0000
;

//---------------dance-single - ----------------
#NOTES:
     dance-single:
     :
     Easy:
     10:
     0.411932,0.593869,0.060073,0.034328,0.000000,336.000000,329.000000,7.000000,4.000000,0.000000,0.000000,0.411932,0.593869,0.060073,0.034328,0.000000,336.000000,329.000000,7.000000,4.000000,0.000000,0.000000:
0001
0010
0100
1000
,
0010
1000
0001
0000
0010
0001
1000
0000
,
0010
0100
0001
1000
,
0100
1000
0001
0000
0100
0001
1000
0000
,
0010
0100
0001
1000
,
0100
1000
0010
0000
0100
0001
0010
0000
,
0100
1000
0010
0100
,
0001
0000
1000
0000
0100
0100
0100
0000
,
0010
0100
1000
0010
,
0100
0001
0100
0000
0010
1000
0010
0000
,
0100
0001
0010
0100
,
1000
0100
1000
0000
0001
0010
0001
0000
,
1000
0010
0100
0001
,
1000
0010
1000
0000
0001
0100
0001
0000
,
0010
0100
1000
0001
,
0100
0010
0100
0000
0001
1000
0001
0000
,
0010
0100
1000
0010
,
0100
0001
1000
0000
0100
1000
0010
0000
,
0100
0001
0010
0100
,
1000
0010
1000
0000
0001
0010
0001
0000
,
0100
0010
1000
0100
,
0010
0001
1000
0000
0010
1000
0100
0000
,
0010
0001
1000
0010
,
0100
0001
1000
0001
0000
0010
0000
0100
,
0000
1000
0000
0010
0000
1010
0100
0000
,
0101
1000
0000
0100
0000
0010
0000
0001
,
0000
1000
0000
1010
0001
0000
0101
1000
,
0000
0100
0000
0010
0000
0001
0000
0100
,
0000
0110
1000
0000
1001
0001
0000
0010
,
0000
0100
0000
1000
0000
0010
0000
0100
,
0000
0001
0000
1000
0000
0100
0000
0010
,
0000
0001
0000
1000
0000
0010
0000
1000
,
0000
0100
1000
0010
0000
0100
0000
0001
,
0000
0010
0000
0100
0000
1000
0100
0010
,
0001
1000
0010
0100
0000
0001
0000
0100
,
0000
0010
0000
1000
0000
0100
0000
1000
,
0000
0001
0100
0010
0000
1000
0000
0100
,
0000
0010
0001
1000
0000
0000
0000
0000
,
0000
0000
0000
0000
,
0000
0000
0000
0000
,
0000
0000
0000
0000
,
1000
0010
0100
0001
,
0010
0001
0100
0000
0001
0100
0010
0000
,
1000
0100
0010
0001
,
1000
0010
0100
0000
0010
1000
0100
0000
,
0010
0001
1000
0010
,
0100
0001
1000
0000
0100
1000
0010
0000
,
0100
0001
0010
0100
,
1000
0010
1000
0001
0010
0001
1000
0010
,
1000
0100
0010
0001
,
1000
0000
0010
0000
0100
0001
0010
0000
,
0100
1000
0010
0100
,
0001
0000
0010
0000
0100
1000
0001
0000
,
0200
0000
0000
0000
0300
0010
0000
0100
,
0000
0001
1000
0100
0000
0010
0000
0100
,
0000
1000
0000
0010
0000
0100
0000
0001
,
0000
0010
0001
0100
0000
0010
0000
1000
,
0000
0001
0000
0010
0000
0100
0000
1000
,
0000
0001
0100
0010
0000
1000
0000
0100
,
0000
0010
0000
0001
0000
1000
0000
0010
,
1000
0000
0100
0010
0000
0001
0000
1000
,
0000
0010
0000
0100
0000
0010
0000
1000
,
0000
0001
0100
1000
0000
0001
0000
0010
,
0000
1000
0000
0100
0000
0010
0000
0001
,
0000
1000
0010
0001
0000
1000
0000
0100
,
0000
0010
0000
0010
0000
1000
0000
0100
,
0000
0010
0000
0001
0000
1000
0000
0010
,
0000
1000
0000
0100
1000
0010
1000
0001
,
0000
0010
0000
0100
0000
1000
0000
0001
,
0100
0010
1000
0100
0010
0001
0100
0010
,
1000
1000
0001
0010
0100
1000
0020
0000
,
0000
0000
0000
0000
,
0000
0000
0000
0000
,
0000
0000
0000
0000
,
0000
0000
0000
0000
,
0000
0000
0000
0000
,
0000
0000
0000
0000
,
0000
0000
0000
0000
,
0000
0000
0000
0000
,
0000
0000
0000
0000
,
0000
0000
0000
0000
,
0000
0000
0000
0000
,
0000
0000
0000
0030
,
0000
0000
0000
0000
,
0000
0000
0000
2002
,
0000
0000
0000
0000
,
0000
0000
3003
0000
;

//---------------dance-single - ----------------
#NOTES:
     dance-single:
     :
     Medium:
     14:
     0.641192,0.816570,0.068655,0.017164,0.000000,523.000000,515.000000,8.000000,2.000000,0.000000,0.000000,0.641192,0.816570,0.068655,0.017164,0.000000,523.000000,515.000000,8.000000,2.000000,0.000000,0.000000:
0010
1000
0001
1000
0100
0010
0001
1000
,
0010
0100
0001
0000
0001
1000
0100
0000
,
0100
1000
0010
0100
0001
0010
0001
1000
,
0010
0100
0001
0000
0001
1000
0100
0000
,
0100
1000
0000
0010
1000
0001
0000
0010
,
0100
1000
0001
0000
0100
0010
1000
0000
,
0001
0010
0000
0001
1000
0100
0000
1000
,
0010
0000
0100
0000
0001
1000
1001
0000
,
0001
0000
0100
0000
0010
1000
0001
1000
,
0100
0000
0010
0000
0001
1000
0010
0100
,
0001
0000
0010
0000
0001
1000
0010
0100
,
0001
0000
1000
0000
0100
0010
0001
0000
,
1000
0000
0010
0000
1000
0100
0001
0100
,
0010
0000
0001
0000
1000
0010
0001
1000
,
0100
0000
0010
1000
0000
0001
0010
0100
,
1000
0000
0010
0000
0100
0001
0010
0000
,
0100
0000
1000
0000
0010
1000
0001
0010
,
0100
0000
1000
0000
0001
0100
0010
0100
,
0001
0000
0010
0000
0100
1000
0010
1000
,
0001
0000
0010
0001
1000
0100
1000
0010
,
0100
0000
0001
0100
0010
1000
0100
0010
,
0001
0000
1000
0010
1000
0100
0010
0000
,
0001
0000
1000
0010
0100
0001
0010
0100
,
1000
0000
1001
0001
0100
0010
0100
0001
,
1000
0100
1000
0010
0100
0001
1000
0100
,
0010
0001
1000
0010
1000
0100
0010
0001
,
1000
0010
0100
0001
0001
1000
0100
1000
,
0010
0100
0001
0010
0001
1000
0010
0100
,
0001
0010
0100
1000
0010
0100
0001
1000
,
0010
1000
0001
0100
0010
0100
0001
1000
,
0100
0010
0001
1000
0000
0010
1000
0100
,
1000
0010
0100
0001
0100
0010
1000
0010
,
1000
0001
0010
0001
0010
0100
1000
0010
,
1000
0001
0010
0100
0010
0001
0100
1000
,
0100
0001
0010
1000
0010
0001
1000
0010
,
1000
0001
0100
0010
0100
0001
0010
0100
,
1000
0010
1000
0001
0010
0100
0100
1000
,
1000
0001
0001
0100
0100
0000
0000
0000
,
0000
0000
0000
0000
,
0000
0000
0000
0000
,
0000
0000
0000
0000
,
0010
1000
0100
1000
0010
0000
0100
0000
,
0001
1000
0100
0010
0100
0000
1000
0000
,
0010
1000
0001
0010
0001
0000
0100
0000
,
0010
1000
0100
0010
0001
0100
0010
1000
,
0100
0010
0100
1000
0010
0000
0100
0000
,
0001
0010
0001
0100
0010
0000
1000
0000
,
0100
1000
0010
1000
0001
0000
0010
0000
,
0001
0100
0010
1000
0100
0010
0001
1000
,
0010
1000
0010
1000
0001
0010
0001
0000
,
1000
0010
1000
0010
0100
0001
0100
0000
,
0001
0010
0100
1000
0010
0100
0001
0000
,
0001
1000
0100
1000
0001
0010
0100
0000
,
2000
0000
0000
0000
3000
0001
0100
0010
,
0100
0001
0100
0010
0000
1000
0100
0010
,
0100
1000
0100
0010
0000
0001
1000
0010
,
0000
0100
0001
0010
0000
0100
1000
0001
,
0000
0100
0010
1000
0000
0001
0010
0001
,
0010
0100
1000
0010
0000
1000
0010
1000
,
0010
0100
0001
1000
0000
0001
0010
0001
,
0010
0100
1000
0001
0000
0100
0010
1000
,
0010
0100
0001
1000
0000
0100
1000
0010
,
0100
0001
0010
0100
0000
0100
1000
0010
,
1000
0001
0010
0100
0000
0100
1000
0010
,
0100
0001
0010
0100
0000
0100
1000
0001
,
0000
0001
0100
0010
0000
0010
0000
1000
,
0100
1000
0010
0100
0001
0010
0000
0001
,
0010
0100
1000
0001
0100
0010
0000
0010
,
1000
0001
0010
0100
1000
0001
0000
0001
,
0100
1000
0100
0001
0010
0100
1100
1001
,
0001
0100
1010
0110
0101
1001
0010
0000
,
1000
0100
1000
0001
,
0010
0100
1000
0010
,
0100
0001
1000
0100
,
1000
0001
0010
0100
,
1000
0010
0100
0010
,
1000
0100
0010
0001
,
1000
0010
0100
0001
,
0010
0100
1000
0010
,
0100
0001
1000
0100
,
0010
0001
1000
0010
,
0100
0001
1000
0001
,
1000
0001
1000
0002
,
0000
0000
0000
0000
,
0000
0000
0000
1003
,
0010
0100
0010
0100
,
0010
0100
0010
0100
0010
0000
0000
0000
;

//---------------dance-single - ----------------
#NOTES:
     dance-single:
     :
     Hard:
     16:
     0.852062,0.926579,0.617898,0.051492,0.193093,695.000000,623.000000,72.000000,6.000000,0.000000,0.000000,0.852062,0.926579,0.617898,0.051492,0.193093,695.000000,623.000000,72.000000,6.000000,0.000000,0.000000:
0010
1000
0001
0010
0100
1000
0010
0100
,
0001
1000
0110
0000
0001
0010
1100
0000
,
0001
0100
0010
0100
0001
1000
0010
0100
,
0001
1000
0110
0000
0001
0010
1100
0000
,
0010
1000
0100
0001
0100
0010
0001
1000
,
0010
0100
1001
0000
0100
0010
0011
0000
,
0100
1000
0010
0100
0001
0010
0100
1000
,
0010
0000
0010
0000
0100
0000
0100
0000
0001
1000
0001
0000
2000
0000
3000
0000
,
0001
0100
0010
0010
0100
0001
1000
1000
,
0001
0010
1100
0001
0100
0010
1001
0100
,
0010
0001
1000
0010
0100
0001
0010
0100
,
1000
0010
0101
0001
0010
0100
1001
0001
,
0100
0010
1000
0001
0010
0100
1000
0010
,
0100
0001
1010
0010
0100
0001
1010
0010
,
0100
0001
0010
0100
1000
0010
0100
0001
,
0010
0100
1001
0010
0100
0001
1100
0001
,
0010
0100
1000
0010
0100
0001
0010
0001
,
1000
0010
0101
0000
0010
0100
1001
0000
,
0010
0100
0001
0010
0001
1000
0010
0100
,
0001
1000
0110
0000
0001
0010
1100
0000
,
0001
0100
0010
0100
0001
1000
0010
0100
,
0001
0010
1100
0000
0001
0010
0110
0000
,
0001
1000
0010
0100
0001
0010
0100
1000
,
0010
0000
0100
0000
2002
3003
0001
0000
0010
0000
0001
0000
0100
0000
0010
0000
,
1000
0001
0010
0100
1000
0110
0001
0010
,
1100
0001
0100
0010
1000
0001
0010
0100
,
1000
0010
0100
1001
0001
0010
0110
0001
,
1000
0010
0100
0001
0100
0010
1000
0001
,
1000
1010
0010
0100
1001
0100
0010
0001
,
1000
0010
0100
0001
0100
1000
0100
0010
,
0001
1000
0100
0001
0010
0100
1000
0010
,
0100
0001
0100
0000
0010
0000
1000
0000
0001
0000
0010
0000
0010
0000
0100
0000
,
0100
1100
1000
0001
0101
0100
0010
1000
,
0001
0010
0001
0000
0100
0000
0010
0000
1000
0000
0100
0000
1000
0000
0010
0100
,
0000
0001
0000
1000
0000
0100
1000
0000
0000
0000
0010
0000
0100
0000
0001
0000
,
0010
0001
0010
0000
0100
0000
1000
0000
0001
0000
0100
0010
0100
0000
0001
0000
,
1000
0000
0100
1000
0100
0000
1000
0000
0010
0000
0110
0000
0001
0000
0101
0000
,
0010
1010
0001
0110
1000
0002
0000
0000
,
0000
0000
0000
0000
,
0000
0000
0000
0000
,
0003
0000
0000
0000
,
1000
0000
0100
0000
0011
0000
0001
0100
0001
0000
1000
0000
1100
0000
1000
0000
,
0010
0000
0100
0000
1001
0000
0001
0010
0001
0000
1000
0000
1010
0000
0010
0000
,
0100
0000
0001
0000
0101
0000
0001
1000
0001
0000
1000
0000
1100
0000
0100
0000
,
1000
0010
0100
0001
0010
0100
1000
0010
,
0100
0000
0001
0000
0101
0000
0001
1000
0001
0000
1000
0000
1100
0000
0100
0000
,
0010
0000
0001
0000
1001
0000
1000
0010
1000
0000
0010
0000
0110
0000
0100
0000
,
0001
0000
1000
0000
1100
0000
1000
0001
1000
0000
0010
0000
0110
0000
0100
0000
,
0001
0010
0100
1000
0010
0100
0001
1000
,
0010
0000
0100
0000
0001
0000
0010
0001
0010
0001
1000
0000
0010
0000
0100
0000
,
0001
0000
0010
0000
0100
0000
1000
0001
1000
0001
0100
0000
0010
1000
0010
0000
,
0100
0000
0001
0000
1000
0000
0100
0010
0100
0010
0100
0000
1000
0000
0001
0000
,
0100
0000
0010
0000
1000
0000
0001
0010
0001
0010
0100
0000
1000
0000
0001
0000
,
0200
0000
0000
0000
0000
0000
0000
0000
0300
0000
0010
1000
0100
0000
0010
0000
,
0001
0000
1000
0010
0100
0000
0001
0000
0010
0000
0100
0000
1000
0001
0000
0100
,
0010
0000
1000
0000
1000
0000
0001
0100
0010
0000
1000
0000
0100
0000
1000
0001
,
0010
0000
0100
0000
1000
0010
1000
0000
0001
0000
0010
0000
0100
0000
1000
0000
,
0001
0001
0010
0100
1000
0010
0100
0001
,
1000
0000
0100
0000
1000
0010
0100
0000
0001
0000
0010
0000
0001
0000
0101
0000
,
0010
1000
0100
1100
0001
0100
0001
0101
,
1001
0000
1000
0000
0100
0000
1000
0010
0100
0000
0001
0000
1000
0000
0110
0000
,
0110
0001
1000
0101
0010
0100
0100
1001
,
0100
0000
0010
0000
0101
0000
0100
0000
0010
0000
1000
0000
0001
1000
0010
0000
,
0100
0000
1001
0000
0000
0000
1001
0000
0001
1000
0001
0000
0100
0000
1010
0000
,
0100
0101
0001
1000
0100
0010
0001
0011
,
0000
1100
1001
0001
0100
0010
0000
1000
,
0100
1000
0010
0000
0100
0000
0001
0010
0100
0000
1000
0000
0010
0000
0100
0000
,
0001
1000
0100
0000
0010
0000
0001
0000
1000
0000
0010
0000
0100
0000
0001
1000
,
0001
1000
0010
0000
0100
0000
0001
0000
0010
0000
0100
0000
1000
0000
0001
0000
,
0100
0000
0010
1000
0000
0001
0000
0010
0000
0100
1000
0000
1100
0000
1001
0000
,
0010
0110
0101
1001
1010
1001
0010
0000
,
0100
1000
0010
0100
,
0001
0100
0010
1000
,
0001
0010
0100
1000
,
0010
1000
0001
0010
,
0100
1000
0010
0100
,
0001
0100
0010
0100
,
0001
1000
1001
1000
,
0100
1100
0001
0100
,
0010
1000
0001
0010
,
0100
1000
0010
0100
,
1001
0000
0000
0000
0001
0100
0010
1000
,
0010
0100
0001
0010
0100
1000
0020
0000
,
0000
0000
0000
0000
,
0000
0000
0030
1001
,
0001
0100
0001
0100
1000
0100
1000
0100
,
0001
0010
0100
1000
0000
0000
0000
0000
;

//---------------dance-single - ----------------
#NOTES:
     dance-single:
     :
     Challenge:
     19:
     1.278707,1.221315,1.613402,0.068655,0.918266,1043.000000,855.000000,188.000000,8.000000,0.000000,0.000000,1.278707,1.221315,1.613402,0.068655,0.918266,1043.000000,855.000000,188.000000,8.000000,0.000000,0.000000:
// measure 0
0101
0000
0010
0000
1000
0000
0100
0000
0010
0001
0010
0000
0100
0000
1000
0000
,  // measure 1
0010
1000
0001
0000
0011
0000
0000
0000
0100
1000
0001
1000
0010
0100
0010
0000
,  // measure 2
0101
1010
0001
0010
1100
0011
0100
1000
,  // measure 3
1010
0000
0000
0000
0100
0001
0100
0001
1000
0100
1000
0100
0010
0000
0001
0000
,  // measure 4
0101
0010
1010
0001
1000
0100
0011
0001
,  // measure 5
1010
0000
0001
0000
0100
0001
0100
0010
0100
0001
1000
0100
0010
0100
1000
0000
,  // measure 6
1100
0000
0010
0000
0011
0000
1010
0000
0100
0001
0010
0001
1000
0001
0000
0000
,  // measure 7
0010
1000
0010
0001
0010
1000
0010
0100
1000
0000
0001
0000
0001
0100
0001
0100
,  // measure 8
1010
1000
0101
0011
0100
1100
1001
0100
,  // measure 9
0010
0000
1000
0000
0100
1000
0100
0010
0100
0001
0100
0010
0001
1000
0010
0000
,  // measure 10
1010
1010
1001
0010
0011
0011
0110
1000
,  // measure 11
0001
0100
0010
0100
0001
0100
0010
0100
1000
0100
0010
1000
0001
0000
0010
0000
,  // measure 12
1100
0000
1000
0000
1001
0000
0001
0000
0100
0010
1000
0010
0100
0010
1000
0001
,  // measure 13
0010
0000
0001
0000
0100
0010
1000
0010
0100
0010
1000
0100
0010
0001
0010
0000
,  // measure 14
0011
0000
1100
0000
0001
1000
0010
0000
1010
0000
0110
0000
0001
0100
0010
0100
,  // measure 15
0001
0100
0010
1000
0100
1000
0001
1000
0010
0100
0001
1000
0100
0000
0010
0000
,  // measure 16
1100
0000
1100
0000
0010
0000
0001
0000
0101
0000
0101
0000
0010
0000
0100
1000
,  // measure 17
0001
0100
0010
0100
1000
0100
0010
1000
0100
0000
1100
0000
0011
0000
0000
0000
,  // measure 18
0101
0000
1010
0000
1001
0000
1100
0000
0110
0000
0011
0000
1001
0000
1000
0100
,  // measure 19
0010
0100
1000
0001
0100
0010
0100
0001
1000
0000
0110
0000
1001
0000
0000
0000
,  // measure 20
0001
0100
0010
0100
0001
0100
0010
0100
0001
0010
0001
1000
0001
0010
0001
1000
,  // measure 21
0001
0000
0001
0000
0101
0000
1000
0000
0100
0010
0001
0010
0100
0010
0001
0010
,  // measure 22
0100
1000
1100
0001
0101
0101
1001
0100
,  // measure 23
0110
0000
1001
1100
0101
1001
0100
0110
,  // measure 24
1010
0011
0001
1100
0000
1001
0100
0010
,  // measure 25
1001
1100
1100
0001
0010
0011
0011
0100
,  // measure 26
1000
0101
0010
1010
1100
0010
0011
0101
,  // measure 27
0011
0010
0100
1100
1010
0010
0100
0101
,  // measure 28
0001
0000
0011
0000
1100
0000
1000
0000
1010
0000
1000
0100
0001
0000
0001
0100
,  // measure 29
1000
0000
0001
0100
1000
0000
1000
0100
0001
0000
1000
0100
0001
0000
1000
0010
,  // measure 30
0001
0000
0001
0100
1000
0000
0100
0000
0010
0000
1000
0100
0010
0000
0011
0000
,  // measure 31
0001
0100
0010
0000
1010
0000
1001
0000
1100
0000
0100
0010
0001
0000
0100
0010
,  // measure 32
1000
0000
1010
0000
0001
0100
0010
0000
1010
0000
0001
1000
0001
0000
0010
0000
,  // measure 33
0100
0010
0100
0000
1000
0000
0001
0100
0010
0000
1000
0100
0010
0000
0001
0010
,  // measure 34
0000
1000
0000
0010
1000
0000
0010
0000
1000
0001
0100
0000
0101
0000
1001
0000
,  // measure 35
0001
0010
0100
0000
0110
0000
1001
0000
0010
0100
0010
0000
0110
0000
1001
0000
,  // measure 36
0001
0010
0100
0000
1100
0000
1010
0000
0010
0000
1000
0100
0001
0000
0001
0100
,  // measure 37
1000
0000
0001
0100
1000
0000
1000
0100
0001
0000
2000
0000
0000
0000
0000
0000
,  // measure 38
0001
0000
0000
0000
,  // measure 39
0000
3001
0000
1000
0000
0001
0000
1000
,  // measure 40
0000
0001
0000
1000
0000
0001
0000
0000
,  // measure 41
1001
0000
1000
0000
1100
0000
0001
0010
0001
0000
1100
0000
1002
0000
0103
0000
,  // measure 42
0110
0000
0010
0000
1010
0000
0100
0001
1000
0000
0101
0000
1001
0000
0001
0000
,  // measure 43
1100
0000
0001
0000
0101
0000
0100
0010
1000
0000
1100
0000
1001
0000
0101
0000
,  // measure 44
0100
0010
1000
0000
1010
0000
0010
1000
0001
0000
1001
0000
0001
0010
0100
0000
,  // measure 45
1100
0000
0011
0000
1001
0000
1000
0010
0100
0000
0110
0000
1010
0000
0001
0000
,  // measure 46
1100
0000
0110
0000
0011
0000
1000
0100
0010
0000
0110
0000
1001
0000
0001
0000
,  // measure 47
0110
0000
1100
0000
0101
0000
1000
0010
0100
0000
0101
0000
1010
0000
0021
0000
,  // measure 48
1030
0010
0100
0000
0120
0000
0031
1000
0100
0000
1100
0000
0001
0100
0010
0000
,  // measure 49
1010
0000
0100
0001
1000
0000
0100
0010
0001
0010
0100
0000
1000
0001
1000
0001
,  // measure 50
0010
0000
0110
0000
1000
0001
0100
0010
1000
0000
0001
0100
0010
0100
0000
1000
,  // measure 51
0100
0000
0010
1000
0001
0000
0010
0000
0011
0000
0101
0000
1100
0000
0100
1000
,  // measure 52
0010
0000
0110
0000
1010
0000
0100
0001
0000
1000
0000
0100
0010
0000
0001
0000
,  // measure 53
0200
0000
0000
0000
0010
0000
0010
0000
0310
0000
0100
0001
0100
0000
0010
0100
,  // measure 54
0010
0000
1000
0001
0010
0000
0110
0000
1000
0000
0110
0000
0001
0000
1000
0010
,  // measure 55
0100
0000
1010
0000
1100
0000
0010
0001
0010
0000
0011
0000
1010
0000
0001
0100
,  // measure 56
0010
0000
0102
0000
1003
0100
0001
0000
0100
0010
0001
0000
1000
0000
1010
0000
,  // measure 57
1010
0000
0110
0000
0001
1000
0100
0000
1100
0000
0011
0000
0101
0000
0110
0000
,  // measure 58
1001
0000
1100
0000
0010
0001
1000
0000
1001
0000
1020
0000
0130
0010
1000
0000
,  // measure 59
0010
1001
0100
0001
0100
0110
0110
0001
,  // measure 60
0100
0000
1010
0000
1100
0000
0001
1000
0010
0000
0101
0000
0100
0000
1010
0000
,  // measure 61
0011
0000
0001
0010
0100
0000
1001
0000
0100
0000
0101
0000
1100
0000
1001
0000
,  // measure 62
0001
0000
0011
0000
0100
0000
1010
0000
0100
0000
0100
0001
0010
0000
0011
0000
,  // measure 63
0100
0000
0011
0000
1000
0000
0010
0100
0001
0000
1100
0000
1100
0000
0001
0000
,  // measure 64
0101
0000
1000
0000
1100
0000
0010
0001
1000
0000
0101
0000
0100
0000
1010
0000
,  // measure 65
0000
1100
0011
1001
0001
0101
0000
1010
,  // measure 66
1000
0001
0010
0000
0010
0001
0100
0000
0110
0000
1002
0000
0013
0000
0110
0000
,  // measure 67
0010
0001
1000
0100
0010
0100
0001
0100
0010
1000
0001
0010
0100
0010
0001
1000
,  // measure 68
0010
0100
0010
0100
0010
1000
0001
0010
0100
0010
0001
1000
0010
0100
0010
0100
,  // measure 69
0001
1000
0010
0100
1000
0100
0010
1000
0001
0010
0100
0000
0110
0000
1001
0000
,  // measure 70
1100
0011
1001
0101
0110
1010
0001
0100
,  // measure 71
0010
0000
0100
0000
1000
0000
0100
0000
0010
0000
1000
0001
0100
0000
0010
0000
,  // measure 72
0100
0001
1000
0100
0010
0001
0100
0001
,  // measure 73
0010
0000
1000
0000
0010
0000
0001
0000
1000
0000
0010
1000
0001
0000
1000
0000
,  // measure 74
0010
0100
1000
0100
0010
1000
0001
0010
,  // measure 75
0100
0000
1000
0000
0001
0000
0100
0000
1000
0000
0100
0001
0100
0000
0010
0000
,  // measure 76
1000
0001
0010
0100
1000
0100
0010
1000
,  // measure 77
0010
0000
0001
0000
1000
0000
0010
0000
0100
0001
1000
0000
0100
0000
0010
0000
,  // measure 78
0001
0000
0010
0001
1000
0000
0010
0000
0001
0000
0010
0000
0100
0000
0001
0000
,  // measure 79
1000
0000
0010
0000
0100
0000
1000
0000
0100
0000
0010
1000
0010
0100
0001
0000
,  // measure 80
1000
0000
0100
0000
0010
0000
0001
1000
0010
1000
0001
0000
0100
0000
1000
0000
,  // measure 81
0100
0000
0000
0010
0000
0000
0100
0000
0000
0001
0000
0000
1000
0000
0100
0000
1000
0000
0100
0000
1000
0000
0100
0000
,  // measure 82
1000
0100
1000
0001
0100
0001
0100
0001
0100
0001
0100
0001
,  // measure 83
1000
0010
0100
0001
1000
0100
0010
0001
1000
0010
0100
0001
,  // measure 84
1000
0000
0000
0000
0001
0000
0000
0000
1000
0000
0000
0000
0100
0000
0000
0000
0010
0000
0000
0000
0001
0000
0000
0000
1000
0000
0000
0100
0000
0000
1000
0000
0000
0100
0000
0000
0010
0000
0000
0000
0001
0000
0000
0000
1000
0000
0000
0000
,  // measure 85
0010
0100
0001
0100
0010
1000
0100
0010
0001
1000
0001
1000
,  // measure 86
0001
0100
0001
0100
0010
0000
0000
0000
0000
0000
0000
0000
0000
0000
0000
0000
;
