#VERSION:0.83;
#TITLE:Mane-iac;
#SUBTITLE:;
#ARTIST:ThatMusicBrony;
#TITLETRANSLIT:;
#SUBTITLETRANSLIT:;
#ARTISTTRANSLIT:;
#GENRE:House;
#ORIGIN:;
#CREDIT:;
#BANNER:Mane-iac.png;
#BACKGROUND:mane-iac-bg.png;
#PREVIEWVID:;
#JACKET:Mane-iac-jacket.png;
#CDIMAGE:;
#DISCIMAGE:;
#LYRICSPATH:;
#CDTITLE:;
#MUSIC:Mane-iac.mp3;
#OFFSET:-10.949001;
#SAMPLESTART:37.111000;
#SAMPLELENGTH:15.000000;
#SELECTABLE:YES;
#BPMS:0.000=110.000;
#STOPS:;
#DELAYS:;
#WARPS:;
#TIMESIGNATURES:0.000=4=4;
#TICKCOUNTS:0.000=4;
#COMBOS:0.000=1;
#SPEEDS:0.000=1.000=0.000=0;
#SCROLLS:0.000=1.000;
#FAKES:;
#LABELS:0.000=Song Start;
#BGCHANGES:;
#KEYSOUNDS:;
#ATTACKS:
;

//---------------dance-single - ----------------
#NOTEDATA:;
#CHARTNAME:;
#STEPSTYPE:dance-single;
#DESCRIPTION:;
#CHARTSTYLE:;
#DIFFICULTY:Beginner;
#METER:1;
#RADARVALUES:0.058653,0.076759,0.035702,0.000000,0.000000,46.000000,42.000000,4.000000,0.000000,0.000000,0.000000,0.000000,0.000000,0.000000,0.058653,0.076759,0.035702,0.000000,0.000000,46.000000,42.000000,4.000000,0.000000,0.000000,0.000000,0.000000,0.000000,0.000000;
#CREDIT:;
#NOTES:
1000
0000
0000
0000
,
0000
0000
0000
0000
,
0001
0000
0000
0000
,
0000
0000
0000
0000
,
0100
0000
0000
0000
,
0010
0000
0000
0000
,
1000
0000
0000
0000
,
0001
0000
0000
0000
,
0010
0000
0000
0000
,
0100
0000
0000
0000
,
1000
0000
0000
0000
,
0001
0000
0000
0000
,
1001
0000
0000
0000
,
0100
0000
0000
0000
,
0010
0000
0000
0000
,
1000
0000
0000
0000
,
0001
0000
0000
0000
,
0010
0000
0000
0000
,
0100
0000
0000
0000
,
1000
0000
0000
0000
,
1001
0000
0000
0000
,
0010
0000
0000
0000
,
0100
0000
0000
0000
,
0001
0000
0000
0000
,
0010
0000
0000
0000
,
0100
0000
0000
0000
,
1000
0000
0000
0000
,
0001
0000
0000
0000
,
1001
0000
0000
0000
,
0010
0000
0000
0000
,
0100
0000
0000
0000
,
0001
0000
0000
0000
,
0010
0000
0000
0000
,
0100
0000
0000
0000
,
1000
0000
0000
0000
,
0001
0000
0000
0000
,
0110
0000
0000
0000
,
0100
0000
0000
0000
,
0001
0000
0000
0000
,
0010
0000
0000
0000
,
0100
0000
0000
0000
,
1000
0000
0000
0000
,
0001
0000
0000
0000
,
0100
0000
0000
0000
;

//---------------dance-single - ----------------
#NOTEDATA:;
#CHARTNAME:;
#STEPSTYPE:dance-single;
#DESCRIPTION:;
#CHARTSTYLE:;
#DIFFICULTY:Easy;
#METER:4;
#RADARVALUES:0.196360,0.255268,0.223137,0.160658,0.000000,154.000000,129.000000,25.000000,18.000000,0.000000,0.000000,0.000000,0.000000,0.000000,0.196360,0.255268,0.223137,0.160658,0.000000,154.000000,129.000000,25.000000,18.000000,0.000000,0.000000,0.000000,0.000000,0.000000;
#CREDIT:;
#NOTES:
0002
0000
0000
0000
,
0203
0000
0000
0000
,
0320
0000
0000
0000
,
2030
0000
0000
0000
,
3001
0000
0001
0000
,
1000
0000
1000
0000
,
0010
0000
0010
0000
,
0100
0000
0100
0000
,
0001
0110
1000
0000
,
0010
1001
0100
0000
,
0010
1001
0100
0000
,
0100
1001
0010
0000
,
0110
0000
0100
0000
,
1000
0000
0001
0000
,
0100
0000
0010
0000
,
1000
0000
0001
0000
,
1001
0100
0100
0000
,
1001
0010
0010
0000
,
0001
0100
0010
0010
,
1000
0001
0020
0000
,
0130
0110
0100
1000
,
0001
1001
0001
0100
,
0010
0110
0010
0100
,
0001
1001
0100
0010
,
0001
1001
0001
0010
,
0100
1001
0010
0100
,
0001
0110
1000
0010
,
0100
1001
0001
0010
,
0100
0110
0100
1000
,
0010
0110
0100
0001
,
1000
1001
0100
0010
,
0001
0011
0100
1000
,
0010
0110
0100
0001
,
0010
1100
0001
0010
,
0100
1001
0010
0100
,
0001
1001
0100
0110
,
2001
0000
3002
0000
,
0203
0000
0320
0000
,
2030
0000
3020
0000
,
0230
0000
0302
0000
,
0023
0000
0130
1000
,
0020
0030
0100
0001
,
2000
0000
3100
0010
,
0001
0000
0200
0020
,
0330
0000
0000
0000
;

//---------------dance-single - ----------------
#NOTEDATA:;
#CHARTNAME:;
#STEPSTYPE:dance-single;
#DESCRIPTION:;
#CHARTSTYLE:;
#DIFFICULTY:Medium;
#METER:6;
#RADARVALUES:0.277964,0.313581,0.303466,0.160658,0.084792,218.000000,184.000000,34.000000,18.000000,0.000000,0.000000,0.000000,0.000000,0.000000,0.277964,0.313581,0.303466,0.160658,0.084792,218.000000,184.000000,34.000000,18.000000,0.000000,0.000000,0.000000,0.000000,0.000000;
#CREDIT:;
#NOTES:
2000
0000
3002
0203
,
0320
0000
0230
0000
,
0302
0000
0023
0230
,
2300
0000
3020
0230
,
0301
0101
0100
0010
,
1000
1010
0100
0010
,
0001
0011
0100
1000
,
0001
1001
0010
0100
,
0001
1010
0010
0100
,
0001
1001
0100
0010
,
0001
1100
0010
0100
,
0001
0101
0010
1010
,
2001
0000
0001
0001
,
3001
0100
0010
1000
,
2001
0000
0010
0100
,
3010
0100
0001
0010
,
0120
1000
0031
0100
,
0120
0001
1030
0100
,
0210
0001
1300
0010
,
0210
1000
0302
0000
,
1003
0000
0000
1010
0000
0000
0010
0000
0010
0100
0000
0000
,
0001
0000
0000
0101
0000
0000
0001
0000
0001
0010
0000
0000
,
0100
0000
0000
1100
0000
0000
1000
0000
1000
0001
0000
0000
,
0100
0000
0000
0110
0000
0000
0010
0000
1000
0000
0001
0000
,
0010
0000
0000
0110
0000
0000
0100
0000
0100
1000
0000
0000
,
0010
0000
0000
0101
0000
0000
0001
0000
0001
1000
0000
0000
,
0100
0000
0000
0011
0000
0000
0100
0000
0100
1000
0000
0000
,
0010
0000
0000
0110
0000
0000
0100
0000
0001
1000
0000
1000
,
0100
0000
0000
0110
0000
0000
0010
0000
0010
0001
0000
0001
,
1000
0000
0000
1010
0000
0000
0010
0000
0010
0100
0000
0000
,
0001
0000
0000
0011
0000
0000
0010
0000
0010
0001
0000
0000
,
1000
1001
0010
0110
,
0100
0000
0000
0101
0000
0000
0001
0000
0001
1000
0000
0000
,
0100
0000
0000
0011
0000
0000
0100
0000
0100
1000
0000
0000
,
0010
0000
0000
0110
0000
0000
0100
0000
0100
0001
0000
0000
,
0010
0000
0000
0110
0000
0000
1001
0000
1000
0001
0000
0000
,
1001
0000
1000
0010
,
0100
0001
0100
0010
,
1000
0000
0001
0010
,
0100
1000
0100
0010
,
0001
0001
0100
0010
,
1000
0100
1000
0010
,
0100
0001
0010
0100
,
1000
0000
0000
0010
0000
0000
0100
0000
0000
0001
0000
1000
;

//---------------dance-single - ----------------
#NOTEDATA:;
#CHARTNAME:;
#STEPSTYPE:dance-single;
#DESCRIPTION:;
#CHARTSTYLE:;
#DIFFICULTY:Hard;
#METER:11;
#RADARVALUES:0.413121,0.451201,0.294540,0.187435,0.423960,324.000000,291.000000,33.000000,21.000000,0.000000,0.000000,0.000000,0.000000,0.000000,0.413121,0.451201,0.294540,0.187435,0.423960,324.000000,291.000000,33.000000,21.000000,0.000000,0.000000,0.000000,0.000000,0.000000;
#CREDIT:;
#NOTES:
// measure 0
2000
0000
0000
0000
3001
0000
0100
0010
,  // measure 1
0000
0000
1000
0000
0000
0000
0100
0000
0000
0000
0000
0000
0010
0000
0000
0001
0000
0100
0000
0000
0010
0000
0000
2000
,  // measure 2
0000
0000
0000
0000
0000
0000
0000
0000
0000
3000
0000
0000
0100
0000
0000
0000
0000
0010
0000
0000
0000
0002
0000
0000
,  // measure 3
0000
0000
0103
0010
,  // measure 4
1000
0110
0200
0301
,  // measure 5
0010
0000
0000
0001
0000
0100
0000
0000
0000
0000
0000
0000
0000
0000
0000
0010
0000
0000
1000
0000
0000
0001
0000
0010
,  // measure 6
0000
0000
1100
0000
1000
0000
0001
0100
,  // measure 7
0010
0110
1000
0101
,  // measure 8
0010
0000
1100
0000
1000
0000
0001
0100
,  // measure 9
0000
0000
0010
0000
0000
0000
1010
0000
0000
0000
0000
0000
1000
0000
0000
0001
0000
0010
0000
0000
0001
0000
0000
0100
,  // measure 10
0000
0000
0000
0000
0000
0000
0110
0000
0000
0000
0000
0000
0010
0000
0000
0000
0000
1000
0000
0000
0000
0001
0000
0000
,  // measure 11
0010
1100
0010
0101
,  // measure 12
2002
0000
3003
0001
0010
0100
1000
0010
,  // measure 13
1020
0000
0130
0000
0001
0010
0001
0100
,  // measure 14
0120
0000
1030
0000
0001
0010
0100
1000
,  // measure 15
0021
0000
0130
0000
1000
0010
1000
0001
,  // measure 16
0011
1100
1010
0101
,  // measure 17
0110
1001
0011
1100
,  // measure 18
2010
3001
0012
0103
,  // measure 19
0201
0000
1300
0000
1100
0100
0001
0000
,  // measure 20
0011
0000
0000
1000
0100
1000
0010
0100
0010
0100
0001
0100
,  // measure 21
0002
0000
0000
0013
0001
0010
0100
1000
0100
2000
0000
0000
,  // measure 22
3010
0100
0010
0100
0001
0100
0001
1000
0001
1000
0100
0010
,  // measure 23
0002
0000
0000
0013
0001
0010
0001
0000
0101
0000
0110
0000
,  // measure 24
1010
0000
0000
1000
0100
1000
0001
0100
0001
1000
0010
1000
,  // measure 25
0001
0000
0000
0010
0001
0010
0001
0000
1000
0100
0000
1000
,  // measure 26
0010
0000
0000
0100
0001
0100
0010
1000
0010
0100
0001
0100
,  // measure 27
0010
0000
0000
0010
1000
0010
1000
0001
1000
0001
0000
0001
,  // measure 28
0100
0000
0000
0110
0000
0000
0010
1000
0010
1000
0001
1000
,  // measure 29
0001
0000
0000
0010
0001
0010
0001
1000
0001
1000
0100
1000
,  // measure 30
0100
0000
0000
0100
1000
0100
1000
0010
1000
0000
0010
0000
,  // measure 31
0100
0001
0100
0010
1000
0010
0100
0000
0001
0100
0000
0001
,  // measure 32
1000
0000
0000
1000
0100
1000
0100
0010
0100
0010
0001
0010
,  // measure 33
0001
0010
0100
2000
0000
0000
3100
0010
0001
1000
0000
1000
,  // measure 34
0010
0000
0000
0100
0000
0000
0001
1000
0001
0020
0000
0000
,  // measure 35
1030
0000
0000
1001
0000
0000
0110
0000
0001
1000
0000
0000
,  // measure 36
2002
0000
3003
0010
0100
0001
0010
0100
,  // measure 37
1000
0000
0000
0000
0000
0001
0000
0000
0000
0100
0000
0000
0010
0000
0000
1000
0000
0000
0010
0000
0000
0100
0000
0000
,  // measure 38
0002
0000
0003
0010
0001
0100
0010
1000
,  // measure 39
0001
0000
0000
0000
0000
0010
0000
0000
0000
0100
0000
0000
1000
0000
0000
0010
0000
0000
0001
0000
0000
0100
0000
0000
,  // measure 40
2000
0000
3001
0100
0010
0100
0001
1000
,  // measure 41
0100
0000
0000
0001
0100
1000
0010
0100
,  // measure 42
0001
0000
0010
0100
1000
0001
0100
0010
,  // measure 43
1000
0000
0000
0000
0000
0000
0010
0000
0000
0100
0000
0000
0001
0000
0000
0010
0000
0100
0000
0000
1000
0001
0000
1000
;

//---------------dance-single - ----------------
#NOTEDATA:;
#CHARTNAME:;
#STEPSTYPE:dance-single;
#DESCRIPTION:;
#CHARTSTYLE:;
#DIFFICULTY:Challenge;
#METER:13;
#RADARVALUES:0.543178,0.627758,0.633708,0.464124,0.629245,426.000000,355.000000,71.000000,52.000000,0.000000,0.000000,0.000000,0.000000,0.000000,0.543178,0.627758,0.633708,0.464124,0.629245,426.000000,355.000000,71.000000,52.000000,0.000000,0.000000,0.000000,0.000000,0.000000;
#CREDIT:;
#NOTES:
// measure 0
0201
0000
0000
0000
0320
0000
0100
1030
,  // measure 1
0000
0000
0001
0000
0000
0000
0100
0000
0000
0000
0000
0000
0010
0000
0000
1000
0000
0100
0000
0000
0001
0000
0000
0100
,  // measure 2
0000
0000
0000
0000
0000
0000
0000
0000
0000
0000
0000
0000
0101
0000
0000
0000
0000
1001
0000
0000
0000
1100
0000
0000
,  // measure 3
0000
0000
1001
0110
,  // measure 4
1020
0130
0010
1000
,  // measure 5
0100
0000
0000
0010
0000
0001
0000
0000
0000
0000
0000
0000
0000
0000
0000
0001
0000
0000
0100
0000
0000
0010
0000
1000
,  // measure 6
0000
0000
1100
0000
0001
0000
0010
0110
,  // measure 7
0000
1100
0010
1001
,  // measure 8
0100
0010
1010
0100
0002
0000
0100
0013
,  // measure 9
0000
0000
0011
0000
0000
0000
1100
0000
0000
0000
0000
0000
1001
0000
0000
0001
0000
0100
0000
0000
1001
0000
0000
0110
,  // measure 10
0000
0000
0000
0100
0000
0000
0110
0000
0000
0000
0000
0000
0110
0000
0000
0000
0000
1001
0000
0000
0000
0110
0000
0000
,  // measure 11
0000
1000
1010
0000
1001
0000
0010
0000
,  // measure 12
0022
0000
0000
0000
0000
0000
0033
0000
0000
0100
0000
0010
0001
0000
0000
1000
0000
0000
0010
0000
0000
0100
0001
0100
,  // measure 13
0010
0000
0000
1000
0000
0100
0000
0000
0000
0110
0000
0010
0001
0000
0000
0001
0000
0000
0100
0000
0010
1000
0000
0001
,  // measure 14
0010
0000
0000
0000
0000
0000
0000
0000
0000
0100
0000
1000
0001
0000
0000
0010
0000
0000
0001
0000
0000
1000
0010
0100
,  // measure 15
0010
0000
0000
0100
0000
0010
0000
0000
0000
0100
0000
0010
0010
0000
0000
0110
0000
0000
1010
0000
0000
0100
0000
0001
,  // measure 16
1001
0100
1001
0001
0110
1000
0110
0100
,  // measure 17
1010
0001
0011
1000
1001
0100
0110
0010
,  // measure 18
0010
0001
0010
0001
1000
0100
1000
0100
1000
0010
1000
0010
1000
0001
0100
0001
,  // measure 19
0100
0010
1000
0001
0010
0100
1000
0001
2002
0000
0000
0000
3003
0000
0000
0000
,  // measure 20
1001
0000
0000
1000
0100
0001
0100
1000
0010
0100
0001
1000
,  // measure 21
1001
0000
0000
0001
0100
1000
0100
0010
1000
0001
0010
0100
,  // measure 22
1100
0001
0001
0101
0000
1000
0200
0010
1300
0001
0000
0001
,  // measure 23
0202
0000
0000
0303
0000
0000
0100
0000
0001
0000
0010
0000
0011
0000
0000
0000
0101
0000
0000
0000
1010
0000
0000
0000
,  // measure 24
2002
0000
0000
3003
0000
0000
0001
0000
0100
0000
1000
0000
0001
0000
0010
0000
1000
0000
0001
0000
0010
0000
0100
0000
,  // measure 25
0010
0000
0000
0001
0010
0000
0011
0000
1000
0000
0001
0000
0020
0000
0000
0030
0100
0000
1100
0000
0010
0000
0001
0000
,  // measure 26
2002
0000
0000
3003
0000
0000
0010
0000
0001
0000
0100
0000
1000
0000
0100
0000
0001
0000
2000
0000
0000
0000
3100
0000
,  // measure 27
0022
0000
0000
0033
0000
0000
1000
0000
0010
0000
0100
0000
0010
0000
0001
0000
0010
0000
0100
0000
0001
0000
1000
0000
,  // measure 28
1100
0000
0010
0001
1000
0000
2002
0000
0000
3003
0000
0000
1010
0000
0001
0000
0010
0000
0001
0000
0100
0000
0010
0000
,  // measure 29
2020
0000
0000
3030
0000
0000
0100
0000
1000
0000
0100
0000
0001
0000
0010
0000
0100
0000
2000
0000
0000
3000
0001
0000
,  // measure 30
0202
0000
0000
0303
0000
0000
0010
0000
1000
0000
0100
0000
0022
0000
0033
0000
2002
0000
0000
3003
0202
0000
0000
0303
,  // measure 31
1010
0000
0001
0010
0001
0000
0100
0000
1000
0000
0010
0000
0220
0000
0000
0000
0000
0330
2002
0000
0000
0000
0000
3003
,  // measure 32
0022
0000
0000
0000
0000
0033
0100
0000
1000
0000
0001
0000
1001
0000
1000
0000
0010
0000
1020
0000
0000
0000
0130
0000
,  // measure 33
0101
1001
2001
3200
0000
0000
0310
0001
1000
0010
0000
0100
,  // measure 34
0220
0000
0000
0000
0000
0330
2002
0000
0000
0000
3000
0000
0103
0000
0010
0000
1000
0000
0001
0000
0000
0000
0010
0000
,  // measure 35
2200
0000
0000
0000
0000
3300
0012
0000
0000
0000
0000
0000
2003
0000
0000
0000
0000
0000
3010
0000
0000
0000
0000
0000
,  // measure 36
0220
0000
0000
0000
0000
0000
0330
0000
0000
0100
0000
0010
1000
0000
0000
0001
0000
0000
0010
0000
0000
0100
1000
0100
,  // measure 37
0010
0000
0000
0001
0000
2000
0000
0000
0000
0100
0000
0000
3010
0000
0000
0100
0000
0000
0001
0000
1000
0100
0010
0001
,  // measure 38
1000
0000
0000
0000
0000
0000
0000
0000
0000
0010
0000
0100
0001
0000
0000
0001
0000
0000
1000
0000
0100
0010
0001
1000
,  // measure 39
0010
0000
0000
0010
0000
0100
0000
0000
0000
0001
0000
1000
0100
0000
0000
0100
0000
0000
0010
0000
0000
0100
0000
0100
,  // measure 40
1000
0000
0000
0000
0000
0000
0001
0000
0000
0010
0000
0000
0100
0000
0000
1000
0000
0100
0000
0000
0010
0001
0000
1000
,  // measure 41
0010
0000
0000
0000
0000
0000
0000
0000
0000
0100
0000
0001
1000
0000
0000
0100
0000
0010
0000
0000
0001
1000
0000
0010
,  // measure 42
0100
0000
0000
0000
0000
0000
0010
0000
0000
1000
0000
0000
0100
0000
0000
0010
0000
0001
0000
0000
1000
0010
0000
0100
,  // measure 43
0001
0000
0000
0000
0000
0000
0100
0000
0000
0010
0000
0000
0100
0000
0000
0001
0000
1000
0000
0000
0100
0010
0000
0001
;
