#TITLE:MARS WAR 3;
#SUBTITLE:VOLTAGE special;
#ARTIST:JET GIRL SPIN;
#TITLETRANSLIT:;
#SUBTITLETRANSLIT:;
#ARTISTTRANSLIT:;
#CREDIT:Dominator;
#BANNER:MARS WAR 3.png;
#BACKGROUND:MARS WAR 3-bg.png;
#LYRICSPATH:;
#CDTITLE:./CDTITLES/pop'n music.png;
#MUSIC:MARS WAR 3.mp3;
#OFFSET:-0.059;
#SAMPLESTART:19.232;
#SAMPLELENGTH:15.000;
#SELECTABLE:YES;
#BPMS:0.000=200.000;
#STOPS:;
#BGCHANGES:;

//---------------dance-double - ----------------
#NOTES:
     dance-double:
     :
     Hard:
     8:
     0.534,0.676,0.274,0.151,0.000:
00000000
00000000
00000000
00000000
,
00000000
00000000
00000000
00000000
,
00000000
00000000
00000000
00000000
,
00000000
00000000
00000000
00000000
,
10000000
00000000
01000000
00100000
01000000
00000000
00000000
00000000
,
00010000
00000000
00001000
00000100
00001000
00000000
00000000
00000000
,
00001000
00000000
00000001
00000010
00000001
00000000
00000000
00000000
,
00000100
00000100
00000100
00000000
,
00010000
10000000
00100000
01000000
00010000
00000000
00000000
00000000
,
00000001
00001000
00000010
00000100
00000001
00000000
00000000
00000000
,
00010000
00100000
01000000
00100000
00010000
00000000
00000000
00000000
,
00010000
00010000
00010000
00000000
,
00010000
00100000
01000000
10000000
01000000
00100000
00010000
00000000
,
00001000
00000100
00000010
00000001
00000010
00000100
00001000
00000000
,
00010000
00100000
01000000
10000000
01000000
00100000
00010000
00000000
,
00001000
00001000
00001000
00000000
,
00000001
00000100
00010000
00000100
,
00000001
00000100
00010000
00000100
,
00000001
00000100
00010000
00000100
,
00000001
00000010
00000000
00001000
00010000
00100000
10000000
00000000
,
10000000
01000000
00001000
01000000
,
10000000
01000000
00001000
01000000
,
10000000
01000000
00001000
01000000
,
10000000
00100000
00000000
00010000
00001000
00000100
00000001
00000000
,
00000100
00010000
00100000
00010000
,
00000100
00010000
00100000
00010000
,
00000100
00010000
00100000
00010000
,
00000100
00001000
00000000
00010000
01000000
10000000
10000000
00000000
,
10000000
00000000
10000000
00000000
01000000
00010000
00001000
00000000
,
00001000
00000000
00001000
00000000
00000100
00000010
00000001
00000000
,
00000001
00000001
00000010
00010000
,
10000000
10000000
00100000
00010000
,
00002000
00000000
00003002
00000010
,
00000100
00000003
00000010
00001000
00010000
00000000
00000000
00000000
,
00020000
00000000
20030000
00000000
,
01000000
30100000
00001000
00000000
,
00002000
00000000
00003002
00000010
,
00000100
00000003
00000010
00001000
00010000
00000000
00000000
00000000
,
00020000
00000000
20030000
00000000
,
01000000
30100000
00000000
00000000
,
11000000
00010000
00110000
00001000
,
00101000
00010000
00010010
00000010
,
00001010
00000001
00000101
00001000
,
00011000
00000010
00011000
00000000
,
00001000
00000100
00000010
00000001
,
00000100
00000000
00000010
00000000
00001000
00010000
00100000
00000000
,
00010000
00001000
01000000
00000000
00001000
00100000
01000000
00000000
,
10000000
01000000
00010000
00100000
00001000
00000100
00000001
00000000
,
00000001
00000000
00000100
00001000
00010000
00000000
00001000
00000100
,
00000001
00000000
00000100
00001000
00010000
00100000
10000000
00000000
,
10000000
00000000
01000000
00010000
00001000
00000000
00010000
01000000
,
10000000
00000000
01000000
00010000
00001000
00000010
00000000
00000000
,
00001000
00010000
00001000
00000010
,
00001000
00010000
00001000
00000010
,
00001000
00010000
00001000
00000010
,
00000010
00001000
00010000
00001000
,
00000001
00000000
00000001
00000000
00000010
00001000
00010000
00000000
,
10000000
00000000
10000000
00000000
00100000
00010000
00001000
00000000
,
00000001
00000001
00000100
00010000
,
10000000
10000000
01000000
00010000
,
00002000
00000000
00003002
00001000
,
00000100
00000003
00000010
00001000
00010000
00000000
00000000
00000000
,
00020000
00000000
20030000
00100000
,
01000000
30100000
00001000
00000000
,
00002000
00000000
00003002
00001000
,
00000100
00000003
00000010
00001000
00010000
00000000
00000000
00000000
,
00020000
00000000
20030000
00100000
,
01000000
30100000
00001000
00000000
,
00000101
00000010
00001010
00010000
,
00011000
00100000
00110000
10000000
,
11000000
00100000
01010000
00001000
,
00010100
00001000
00000110
00001000
,
00000011
00000100
00001010
00000010
,
00011000
00100000
00011000
00000100
,
00010010
00101000
00010010
00101000
,
00011000
00011000
00011000
00011000
,
00001000
00000100
00000010
00000001
,
00000100
00000000
00000010
00000000
00001000
00010000
00100000
00000000
,
00010000
00001000
01000000
00000000
00001000
00100000
01000000
00000000
,
10000000
01000000
00010000
00100000
00001000
00000100
00000001
00000000
,
00000001
00000000
00000100
00001000
00010000
00000000
00001000
00000100
,
00000001
00000000
00000100
00001000
00010000
00100000
10000000
00000000
,
10000000
00000000
01000000
00010000
00001000
00000000
00010000
01000000
,
10000000
00000000
01000000
00010000
00001000
00001000
00000000
00000000
,
00011000
00000000
00000000
00000000
;

//---------------dance-double - ----------------
#NOTES:
     dance-double:
     :
     Easy:
     3:
     0.189,0.238,0.123,0.038,0.000:
00000000
00000000
00000000
00000000
,
00000000
00000000
00000000
00000000
,
00000000
00000000
00000000
00000000
,
00000000
00000000
00000000
00000000
,
10000000
00000000
00000000
00000000
,
00010000
00000000
00000000
00000000
,
00001000
00000000
00000000
00000000
,
00000001
00000000
00000000
00000000
,
00000100
00000000
00000000
00000000
,
00001000
00000000
00000000
00000000
,
01000000
00000000
00000000
00000000
,
10000000
00000000
00000000
00000000
,
10000000
00000000
00010000
00000000
,
00001000
00000000
00000001
00000000
,
00000001
00000000
00000100
00000000
,
00001000
00010000
00010000
00000000
,
00100000
00000000
00000000
00000000
,
10000000
00000000
00000000
00000000
,
01000000
00000000
00000000
00000000
,
00010000
00000000
00000000
00000000
,
00000010
00000000
00000000
00000000
,
00000001
00000000
00000000
00000000
,
00000100
00000000
00000000
00000000
,
00001000
00000000
00000000
00000000
,
00010000
00000000
00100000
00000000
,
10000000
00000000
01000000
00000000
,
00001000
00000000
00000010
00000000
,
00000001
00000000
00000100
00000000
,
00000010
00000010
00000000
00000000
,
00000100
00000100
00000000
00000000
,
00100000
00100000
00000000
00000000
,
01000000
01000000
00000000
00000000
,
00000010
00000000
00001000
00000000
,
00000001
00000000
00000100
00000000
,
00010000
00000000
00001000
00000000
,
00010000
00000000
00001000
00000000
,
00100000
00000000
00010000
00000000
,
10000000
00000000
01000000
00000000
,
00001000
00000000
00010000
00000000
,
00001000
00000000
00000000
00000000
,
10010000
00000000
00000000
00000000
,
00011000
00000000
00000000
00000000
,
00001001
00000000
00000000
00000000
,
00011000
00000000
00000000
00000000
,
10000000
00000000
00000000
00000000
,
00010000
00000000
00000000
00000000
,
00000001
00000000
00000000
00000000
,
00000100
00000000
00000000
00000000
,
00002000
00000000
00000010
00003000
,
00000100
00000000
00010000
00000000
,
00002000
00000000
00100000
00003000
,
01000000
00000000
00010000
00000000
,
00100000
00000000
10000000
00000000
,
01000000
00000000
00010000
00000000
,
00000010
00000000
00000001
00000000
,
00000100
00000000
00010000
00000000
,
00000010
00000010
00000000
00000000
,
00000100
00000100
00000000
00000000
,
00100000
00100000
00000000
00000000
,
01000000
01000000
00000000
00000000
,
00010000
00000000
00100000
00000000
,
10000000
00000000
01000000
00000000
,
00001000
00000000
00010000
00000000
,
00001000
00000000
00010000
00000000
,
00001000
00000000
00000010
00000000
,
00000001
00000000
00000100
00000000
,
00010000
00000000
00001000
00000000
,
00010000
00000000
00000000
00000000
,
00001001
00000000
00000000
00000000
,
00011000
00000000
00000000
00000000
,
10010000
00000000
00000000
00000000
,
00011000
00000000
00000000
00000000
,
00000110
00000000
00000000
00000000
,
00011000
00000000
00000000
00000000
,
01100000
00000000
00000000
00000000
,
00011000
00000000
00000000
00000000
,
00000001
00000000
00000000
00000000
,
00001000
00000000
00000000
00000000
,
10000000
00000000
00000000
00000000
,
00001000
00000000
00000000
00000000
,
00020000
00000000
00100000
00030000
,
01000000
00000000
00001000
00000000
,
00020000
00000000
00000010
00030000
,
00000100
00000000
00000000
00000000
,
00011000
00000000
00000000
00000000
;

//---------------dance-double - ----------------
#NOTES:
     dance-double:
     :
     Medium:
     6:
     0.445,0.517,0.312,0.151,0.000:
00000000
00000000
00000000
00000000
,
00000000
00000000
00000000
00000000
,
00000000
00000000
00000000
00000000
,
00000000
00000000
00000000
00000000
,
10000000
00000000
01000000
00000000
,
00010000
00000000
00001000
00000000
,
00000010
00000000
00000001
00000000
,
00000100
00001000
00001000
00000000
,
00000001
00000100
00000010
00000000
,
00001000
00100000
01000000
00000000
,
00100000
01000000
10000000
00000000
,
00100000
00010000
00010000
00000000
,
00001000
00000010
00000100
00000000
,
00000001
00000100
00000010
00000000
,
00000010
00001000
00000100
00000000
,
00001000
00010000
00001000
00000000
,
00000010
00010000
00100000
00010000
,
00000010
00010000
00100000
00010000
,
00000010
00010000
00100000
00010000
,
00010000
00100000
00010000
00000010
,
00100000
00001000
00000010
00001000
,
00100000
00001000
00000010
00001000
,
00100000
00001000
00000010
00001000
,
00001000
00000010
00001000
00100000
,
01000000
00001000
00000010
00001000
,
01000000
00001000
00000010
00001000
,
01000000
00001000
00000010
00001000
,
00001000
00000010
00001000
01000000
,
00100000
00100000
00001000
00001000
,
00000010
00000010
00010000
00010000
,
00100000
00100000
00001000
00001000
,
00000010
00000010
00010000
00010000
,
10000000
01000000
00100000
00001000
,
00010000
00000100
00000010
00000001
,
00000001
00000100
00000010
00010000
,
00001000
01000000
00100000
00000000
,
10000000
01000000
00100000
00001000
,
00010000
00000100
00000010
00000001
,
00000001
00000100
00000010
00010000
,
00001000
01000000
00100000
00100000
,
11000000
00000000
11000000
00000000
,
00110000
00000000
00011000
00000000
,
00011000
00000000
00001010
00000000
,
00000101
00000000
00000101
00000000
,
00000010
00000000
00001000
00000100
00001000
00000000
00000010
00000000
,
00010000
00000000
00001000
00100000
00001000
00000000
01000000
00000000
,
00100000
00000000
10000000
01000000
10000000
00000000
00010000
00000000
,
01000000
00000000
00001000
00010000
00001000
00000000
00100000
00000000
,
22000000
03000000
00010000
30010000
,
02002000
00003000
03001000
00000000
,
00002020
00003000
00001000
00001030
,
00000220
00000030
00001300
00000000
,
01000000
00001000
00000010
00001000
,
01000000
00001000
00000010
00001000
,
01000000
00001000
00000010
00001000
,
00100000
01000000
00001000
00010000
,
00100000
00100000
00001000
00001000
,
00000010
00000010
00010000
00010000
,
00000100
00000100
00010000
00010000
,
01000000
01000000
00001000
00001000
,
10000000
01000000
00100000
00001000
,
00010000
00000100
00000010
00000001
,
00000001
00000100
00000010
00010000
,
00001000
01000000
00100000
00000000
,
10000000
01000000
00100000
00001000
,
00010000
00000100
00000010
00000001
,
00000001
00000100
00000010
00010000
,
00001000
01000000
00100000
00100000
,
11000000
00000000
11000000
00000000
,
11000000
00000000
11000000
00000000
,
00011000
00000000
00011000
00000000
,
00011000
00000000
00011000
00000000
,
00000101
00000000
00000101
00000000
,
00000101
00000000
00000101
00000000
,
00001000
00010000
00001000
00010000
,
00011000
00011000
00011000
00011000
,
00100000
00000000
00010000
01000000
00010000
00000000
00100000
00000000
,
00001000
00000000
00010000
00001000
00010000
00000000
00000100
00000000
,
00000010
00000000
00000001
00000100
00000001
00000000
00001000
00000000
,
00000100
00000000
00010000
00001000
00010000
00000000
00000010
00000000
,
00000202
00000300
00001000
00001003
,
00020200
00030000
00010300
00000000
,
00220000
00030000
00010000
00310000
,
02200000
00300000
03010000
00000000
,
00011000
00000000
00000000
00000000
;

//---------------dance-single - not easy but not har----------------
#NOTES:
     dance-single:
     not easy but not har:
     Challenge:
     10:
     0.772,1.000,0.644,0.284,0.099: // measure 1
0000
0000
0000
0000
,  // measure 2
0000
0000
0000
0000
,  // measure 3
0000
0000
0000
0000
,  // measure 4
0000
0000
0000
0000
,  // measure 5
0000
0000
0000
0000
,  // measure 6
0000
0000
0000
0000
,  // measure 7
0000
0000
0000
0000
,  // measure 8
0000
0000
0000
0000
,  // measure 9
1000
0001
0100
0001
1000
0100
0010
0000
,  // measure 10
0001
1000
0100
0001
0100
0000
0010
0000
,  // measure 11
0001
0010
1000
0010
0001
0100
0010
0000
,  // measure 12
1000
0001
0010
0100
1000
0000
1001
0000
,  // measure 13
0100
0010
1000
0100
0010
0001
1000
0001
,  // measure 14
0100
0000
0010
1000
0100
0000
1000
0100
,  // measure 15
0001
0100
1000
0000
0001
1000
0001
0100
,  // measure 16
0010
0100
0010
1000
0010
0100
0001
0000
0000
1100
0000
0000
,  // measure 17
0101
0000
0000
0000
1000
0000
0100
0000
0010
0000
0001
1000
0001
0000
0100
0000
,  // measure 18
0000
0000
0010
1000
0010
0000
0100
0000
1010
0000
0000
0000
0101
0000
0000
0000
,  // measure 19
1001
0000
0000
0000
0100
0000
0001
0000
0000
0000
1000
0100
1000
0000
0001
0000
,  // measure 20
0000
0100
0010
0100
0001
0001
1000
0000
,  // measure 21
1010
0000
0000
0000
0100
0000
0001
0000
1000
0000
0001
0100
0001
0000
1000
0000
,  // measure 22
0000
0000
0100
1000
0100
0000
0010
0000
0011
0000
0000
0000
1100
0000
0000
0000
,  // measure 23
0011
0000
1000
0010
0000
0010
1000
0001
,  // measure 24
0000
0010
0010
0100
1001
0000
1001
0000
,  // measure 25
1100
0000
0000
0000
0001
0000
0001
0000
0100
0000
0010
1000
0010
0000
0100
0000
,  // measure 26
0000
0000
0001
1000
0100
0000
0010
0000
0011
0000
0000
0000
1100
0000
0000
0000
,  // measure 27
0011
0000
1000
0010
0000
0100
0001
0100
,  // measure 28
0000
0010
0010
0100
0001
0001
1000
0000
,  // measure 29
0101
0000
0101
0000
0010
1000
0100
0000
,  // measure 30
0011
0000
0011
0000
1000
0010
0100
0000
,  // measure 31
0010
1000
1000
0100
0010
0010
0001
1000
,  // measure 32
1100
0000
0101
0000
0010
1000
0100
0000
,  // measure 33
0011
0000
1000
0100
0010
0000
0001
1000
,  // measure 34
0010
0001
0010
0000
1010
0000
0101
0000
,  // measure 35
1000
0000
0100
0010
0001
0000
0100
0010
,  // measure 36
1000
1000
0100
0000
0001
0001
0100
0000
,  // measure 37
0110
0000
1000
0001
0100
0000
0010
1000
,  // measure 38
0001
0001
0010
0000
1100
0000
0011
0000
,  // measure 39
1000
0000
0100
0010
0001
0000
1000
0010
,  // measure 40
0100
0010
0100
0000
0001
0000
0010
0000
0100
1000
0100
0000
1000
0000
0001
0000
,  // measure 41
1010
0010
0110
0100
,  // measure 42
0101
0001
1001
1000
,  // measure 43
1100
0100
0110
0010
,  // measure 44
0011
1001
1100
1001
,  // measure 45
0010
0100
0001
1000
,  // measure 46
0010
0010
0100
0000
0001
0001
1000
0000
,  // measure 47
0100
0010
0100
0000
0010
0100
0010
0000
,  // measure 48
0100
0010
0001
1000
0010
0100
0001
1000
,  // measure 49
0200
0320
0032
0203
0320
0230
0302
0203
,  // measure 50
0000
0320
0230
0302
2003
3200
0320
0032
,  // measure 51
2003
3020
0230
0302
0023
0230
2300
3002
,  // measure 52
0023
0230
2300
3002
0203
0310
0000
0000
,  // measure 53
0101
0000
0000
0000
0001
0000
1000
0000
0100
0000
0010
0001
0010
0000
0100
0000
,  // measure 54
0000
0000
0100
1000
0001
0000
0100
0000
1010
0000
0000
0000
0101
0000
0000
0000
,  // measure 55
1001
0000
1000
0100
0000
0010
0001
0100
,  // measure 56
0000
0010
0010
0100
0001
0001
0100
0000
,  // measure 57
1100
0000
0101
0000
0010
1000
0100
0000
,  // measure 58
0011
0000
1100
0000
0001
1000
0100
0000
,  // measure 59
0010
0010
0001
1000
0010
0010
0100
0001
,  // measure 60
1001
0000
1001
0000
0010
0100
0001
0000
,  // measure 61
0100
0010
1000
0100
,  // measure 62
0001
0100
1000
0001
,  // measure 63
0100
0010
1000
0001
,  // measure 64
0100
0010
0100
1001
,  // measure 65
0101
0000
1000
0010
0100
0000
0001
0100
,  // measure 66
0001
0001
1000
0000
1100
0000
0011
0000
,  // measure 67
1100
0000
0001
0100
0010
0000
0010
0100
,  // measure 68
0001
0100
0001
0000
1000
0000
0001
0000
0010
0100
0010
0000
0001
0000
1000
0000
,  // measure 69
1010
1000
1001
0001
,  // measure 70
0011
0010
0110
0100
,  // measure 71
1100
0000
1000
0001
0101
0000
0100
0010
,  // measure 72
1010
0000
1000
0001
0011
0000
1000
0001
,  // measure 73
1000
0100
0001
0100
1000
0000
0001
0100
,  // measure 74
0010
0001
0010
1000
0001
0000
1000
0001
,  // measure 75
1000
0100
0001
0100
1000
0001
0100
1000
,  // measure 76
0100
0001
0100
0001
1000
0100
0010
0000
,  // measure 77
0011
1100
1001
0110
,  // measure 78
0001
0001
1000
0010
0100
0100
0001
1000
,  // measure 79
0001
0100
0001
0000
1000
0010
1000
0000
,  // measure 80
0010
1000
0001
0100
1000
0100
0001
0010
,  // measure 81
0110
0000
0000
0000
0001
0000
0010
0000
0100
1000
0010
0000
0001
0000
0010
0000
,  // measure 82
0000
0000
0100
0001
1000
0000
0100
0000
0010
0000
0010
0000
0001
0000
0100
0000
,  // measure 83
0110
0000
0000
0000
1000
0000
0001
0000
0100
0010
0100
0000
0001
0000
0010
0000
,  // measure 84
0000
0000
0100
1000
0001
0000
0100
0000
0010
0000
1000
0000
0000
0000
0000
0000
,  // measure 85
0202
0000
0000
0000
,  // measure 86
0303
0000
0000
0000
;
