#TITLE:Into the Green (Everfree Renaissance Remix feat. Chi-chi);
#SUBTITLE:;
#ARTIST:&I;
#TITLETRANSLIT:;
#SUBTITLETRANSLIT:;
#ARTISTTRANSLIT:;
#GENRE:Classical;
#CREDIT:;
#BANNER:Into the Green (Everfree Renaissance Remix).png;
#BACKGROUND:Into the Green (Everfree Renaissance Remix)-bg.png;
#LYRICSPATH:;
#CDTITLE:;
#MUSIC:Into the Green (Everfree Renaissance Remix).mp3;
#OFFSET:-9.619995;
#SAMPLESTART:60.019997;
#SAMPLELENGTH:15.000000;
#SELECTABLE:YES;
#BPMS:0.000000=100.000000
,48.000000=200.000000
;
#STOPS:48.000000=1.500000
;
#BGCHANGES:;
#KEYSOUNDS:;
#ATTACKS:;

//---------------dance-single - ----------------
#NOTES:
     dance-single:
     :
     Beginner:
     3:
     0.138381,0.148981,0.009497,0.028490,0.000000,102.000000,101.000000,1.000000,3.000000,0.000000,0.000000,0.138381,0.148981,0.009497,0.028490,0.000000,102.000000,101.000000,1.000000,3.000000,0.000000,0.000000:
1000
0000
0001
0000
,
1000
0000
0000
0000
,
0010
0000
0100
0000
,
0010
0000
0000
0000
,
1001
0000
0000
0000
,
0100
0000
0000
0000
,
0010
0000
0000
0000
,
0001
0000
0000
0000
,
0100
0000
0000
0000
,
0010
0000
0000
0000
,
1000
0000
0000
0000
,
0001
0000
0000
0000
,
0000
0000
0000
1000
,
0000
1000
0000
0001
,
0000
0001
0000
0100
,
0000
0100
0000
0010
,
0000
0010
0000
0100
,
0000
0100
0000
0001
,
0000
0001
0000
0010
,
0000
0010
0000
0100
,
0000
0100
0000
1000
,
0000
0100
0000
1000
,
0000
0000
0000
0001
,
0000
0100
0000
0001
,
0000
0000
0000
1000
,
0000
0010
0000
1000
,
0000
0000
0000
0001
,
0000
0010
0000
0001
,
0000
0000
0000
0100
,
0000
0100
0000
0100
,
0000
0100
0000
0010
,
0000
0010
0000
0010
,
0000
0010
0000
1000
,
0000
1000
0000
1000
,
0000
1000
0000
0001
,
0000
0001
0000
0001
,
0000
0001
0000
0010
,
0000
0001
0000
0010
,
0000
0001
0000
1000
,
0000
0100
0000
1000
,
0000
0100
0000
2000
,
0000
0000
0000
3000
,
0000
0000
0000
0002
,
0000
0000
0000
0003
,
0000
0000
0000
0100
,
0000
0100
0000
0100
,
0000
0100
0000
0010
,
0000
0010
0000
0010
,
0000
0010
0000
1000
,
0000
1000
0000
1000
,
0000
1000
0000
0001
,
0000
0010
0000
0100
,
0000
1000
0000
0001
,
0000
0010
0000
0001
,
0000
1000
0000
0010
,
0000
1000
0000
0010
,
0000
0100
0000
0001
,
0000
0100
0000
0001
,
0000
1000
0000
0100
,
0000
1000
0000
0100
,
0000
1000
0000
0002
,
0000
0000
0000
0000
,
0000
0000
0000
0003
;

//---------------dance-single - ----------------
#NOTES:
     dance-single:
     :
     Easy:
     6:
     0.275406,0.297961,0.018994,0.066477,0.000000,203.000000,201.000000,2.000000,7.000000,0.000000,0.000000,0.275406,0.297961,0.018994,0.066477,0.000000,203.000000,201.000000,2.000000,7.000000,0.000000,0.000000:
1000
0010
1000
0001
,
0010
0001
0100
0010
,
0100
0001
0010
0100
,
1000
0010
0100
0001
,
2001
0000
0001
0000
,
0001
0000
0001
0000
,
3001
0100
0020
1000
,
0130
0001
2000
0100
,
3002
0000
1000
0000
,
1000
0000
1000
0000
,
1003
0010
0200
1000
,
0301
0010
0100
1000
,
0000
0000
0000
0001
,
0100
0000
0001
1000
,
0010
0000
0010
1000
,
0100
0000
0100
0010
,
0100
0000
1000
0010
,
0100
0000
0001
0010
,
1000
0000
0010
0001
,
1000
0000
0010
0100
,
0001
0000
0100
0010
,
1000
0100
0000
1000
,
0001
0100
0000
0010
,
0100
0001
1000
0100
,
0010
0001
0000
0010
,
0001
1000
0000
0010
,
1000
0100
0000
0010
,
0100
1000
0001
0100
,
0010
1000
0000
0001
,
0100
0010
0100
0001
,
1000
0100
0000
0010
,
0001
0100
1000
0100
,
0001
0010
0000
0100
,
1000
0010
1000
0001
,
0010
0100
0000
0100
,
1000
0010
0100
0001
,
0100
0010
0000
1000
,
0100
0001
0100
1000
,
0010
0100
0000
0001
,
0010
1000
0010
0100
,
1000
0001
0000
0100
,
0010
1000
0100
1000
,
0001
0100
0000
0010
,
0100
0001
1000
0100
,
0010
0001
0000
1000
,
0000
1000
0000
0010
,
0100
0001
1000
0100
,
0000
0010
0000
0100
,
1000
0001
0100
0010
,
0000
1000
0000
0010
,
0100
0001
1000
0010
,
0000
0001
0000
0100
,
0000
1000
0000
0010
,
1000
0010
1000
0001
,
0010
0001
0010
0100
,
1000
0010
0100
0001
,
0010
0100
1000
0001
,
0100
0001
0100
0010
,
1000
0010
1000
0010
,
0100
0001
0010
0100
,
1000
0010
0100
2002
,
0000
0000
0000
0000
,
0000
0000
0000
3003
;

//---------------dance-single - ----------------
#NOTES:
     dance-single:
     :
     Medium:
     8:
     0.335100,0.357553,0.142451,0.218426,0.000000,247.000000,232.000000,15.000000,23.000000,0.000000,0.000000,0.335100,0.357553,0.142451,0.218426,0.000000,247.000000,232.000000,15.000000,23.000000,0.000000,0.000000:
1000
0000
0100
0000
0010
0000
0100
1000
,
0010
0000
0100
0000
0001
0000
0010
1100
,
0001
0000
0010
0000
0100
0000
1000
0010
,
0100
0000
0001
0000
0100
0000
0010
0100
,
0002
0010
1000
0100
,
0010
0100
1000
0010
,
2003
0000
0100
0000
0010
0000
0001
0100
,
0001
0000
0010
0000
0100
0000
0001
0100
,
3020
0001
0100
1000
,
0100
0000
0001
0000
1000
0000
0100
0001
,
0230
1000
0010
0001
,
1000
0000
0010
0000
0001
0010
1000
0310
,
0000
0000
0000
1000
,
0010
0000
0000
1000
0010
0000
0100
0000
,
0010
0000
0000
0100
0010
0000
0100
0000
,
0001
0000
0000
0100
0001
0000
1000
0000
,
0100
0000
0000
1000
0100
0000
0010
0000
,
0001
0000
0000
0010
0001
0000
0100
0000
,
0010
0000
0000
0100
0010
0000
1000
0000
,
0100
0000
0000
0010
0001
0000
0100
0000
,
0010
0000
0000
1000
0001
0000
0010
0000
,
0001
0000
0000
0010
0001
0000
0100
0000
,
0010
0000
0000
0100
0010
0000
1000
0000
,
0100
0000
0000
1000
0100
0000
1000
0000
,
0010
0000
0000
1000
0010
0000
0100
0000
,
0001
0000
0000
0100
0001
0000
0010
0000
,
0100
0000
0000
0010
0100
0000
1000
0000
,
0001
0000
0000
1000
0001
0000
0100
0000
,
0010
0100
0000
0100
0010
0000
1000
0000
,
0000
0100
0000
0000
0010
0000
0000
0001
,
0000
0011
1100
0001
,
0000
0100
0000
0000
0010
0000
0000
1000
,
0000
1010
0101
0010
,
0000
0100
0000
0000
1000
0000
0000
0010
,
0000
0101
1010
0100
,
0000
0001
0000
0000
0010
0000
0000
0100
,
0000
1100
0011
0100
,
0000
1000
0000
0000
0010
0000
0200
0000
,
0302
0023
0230
2300
,
3000
0100
0000
0110
0000
0010
0002
0000
,
0023
0230
2300
3010
,
0000
0100
0000
0000
0001
0000
0000
0010
,
0000
0110
1100
2010
,
0000
3002
0000
0000
0103
0000
0000
0020
,
0000
1030
0100
0011
,
0100
1000
0010
0100
,
0001
0010
0100
0000
,
0100
0000
1000
0000
0010
1000
0000
0000
,
0010
0100
0001
0000
,
0010
0000
0001
0000
1000
0100
0000
0010
,
0100
1100
1000
0020
,
0000
0032
0000
0203
,
0000
2300
0000
3010
,
0100
0010
0100
0001
,
0010
0001
0010
0100
,
1000
0100
1000
0010
,
0100
0010
0100
0001
,
0010
0000
0000
0001
0010
0000
0100
0000
,
1000
0000
0000
0100
1000
0000
0020
0000
,
0000
0230
0000
0301
,
0010
0000
0100
0000
1000
0001
2000
0000
,
0000
0000
0000
0000
,
0000
0000
0000
3000
;

//---------------dance-single - ----------------
#NOTES:
     dance-single:
     :
     Hard:
     12:
     0.535889,0.715106,0.284903,0.056981,0.204180,395.000000,365.000000,30.000000,6.000000,0.000000,0.000000,0.535889,0.715106,0.284903,0.056981,0.204180,395.000000,365.000000,30.000000,6.000000,0.000000,0.000000:
1010
0000
1000
0000
0001
0000
0010
0001
0000
0001
0100
0000
0110
0000
0010
0000
,
1000
0001
1000
0100
0000
0010
0000
0100
0000
1000
0010
0000
0100
0000
0001
1000
,
0001
0000
0010
0000
0001
0000
0100
0001
0000
0000
1000
0000
0100
0000
0010
0000
,
0100
1000
0001
1000
0000
0010
0000
0100
0000
0001
0010
0000
0110
0000
0110
0000
,
1001
0000
1000
0000
0200
0000
0000
0000
0010
0000
0000
0001
0000
0000
1300
0000
,
0100
1000
0001
0100
0000
0010
0100
0000
0001
0000
0010
0000
0100
0000
1000
0000
,
0010
1000
0010
0100
0000
0001
0000
1000
0100
0010
0100
0000
1000
0000
0001
0000
,
0100
0001
0010
0001
0000
1000
0000
0010
0000
0100
0010
0000
0100
0000
0001
0000
,
2001
0000
0010
0000
0100
0000
0001
0100
3010
1000
0001
0100
0001
0000
0010
0000
,
0210
0000
1000
0000
0301
0000
0100
1000
0000
1000
0010
0000
0100
0000
0001
0000
,
1000
0001
0010
0001
0000
0010
0000
0100
0000
1000
0010
0000
0100
0000
0010
0000
,
1000
0100
0001
0100
0000
0010
0000
0001
0000
1000
0010
0000
0100
0000
0010
0000
,
0000
0000
1000
0100
0010
0100
1000
0010
,
0001
0010
1000
0000
0100
0010
0100
0010
,
0000
0001
0100
0000
0020
0000
1030
0000
,
0010
0000
0101
0000
0001
1000
0000
0100
,
0000
1000
0100
0010
0100
1000
0010
0000
,
0100
0001
1000
1001
,
0001
0010
0000
0010
0100
0000
1000
0000
,
0010
1000
0100
0110
,
0010
0001
0010
0000
0100
0000
1000
0000
,
0001
0000
0101
0000
0100
0010
0100
0000
,
0001
0100
0001
0100
0010
1000
0010
0000
,
1000
0001
1000
0000
0001
0010
1000
0000
,
0010
0100
0000
0010
0100
0000
1000
0000
,
0010
0101
0001
1001
,
1000
0100
0000
0100
0001
0000
0100
0000
,
0010
0100
0010
0000
0001
0010
0100
0000
,
1000
0001
0000
0001
0100
0000
0010
0010
,
0000
1000
1000
0000
0001
0001
0000
0010
,
0010
0000
0110
0000
1100
0000
1000
1000
,
0000
0001
0001
0000
0100
0100
0000
0010
,
0010
0000
0110
0000
1010
0000
1000
1000
,
0000
0001
0001
0000
0010
0010
0000
0100
,
0100
0110
0011
0001
,
1000
0001
1000
0000
0010
0000
0001
1000
,
0001
0000
0010
0000
0100
0000
0001
0001
,
0000
0100
0100
0000
0010
0010
0000
1000
,
1000
0000
1001
0000
0011
0000
0010
0010
,
0000
0100
0100
0000
1000
1000
0000
0001
,
0001
0000
0101
0000
0110
0000
0010
0010
,
0000
1000
1000
0000
0100
0100
0000
0001
,
0001
0000
0101
0000
0110
0000
0010
0010
,
0000
0001
0001
0000
0100
0100
0000
1000
,
1000
1100
0110
0010
,
1000
0001
1000
0000
0010
0100
0000
0100
,
0010
1000
0001
0010
,
0100
0010
0100
0000
1000
0001
0000
0001
,
1000
0010
0100
0001
,
0010
0001
0010
0000
0001
1000
0000
1000
,
0010
0000
0100
0000
0010
0000
1000
1000
,
0000
0001
0001
0000
0010
0010
0000
0100
,
0100
0110
1001
0001
,
1000
0010
1000
0000
0010
0100
0000
0100
,
0001
1000
0100
1000
,
0001
0010
0001
0000
0010
0100
0000
0100
,
1000
0001
0100
0010
,
0100
0010
0100
0000
0010
1000
0000
1000
,
0001
0000
0010
0000
0100
0000
1000
1000
,
0000
0100
0100
0000
1000
1000
0001
0000
,
0100
0000
0010
0000
1000
0001
2002
0000
,
0000
0000
0000
0000
,
0000
0000
0000
3003
;

//---------------dance-single - ----------------
#NOTES:
     dance-single:
     :
     Challenge:
     17:
     0.834359,0.893883,0.322890,0.047484,0.636283,615.000000,581.000000,34.000000,5.000000,0.000000,0.000000,0.834359,0.893883,0.322890,0.047484,0.636283,615.000000,581.000000,34.000000,5.000000,0.000000,0.000000:
// measure 0
0001
1000
0100
0010
0000
0011
0000
1100
0000
0001
0100
0000
0110
0000
1001
0000
,  // measure 1
1000
0010
0100
0001
0000
1001
0000
1100
0000
0001
0010
0000
0110
0000
1100
0010
,  // measure 2
0001
1000
0001
0000
0100
0001
0000
1001
0000
0001
0100
0000
0110
0000
1010
0000
,  // measure 3
0001
1000
0100
0010
0000
0011
0000
1010
0000
0100
0001
0000
0101
0000
1000
0000
,  // measure 4
1100
0000
0200
0000
0010
0000
0000
0000
0001
0000
0000
0010
0000
0000
1300
0000
,  // measure 5
0001
0100
0001
1000
0000
0000
0100
0000
0010
0000
0001
0000
1000
0000
0010
0000
,  // measure 6
0100
0010
1000
0001
0000
0010
0000
0100
0000
1000
0100
0000
1000
0000
0001
0000
,  // measure 7
0100
0001
1000
0100
0000
1000
0000
0001
0000
1000
0010
0000
0100
0000
0001
0000
,  // measure 8
1020
0000
1000
0000
0130
0000
0010
1000
0000
0001
0010
0000
0011
0000
0000
0000
,  // measure 9
0021
0000
0001
0000
0130
0000
0100
1000
0000
0000
0001
0000
0100
0000
0010
0000
,  // measure 10
1000
0100
0010
0100
0000
0011
0000
1100
0000
0001
0100
0000
0101
0000
1010
0000
,  // measure 11
0001
0100
0010
0100
0000
1010
0000
0101
0000
0001
1000
0000
1100
0000
0011
0000
,  // measure 12
1001
0000
1000
0010
0100
0001
1000
0100
,  // measure 13
0010
0000
0100
1000
0100
1000
0001
0000
0100
0000
0010
0000
1000
0000
0001
0000
,  // measure 14
0010
0000
0001
1000
0001
1000
0010
0000
0100
0000
0001
0000
1000
0000
0100
0000
,  // measure 15
0010
0000
0001
1000
0010
0100
0001
0000
1000
0000
0100
0000
0010
0000
0001
0000
,  // measure 16
0100
0000
0010
1000
0001
0100
0010
0000
1000
0000
0100
0000
0100
0000
0010
0000
,  // measure 17
0001
0000
0100
0000
0010
1000
0010
0000
0100
0000
0001
1000
0100
0000
0010
0000
,  // measure 18
0001
1100
1000
0001
0011
0000
0010
0100
,  // measure 19
0010
0000
0001
1000
0010
0000
0100
0000
0001
0000
0010
0100
1000
0000
0001
0000
,  // measure 20
0100
0101
0000
0000
1001
0000
0001
1000
,  // measure 21
0001
1000
0010
0100
0010
0100
0010
1000
,  // measure 22
0010
1000
0100
1000
0100
1000
0001
0010
,  // measure 23
0001
0010
0001
0100
0001
0100
0001
1000
,  // measure 24
0100
0000
0010
0000
0001
0000
0100
0000
0010
1000
0001
0000
1000
0000
0100
0000
,  // measure 25
1000
0100
1000
0100
1000
0100
1000
0001
,  // measure 26
1000
0001
0100
0001
0100
0001
0100
0010
,  // measure 27
0100
0010
1000
0001
1000
0010
0100
0001
,  // measure 28
0010
0000
0100
0000
1000
0001
1000
0001
0010
0100
1000
0000
0001
1000
0010
0000
,  // measure 29
0100
0000
0001
1000
0100
0000
0010
0000
0001
0100
0010
0000
1000
0000
0100
0010
,  // measure 30
0001
0000
1000
0000
0010
0000
1000
0000
0001
0000
0000
0000
1000
0010
1000
0000
,  // measure 31
0001
0000
0010
0001
1000
0000
0010
0000
0100
0001
0100
0000
0010
0000
1000
0001
,  // measure 32
0010
0000
0100
0000
0010
0000
0001
0000
1000
0000
0000
0000
0100
1000
0001
0000
,  // measure 33
0010
0000
0100
1000
0100
0000
0010
0000
0001
1000
0010
0000
0100
0000
0010
1000
,  // measure 34
0001
0000
0010
0000
0100
0000
1000
0000
0001
0000
0000
0000
1000
0100
1000
0000
,  // measure 35
0001
0000
0100
0000
1000
0000
0100
0000
0010
0000
1000
0001
0010
0000
0100
0000
,  // measure 36
0010
0000
0001
0000
1100
0000
0000
0000
0011
0000
0000
0000
0100
1000
0001
0000
,  // measure 37
0100
0000
0010
1000
0010
0000
0100
0000
0001
0100
0010
0000
1000
0000
0001
0010
,  // measure 38
0100
0000
1000
0000
0001
0100
0001
0000
1000
0100
1000
0000
0001
0100
0010
0000
,  // measure 39
1000
0000
0100
0010
0001
0000
1000
0000
0010
0100
0001
0000
0010
0000
0100
1000
,  // measure 40
0100
0000
0010
0000
0001
0100
0010
0000
1000
0100
0010
0000
0100
1000
0001
0000
,  // measure 41
0100
0000
0010
1000
0001
0000
0010
0000
0100
1000
0001
0000
0100
0000
0010
1000
,  // measure 42
0100
0000
0010
0000
0001
0010
0001
0000
1000
0100
1000
0000
0010
1000
0001
0000
,  // measure 43
0010
0000
0100
0000
1000
0000
0001
0000
0100
0010
1000
0000
0001
0000
0010
0000
,  // measure 44
0100
0000
1000
0000
0001
0100
0010
1000
0001
0100
0010
1000
0001
0000
1000
0000
,  // measure 45
0100
0000
0010
0001
1000
0010
0100
0000
0010
0000
1000
0000
0100
0000
0010
0000
,  // measure 46
0001
0000
0010
0001
1000
0001
0100
0000
0010
1000
0010
0000
0100
0000
0001
0000
,  // measure 47
1000
0000
0100
0010
0001
1000
0010
0000
0100
0000
0010
0000
1000
0000
0001
0000
,  // measure 48
0010
0000
0100
1000
0001
1000
0010
0000
0100
0001
1000
0000
0010
0000
0100
0000
,  // measure 49
1000
0000
0100
0000
0010
1000
0001
0000
0010
0000
0100
0000
0001
0000
0100
0000
,  // measure 50
1000
0000
0100
0000
0010
0001
1000
0000
0010
0000
1000
0000
0010
1000
0001
0000
,  // measure 51
0010
0000
0100
0000
0010
0001
0100
0000
0010
0000
1000
0000
0001
0010
0100
0000
,  // measure 52
0001
0000
0100
0000
0010
0001
1000
0000
0010
0000
1000
0000
0001
0000
0010
0000
,  // measure 53
0100
0000
0100
1000
0100
0010
0001
0000
1000
0000
0010
0000
0100
0000
0010
0000
,  // measure 54
1000
0000
0010
0100
0001
1000
0100
0000
0010
0001
1000
0000
0100
0000
0010
0000
,  // measure 55
0100
0000
1000
0001
0100
0010
1000
0000
0001
0000
0010
0000
0100
0000
0001
0000
,  // measure 56
0100
0000
0010
0001
1000
0100
0010
0000
0001
1000
0010
0000
0100
0000
1000
0000
,  // measure 57
0100
0000
0001
1000
0100
0010
0100
0000
0001
0000
0100
0000
0010
0000
0001
0000
,  // measure 58
1000
0000
0010
0100
0001
1000
0010
0000
1000
0000
0100
0000
0010
0000
0100
0000
,  // measure 59
0001
0100
0010
0001
1000
0010
0100
0010
,  // measure 60
0010
1000
0001
0010
0100
1000
0001
0100
0010
0000
1000
0000
2002
0000
0000
0000
,  // measure 61
0000
0000
0000
0000
,  // measure 62
0000
0000
0000
3003
;
