#TITLE:Everypony's Bangin';
#SUBTITLE:;
#ARTIST:Silva Hound;
#TITLETRANSLIT:;
#SUBTITLETRANSLIT:;
#ARTISTTRANSLIT:;
#GENRE:Electro-House;
#CREDIT:;
#BANNER:everyponys_bangin_bn.png;
#BACKGROUND:everyponys_bangin_background.png;
#LYRICSPATH:;
#CDTITLE:;
#MUSIC:Everypony's Bangin'.mp3;
#OFFSET:-0.060000;
#SAMPLESTART:67.543747;
#SAMPLELENGTH:15.000000;
#SELECTABLE:YES;
#BPMS:0.000000=128.000000
;
#STOPS:140.000000=1.410000
;
#BGCHANGES:;
#KEYSOUNDS:;
#ATTACKS:;

//---------------dance-single - ----------------
#NOTES:
     dance-single:
     :
     Beginner:
     2:
     0.079636,0.172401,0.057667,0.000000,0.000000,58.000000,52.000000,6.000000,0.000000,0.000000,0.000000,0.079636,0.172401,0.057667,0.000000,0.000000,58.000000,52.000000,6.000000,0.000000,0.000000,0.000000:
0000
0000
0000
0000
,
0000
0000
0000
0000
,
0000
0000
0000
0000
,
0000
0000
0000
0000
,
0000
0000
0000
0000
,
0000
0000
0000
0000
,
0000
0000
0000
0000
,
0000
0000
0000
0000
,
0010
0000
0010
0000
,
0010
0000
0000
0000
,
0100
0000
0100
0000
,
0100
0000
0000
0000
,
0001
0000
0001
0000
,
0001
0000
0000
0000
,
1000
0000
1000
0000
,
1000
0000
0000
0000
,
1001
0000
0000
0000
,
0000
0000
0000
0000
,
0000
0000
0000
0000
,
0000
0000
0000
0000
,
0100
0000
0000
0000
,
0100
0000
0000
0000
,
0010
0000
0000
0000
,
0010
0000
0000
0000
,
0001
0000
0000
0000
,
0001
0000
0000
0000
,
1000
0000
0000
0000
,
1000
0000
0000
0000
,
1001
0000
0000
0000
,
0010
0000
0000
0000
,
0100
0000
0000
0000
,
0001
0000
0000
0000
,
1001
0000
0000
0000
,
0100
0000
0000
0000
,
0010
0000
0010
0000
,
0010
0010
0000
0000
,
0000
0010
0000
0000
,
0000
0100
0000
0000
,
0000
0100
0000
0100
,
0000
0001
0000
0000
,
0000
0001
0000
0000
,
0000
1000
0000
0000
,
0000
1001
0000
0000
,
0000
0100
0000
0000
,
0000
0100
0000
0000
,
0000
0010
0010
0010
,
0000
0010
0000
0000
,
0000
0001
0000
0000
,
0000
1000
0000
0000
,
0000
0100
0100
0100
,
0000
0110
0000
0000
,
0000
1001
0000
0000
;

//---------------dance-single - ----------------
#NOTES:
     dance-single:
     :
     Easy:
     4:
     0.204582,0.270916,0.192225,0.019222,0.000000,149.000000,129.000000,20.000000,2.000000,0.000000,0.000000,0.204582,0.270916,0.192225,0.019222,0.000000,149.000000,129.000000,20.000000,2.000000,0.000000,0.000000:
0000
0000
0000
0000
,
0000
0000
0000
0000
,
0000
0000
0000
0000
,
0000
0000
0000
0000
,
0000
0000
0000
0000
,
0000
0000
0000
0000
,
0000
0000
0000
0000
,
0000
0000
0000
0000
,
0010
0100
0010
0010
,
1000
0100
1000
1000
,
0001
0100
0001
0001
,
0010
0000
0100
0000
,
1000
0100
1000
1000
,
0100
0001
0100
0100
,
0010
0001
0010
0010
,
0110
0000
0000
0100
,
1001
0000
0000
0000
,
0000
0000
0000
0000
,
1000
0000
1000
0000
,
0001
0000
0001
0000
,
1001
0000
0000
0000
,
0110
0000
0000
0000
,
1001
0000
0000
0000
,
0110
0000
0000
0100
0000
0000
0000
0000
,
1001
0000
0000
0000
,
0110
0000
0000
0000
,
1001
0000
0000
0000
,
0110
0000
0000
0010
0000
0000
0000
0000
,
1001
0001
1000
0001
,
0100
0010
0100
0010
,
1000
0010
1000
0010
,
0100
0001
0100
0001
,
0010
1000
0100
0001
,
0010
1000
0100
0001
,
1000
0100
0001
0010
,
1000
0001
1001
0100
,
0100
0010
0001
0100
,
0100
1000
0100
0001
,
0100
0010
0000
0100
,
0000
0010
1001
0100
,
0100
0001
0100
1000
,
1000
0010
0100
0001
,
1000
1001
0000
0000
,
0000
0100
1100
0001
,
0101
0010
1000
0001
,
0010
0100
0100
0010
,
0010
0100
1000
0001
,
0100
0010
1010
0001
,
0011
0100
1000
0001
,
0100
0001
0001
1000
,
1000
2002
0000
0000
,
3003
0110
0000
0000
;

//---------------dance-single - ----------------
#NOTES:
     dance-single:
     :
     Medium:
     7:
     0.289710,0.376640,0.288337,0.134557,0.000000,211.000000,181.000000,30.000000,14.000000,0.000000,0.000000,0.289710,0.376640,0.288337,0.134557,0.000000,211.000000,181.000000,30.000000,14.000000,0.000000,0.000000:
0000
0000
0000
0000
,
0000
0000
0000
0000
,
0000
0000
0000
0000
,
0000
0000
0000
0000
,
0000
0000
0000
0000
,
0000
0000
0000
0000
,
0000
0000
0000
0000
,
0000
0000
0000
0000
,
0010
0000
1000
0000
0100
1000
0100
0000
,
0010
0000
0001
0000
0100
0001
0100
0000
,
0010
0000
1000
0000
0100
1000
0100
0000
,
0010
0001
0100
1000
,
0010
0000
0001
0000
0100
1000
0100
0000
,
0001
0000
0010
0000
1000
0001
0100
0000
,
1000
0000
0010
0000
0100
0001
0010
0000
,
0110
0000
0000
0010
,
2002
0000
0000
0000
,
3003
0000
0000
0000
,
0002
0003
2000
3000
,
0001
0001
1000
1000
,
1001
0000
0000
0100
0000
0000
1000
0000
,
1010
0000
0000
0100
0000
0000
0001
0000
,
0011
0000
0000
0100
0000
0000
1000
0000
,
1001
0000
0000
0110
0000
0000
1000
0000
,
1001
0000
0000
0001
0000
0000
0010
0000
,
0011
0000
0000
0100
0000
0000
1000
0000
,
1100
0000
0000
0010
0000
0000
0100
0000
,
1001
0000
0000
0110
0000
0000
0100
0000
,
1100
0001
1000
0100
,
1100
0010
1000
0010
,
0110
0001
0100
0010
,
1010
0000
1000
0001
0000
1000
0001
0000
,
0010
0001
0100
1000
,
0001
0010
1000
0100
,
0010
0001
0010
0001
1000
0100
1000
0100
,
1000
0010
0101
0010
,
1000
0100
1000
0000
1001
0000
0001
0100
,
1000
0100
0001
0000
0011
0000
0100
1000
,
0001
0021
0100
1000
,
0001
0030
0100
0000
0110
0000
0010
1000
,
0001
0000
0010
0000
1100
0000
0001
0100
,
1000
0100
0001
0000
0011
0000
0100
1000
,
0001
2002
0000
3003
,
0010
0010
1000
0100
1000
0001
0000
0100
,
0000
0110
0000
0010
0000
0100
0000
1000
,
0010
0100
1000
0000
0100
0000
0010
0000
,
1000
0000
0001
0000
1000
0000
0100
1000
,
0001
0100
0010
1000
1010
0000
0101
0000
,
1001
0000
0100
0000
1000
0001
0000
1000
,
0100
0010
0002
0000
0203
0000
0320
0000
,
1030
0001
2002
0000
0000
0000
3003
0000
,
0010
0100
0220
0000
0000
0000
0000
0000
,
0000
0330
0000
0000
;

//---------------dance-single - ----------------
#NOTES:
     dance-single:
     :
     Hard:
     11:
     0.403672,0.477077,0.230669,0.173002,0.211447,294.000000,270.000000,24.000000,18.000000,0.000000,0.000000,0.403672,0.477077,0.230669,0.173002,0.211447,294.000000,270.000000,24.000000,18.000000,0.000000,0.000000:
0000
0000
0000
0000
,
0000
0000
0000
0000
,
0000
0000
0000
0000
,
0000
0000
0000
0000
,
0000
0000
0000
0000
,
0000
0000
0000
0000
,
0000
0000
0000
0000
,
0000
0000
0000
0000
,
0000
0000
0010
0000
0000
1000
0100
0000
1000
0000
0001
0000
0010
0000
0100
0000
,
0000
0000
1000
0000
0000
0100
1000
0000
0001
0000
0100
0000
0010
0000
1000
0000
,
0000
0000
0001
0000
0000
0010
0001
0000
0100
0000
0010
0000
1000
0000
0001
0000
,
0010
0000
0100
1000
0000
0001
0000
0100
0000
0000
0010
0000
0100
0000
0001
0000
,
1000
0000
0100
0000
0000
1000
0001
0000
0100
0000
0010
0000
1000
0000
0100
0000
,
0000
0000
0001
0000
0000
0100
1000
0000
0010
0000
0100
0000
0001
0000
0010
0000
,
0000
0000
0100
0000
0000
1000
0001
0000
0100
0000
0010
0000
1000
0000
0001
0000
,
2002
0000
0000
0000
0000
3003
0100
0010
,
1001
0000
0000
0000
,
0000
0000
0000
0000
,
1000
0000
0001
0000
1000
0000
0001
1000
,
0001
0001
1000
0001
1000
1000
0001
0000
,
1001
0000
0000
0010
0000
0000
0100
0000
0000
0000
0010
0000
0010
0000
0010
0000
,
0110
0000
0000
0000
0000
0000
0000
0000
0000
0100
0000
0000
0000
0000
0000
0000
0000
0000
0100
0000
0000
0000
0000
0000
0001
0000
0000
0000
1000
0000
0000
0000
0001
0000
0000
0000
1000
0000
0000
0000
0000
0000
0000
0000
0100
0000
0000
0000
,
0010
0000
0000
0001
0000
0000
1001
0000
0000
0000
1000
0000
1000
0000
1000
0000
,
1001
0000
0000
0000
0000
0000
0000
0000
0000
0100
0000
0000
0000
0000
0000
0000
0000
0000
0110
0000
0000
0000
0000
0000
0001
0000
0000
0000
1000
0000
0000
0000
0001
0000
0000
0000
1000
0000
0000
0000
0000
0000
0000
0000
0010
0000
0000
0000
,
0100
0000
0000
0001
0000
0000
0100
0000
0000
0000
0100
0000
0100
0000
0100
0000
,
0110
0000
0000
0000
0000
0000
0000
0000
0000
0010
0000
0000
0000
0000
0000
0000
0000
0000
1000
0000
0000
0000
0000
0000
0001
0000
0000
0000
0010
0000
0000
0000
0001
0000
0000
0000
0010
0000
0000
0000
0000
0000
0000
0000
0001
0000
0000
0000
,
0010
0000
0000
0100
0000
0000
1100
0000
0000
0000
1000
0000
1000
0000
1000
0000
,
1010
0000
0000
0000
0000
0000
0000
0000
0000
0010
0000
0000
0000
0000
0000
0000
0000
0000
0110
0000
0000
0000
0000
0000
0100
0000
0000
0000
1000
0000
0000
0000
0100
0000
0000
0000
1000
0000
0000
0000
0000
0000
0000
0000
0100
0000
0000
0000
,
0002
0010
1000
0100
,
0023
1000
0100
0001
,
2030
0100
0001
0010
,
3200
0001
0010
1000
,
0302
0013
2000
3200
,
0302
0203
0320
2030
,
3100
0001
1000
0010
0001
0010
0100
1000
,
1001
0000
0000
0000
0010
0000
0100
0000
0101
0000
0001
0000
0100
0000
0000
0100
,
0010
0010
1000
0100
1000
0001
0100
0100
,
0010
0000
0000
0000
1000
0000
0100
0000
1000
0001
1000
0000
0010
0000
0100
0000
,
0101
0000
0000
0001
1000
0000
0100
1000
0000
0010
0000
0200
0000
0000
0301
0000
,
0010
0000
0100
0000
1000
0000
0100
0000
0001
0000
0100
0000
1000
0000
0000
1000
,
0001
0001
0100
0010
1000
0001
0010
0010
,
1100
0000
0000
0000
0001
0000
0100
0000
0010
1000
0010
0000
0100
0000
0001
0000
,
1000
2002
0000
3003
,
0010
0010
1000
0100
1000
0001
0100
1000
,
0100
0001
0010
0100
1000
0001
0000
0001
,
0100
0010
1010
0000
0101
0000
1001
0000
,
0001
0000
0000
0001
1000
0000
0100
1000
0000
0001
0000
0100
0000
0000
0010
0000
,
1000
0001
0010
0001
0100
0010
1000
0010
,
0001
0010
1000
0100
0010
0100
0000
0100
,
0001
0100
1100
0000
1001
0000
0101
0000
,
0110
0000
0000
0000
1000
0000
0010
0100
0000
0001
0000
1000
0000
0000
0100
0000
,
0010
0001
2002
0000
0000
0000
0000
0000
,
0000
3003
0000
0000
;

//---------------dance-double - ----------------
#NOTES:
     dance-double:
     :
     Easy:
     4:
     0.203209,0.295545,0.201836,0.105723,0.000000,148.000000,127.000000,21.000000,11.000000,0.000000,0.000000,0.203209,0.295545,0.201836,0.105723,0.000000,148.000000,127.000000,21.000000,11.000000,0.000000,0.000000:
00000000
00000000
00000000
00000000
,
00000000
00000000
00000000
00000000
,
00000000
00000000
00000000
00000000
,
00000000
00000000
00000000
00000000
,
00000000
00000000
00000000
00000000
,
00000000
00000000
00000000
00000000
,
00000000
00000000
00000000
00000000
,
00000000
00000000
00000000
00000000
,
00100000
01000000
00010000
10000000
,
01000000
00100000
00010000
01000000
,
00001000
00010000
00000010
00001000
,
00000200
00000300
00000020
00000030
,
00000001
00000100
00000010
00000100
,
00000001
00000010
00000100
00010000
,
00001000
00100000
00010000
10000000
,
02000000
00000000
00000000
03000000
,
01100000
00000000
00000000
00000000
,
00000000
00000000
00000000
00000000
,
01000000
00000000
01000000
00000000
,
00100000
00000000
00100000
00000000
,
01100000
00000000
00000000
00000000
,
10010000
00000000
00100000
00000000
,
00011000
00000000
00000000
00000000
,
00000010
00000000
00000000
00000010
00000000
00000000
00000010
00000000
,
00001000
00000000
00000000
00000000
,
00001001
00000000
00000110
00000000
,
00001001
00000000
00000000
00000000
,
00000001
00000000
00000100
00000000
,
00000010
00001000
00001000
00001000
,
00000100
00000001
00000001
00000001
,
00000100
00001000
00000010
00010000
,
00001000
00100000
00010000
01000000
,
00200000
00010000
01000000
10300000
,
02000000
00010000
10000000
03100000
,
10000000
00010000
00100000
00001000
,
00011000
00010000
00011000
00010000
,
00000010
00001000
00001100
00000100
,
00000000
00000010
00000011
00000001
,
00000100
00000020
00000030
00000200
,
00000300
00000001
00000011
00000100
,
00001000
00000010
00010010
00001000
,
00000000
00100000
00110000
00010000
,
01000000
00200000
00000000
00300000
,
00000000
00100000
10000000
01000000
,
00010000
01000000
00100000
00001000
,
00010000
00011000
00011000
00011000
,
00000010
00002000
00003000
00000002
,
00000003
00000010
00000001
00000100
,
00000010
00001000
00000100
00010000
,
00001000
00011000
00011000
00011000
,
00000000
00200000
00000000
00000000
,
01300000
10010000
00000000
00000000
;

//---------------dance-double - ----------------
#NOTES:
     dance-double:
     :
     Medium:
     6:
     0.278726,0.418689,0.413283,0.076890,0.000000,203.000000,160.000000,43.000000,8.000000,0.000000,0.000000,0.278726,0.418689,0.413283,0.076890,0.000000,203.000000,160.000000,43.000000,8.000000,0.000000,0.000000:
00000000
00000000
00000000
00000000
,
00000000
00000000
00000000
00000000
,
00000000
00000000
00000000
00000000
,
00000000
00000000
00000000
00000000
,
00000000
00000000
00000000
00000000
,
00000000
00000000
00000000
00000000
,
00000000
00000000
00000000
00000000
,
00000000
00000000
00000000
00000000
,
00100000
00000000
10000000
00000000
01000000
10000000
00010000
00000000
,
00100000
00000000
00010000
00000000
01000000
00001000
00010000
00000000
,
00000010
00000000
00001000
00000000
00000100
00000010
00000100
00000000
,
00001000
00001001
00000010
00000110
,
00000100
00000000
00000001
00000000
00000010
00000100
00000010
00000000
,
00000100
00000000
00010000
00000000
00001000
00100000
00001000
00000000
,
00100000
00000000
00010000
00000000
01000000
00100000
01000000
00000000
,
02200000
00000000
03300000
01100000
,
10010000
00000000
00000000
00000000
,
00000000
00000000
00000000
00000000
,
00100000
00000000
01000000
00000000
,
10000000
10000000
00010000
00010000
,
10010000
00000000
00000000
00000000
,
01100000
00000000
00110000
00000000
,
00011000
00000000
00000000
00000000
,
00001010
00000000
00000000
00000110
00000000
00000000
00000101
00000000
,
00001001
00000000
00000000
00000000
,
00000110
00000000
00001100
00000000
,
00010010
00000000
00000000
00000000
,
00011000
00000000
00000000
01010000
00000000
00000000
10010000
00000000
,
02000000
10000000
00100000
03010000
,
02010000
00100000
10000000
03100000
,
00100000
00010000
00100000
00000000
00010000
01000000
00010000
00000000
,
00100000
00001000
00100000
00000000
00001000
00010000
00001000
00000000
,
00011000
00010010
00001010
00001100
,
00000110
00000011
00000101
00000110
,
00000010
00000000
00000100
00000000
00000001
00001000
00000001
00001000
,
00000000
00000001
00001001
00000001
,
00001000
00000100
00001000
00000000
00001010
00000000
00000010
00000000
,
00010000
00000000
00001000
00000000
00101000
00000000
00100000
00010000
,
00100000
01000000
10000000
00100000
,
01000000
00010000
01010000
00100000
,
00001000
00100000
00001000
00000000
00010000
00000000
00000010
00001000
,
00000010
00000000
00001000
00000000
00001100
00000000
00000100
00000010
,
00000100
00002002
00000000
00000000
,
00003003
00000010
00000101
00000010
,
00001010
00000100
00010100
00010000
,
00001000
00100000
00010000
00000000
00110000
00000000
00010000
00000000
,
01010000
01000000
00100000
01000000
,
00010000
10000000
01000000
00000000
00100000
00000000
01000000
00000000
,
10000000
00010000
01000000
00000000
00010000
00100000
00000000
00100000
,
00001000
00010000
00010010
00000010
,
00001010
00002002
00000000
00003003
,
00000010
00000110
00000000
00000000
;

//---------------dance-double - ----------------
#NOTES:
     dance-double:
     :
     Hard:
     10:
     0.385822,0.422774,0.182613,0.105723,0.168196,281.000000,262.000000,19.000000,11.000000,0.000000,0.000000,0.385822,0.422774,0.182613,0.105723,0.168196,281.000000,262.000000,19.000000,11.000000,0.000000,0.000000:
00000000
00000000
00000000
00000000
,
00000000
00000000
00000000
00000000
,
00000000
00000000
00000000
00000000
,
00000000
00000000
00000000
00000000
,
00000000
00000000
00000000
00000000
,
00000000
00000000
00000000
00000000
,
00000000
00000000
00000000
00000000
,
00000000
00000000
00000000
00000000
,
00100000
10000000
01000000
10000000
00010000
01000000
00010000
00000000
,
00100000
00001000
00010000
00000010
00001000
00000100
00000001
00000000
,
00000001
00000100
00000010
00000001
00000100
00000010
00001000
00000100
,
00010000
00011000
00001000
00101000
,
00100000
00010000
01000000
00100000
01000000
00010000
10000000
00000000
,
00010000
00100000
00001000
00010000
00000010
00001000
00000100
00000000
,
00000100
00000010
00000001
00000100
00000010
00001000
00000001
00000000
,
00002002
00000000
00000000
00000000
00003003
00000000
00000010
00000100
,
00000220
00000000
00000000
00000000
,
00000330
00000000
00000000
00000000
,
00000010
00000000
00000100
00000000
00000001
00000000
00001000
00001000
,
00000100
00000000
00000010
00000000
00000001
00000100
00000001
00000100
,
00000101
00000000
00000000
00000010
00000000
00000000
00000010
00000000
00000000
00000000
00000010
00000000
00001000
00000000
00000010
00000000
,
00001000
00000000
00000000
00000000
00000000
00000000
00000000
00000000
00000000
00001000
00000000
00000000
00000000
00000000
00000000
00000000
00000000
00000000
00001000
00000000
00000000
00000000
00000000
00000000
00000001
00000000
00000000
00000000
00001000
00000000
00000000
00000000
00000001
00000000
00000000
00000000
00001000
00000000
00000000
00000000
00000000
00000000
00000000
00000000
00001000
00000000
00000000
00000000
,
00000001
00000000
00000000
00000001
00000000
00000000
00000001
00000000
00000000
00000000
00000010
00000000
00000001
00000000
00000010
00000000
,
00000100
00000000
00000000
00000100
00000000
00000000
00000100
00000000
00010000
00000000
00000000
00000000
00001000
00000000
00000000
00000000
,
00100000
00000000
00000000
00100000
00000000
00000000
00100000
00000000
00000000
00000000
00010000
00000000
00100000
00000000
00010000
00000000
,
00100000
00000000
00000000
00000000
00000000
00000000
00000000
00000000
00000000
00100000
00000000
00000000
00000000
00000000
00000000
00000000
00000000
00000000
00100000
00000000
00000000
00000000
00000000
00000000
01000000
00000000
00000000
00000000
10000000
00000000
00000000
00000000
01000000
00000000
00000000
00000000
10000000
00000000
00000000
00000000
00000000
00000000
00000000
00000000
01000000
00000000
00000000
00000000
,
10000000
00000000
00000000
10000000
00000000
00000000
10000000
00000000
00000000
00000000
00010000
00000000
01000000
00000000
00010000
00000000
,
01000000
00000000
00000000
00100000
00000000
00000000
01000000
00000000
00000000
00000000
00000000
00000000
00010000
00000000
00000000
00000000
,
00200000
00001000
00010000
00301000
,
00021000
00000010
00001000
00030010
,
00000010
00001000
00000100
00001000
00000010
00000100
00000001
00000100
,
00000010
00001000
00000001
00001000
00000010
00001000
00000100
00000010
,
00000001
00000000
00000000
00000001
00000010
00000000
00000000
00000010
00000100
00000000
00000000
00000100
00001000
00000000
00000000
00001000
,
00000010
00000000
00000000
00000010
00010000
00000000
00000000
00010000
00001000
00000000
00000000
00001000
00100000
00000000
00000000
00100000
,
00010000
01000000
10000000
01000000
00010000
00100000
10000000
00100000
,
00010000
00000000
00000000
00000000
00010000
00000000
01000000
00000000
10000000
00000000
01000000
00000000
00010000
00000000
00000000
00010000
,
01000000
00100000
10000000
00010000
00100000
00001000
00010000
00000010
,
00001000
00000000
00000000
00000000
00001000
00000000
00000100
00000000
00000010
00000001
00000010
00000000
00000100
00000000
00001000
00000000
,
00000010
00000000
00000000
00000010
00010000
00000000
00000000
00001000
00000000
00100000
00000000
00001000
00000000
00000000
01000000
00000000
,
00010000
00000000
00100000
00000000
01000000
00000000
10000000
00000000
00100000
00000000
01000000
00000000
00010000
00000000
00000000
00010000
,
00100000
00001000
00010000
00000010
00001000
00000100
00000010
00000010
,
00000100
00000000
00000000
00000000
00000100
00000000
00001000
00000000
00000001
00000010
00000001
00000000
00000100
00000000
00000010
00000000
,
00001000
00000000
00000000
00001000
00000002
00000000
00000000
00000000
00000000
00000000
00000000
00000000
00000000
00000000
00000000
00000000
,
00001003
00000100
00000001
00000100
00001000
00001100
00000000
00001010
,
00000000
00010010
00010000
00000000
00001000
00100000
00000000
00100000
,
00010000
01000000
01100000
00000000
10010000
00000000
01100000
00000000
,
01000000
00000000
00000000
01000000
10000000
00000000
00000000
00010000
00000000
01000000
00000000
00010000
00000000
00000000
00100000
00000000
,
00001000
00010000
00000010
00001000
00000100
00000000
00000011
00000000
,
00000100
00001000
00000010
00000000
00000100
00000001
00000000
00000001
,
00001000
00000100
00010100
00000000
00010010
00000000
00101000
00000000
,
00110000
20020000
00000000
30030000
,
00100000
01000000
02200000
00000000
00000000
00000000
03300000
00000000
;

//---------------dance-single - ----------------
#NOTES:
     dance-single:
     :
     Challenge:
     14:
     0.652190,0.828608,0.663175,0.326782,0.567062,475.000000,406.000000,69.000000,34.000000,0.000000,0.000000,0.652190,0.828608,0.663175,0.326782,0.567062,475.000000,406.000000,69.000000,34.000000,0.000000,0.000000:
// measure 0
0000
0000
0000
0000
,  // measure 1
0000
0000
0000
0000
,  // measure 2
0000
0000
0000
0000
,  // measure 3
0000
0000
0000
0000
,  // measure 4
0000
0000
1100
0000
0000
0010
0001
0000
1000
0000
0010
0000
0100
0000
0001
0000
,  // measure 5
0000
0000
1010
0000
0000
0100
0001
0000
2000
0000
0100
0000
3002
0000
0103
0000
,  // measure 6
0000
0000
0101
0000
0000
0010
1000
0000
0001
0000
0010
0000
0100
0000
1000
0000
,  // measure 7
0202
0000
0000
0000
0000
0003
0310
0010
,  // measure 8
1000
0000
1100
0000
0010
0001
0100
0000
0010
0000
1000
0000
0001
0000
0100
0000
,  // measure 9
0010
0000
1010
0000
0100
0001
1000
0000
2000
0000
3100
0000
0002
0000
0013
0000
,  // measure 10
1000
0000
1100
0000
0001
0010
0100
0000
1000
0000
0001
0000
0100
0000
0010
0000
,  // measure 11
0101
0000
1000
0100
0000
0110
0000
0012
0000
0000
1000
0000
0100
0000
0013
0000
,  // measure 12
0000
0000
1100
0000
0001
0100
0010
0000
1000
0000
0100
0000
0001
0000
0100
0000
,  // measure 13
1000
0000
0011
0000
0100
1000
0001
0000
0100
0000
1000
0000
0100
0000
0001
0000
,  // measure 14
1000
0000
1010
0000
0100
0001
0010
0000
0100
0000
1000
0000
0010
0000
0001
0000
,  // measure 15
0010
0000
1000
0001
0000
0010
0000
0200
0000
0300
1100
0000
1001
0000
0101
0000
,  // measure 16
0020
0000
0000
0000
0000
0000
0000
0030
,  // measure 17
0010
1000
0001
1000
,  // measure 18
1000
0100
1000
0100
1000
0100
1000
0000
0000
0000
0000
0000
0001
0000
0000
0000
0000
0000
1000
0000
0000
1000
0000
0000
,  // measure 19
0001
0000
0001
0000
0100
0010
1000
0010
0100
0001
1000
0100
0010
0001
0010
0001
,  // measure 20
0011
0000
0000
0001
0000
0000
1001
0000
0000
0000
1002
0000
0100
0000
0013
0000
,  // measure 21
1100
0000
0000
0000
0000
0000
0000
0000
0000
0001
0000
0000
0000
0000
0000
0000
0000
0000
0101
0000
0000
0000
0000
0000
0100
0000
0000
0000
0001
0000
0000
0000
1000
0000
0000
0000
0100
0000
0000
0000
0000
0000
0000
0000
0010
0000
0000
0000
,  // measure 22
0011
0000
0000
1000
0000
0000
1010
0000
0000
0000
2010
0000
0100
0000
3001
0000
,  // measure 23
1001
0000
0000
0000
0000
0000
0000
0000
0000
1000
0000
0000
0000
0000
0000
0000
0000
0000
1100
0000
0000
0000
0000
0000
0001
0000
0000
0000
0100
0000
0000
0000
0010
0000
0000
0000
1000
0000
0000
0000
0000
0000
0000
0000
0001
0000
0000
0000
,  // measure 24
0011
0000
0000
1000
0000
0000
0201
0000
0000
0000
0001
0000
1000
0000
0310
0000
,  // measure 25
0101
0000
0000
0000
0000
0000
0000
0000
0000
0100
0000
0000
0000
0000
0000
0000
0000
0000
0110
0000
0000
0000
0000
0000
0010
0000
0000
0000
1000
0000
0000
0000
0100
0000
0000
0000
0010
0000
0000
0000
0000
0000
0000
0000
0100
0000
0000
0000
,  // measure 26
1100
0000
0000
0001
0000
0000
0201
0000
0000
0000
0010
0000
1000
0000
0301
0000
,  // measure 27
1100
0000
0000
0000
0000
0000
0000
0000
0000
1000
0000
0000
0000
0000
0000
0000
0000
0000
1001
0000
0000
0000
0000
0000
0001
0000
0000
0000
1000
0000
0000
0000
0001
0000
0000
0000
0100
0000
0000
0000
0000
0000
0000
0000
0010
0000
0000
0000
,  // measure 28
1010
0010
0101
1000
,  // measure 29
1100
0010
0011
0001
,  // measure 30
1001
0001
0100
0010
1010
0100
0001
1000
,  // measure 31
1100
0010
0001
0011
1000
0010
0101
1000
,  // measure 32
0001
0100
0001
0100
0010
1000
0010
1000
0001
0100
0001
0100
0010
1000
0010
1000
,  // measure 33
0100
1000
0100
1000
0001
0010
0001
0010
0100
1000
0100
1000
0001
0010
0001
0010
,  // measure 34
0001
0100
0010
1000
0001
0010
0100
1000
0010
0100
0001
1000
0100
0010
0001
1000
,  // measure 35
0020
0000
0030
0000
1010
0000
0101
0000
0001
0100
0001
0100
0010
0000
0000
0100
,  // measure 36
0010
0000
0010
0000
1010
0000
1100
0000
0010
0001
0010
0001
1000
0000
0010
0000
,  // measure 37
0100
0000
0001
0000
0100
0000
0001
0000
0100
0000
0001
0000
1000
0000
0000
0000
0000
0000
1100
0000
0000
0000
0000
0000
0001
0000
0000
1000
0000
0000
0001
0000
0000
1000
0000
0000
0100
0000
1000
0000
0100
0000
1000
0000
0100
0000
1000
0000
,  // measure 38
0001
0000
0000
0010
0001
0000
1000
0010
0000
0110
0000
2010
0000
0000
0010
0000
,  // measure 39
0100
0000
3001
0000
0011
0000
1100
0000
0001
0100
1000
0100
0010
0000
0000
0100
,  // measure 40
0010
0000
1000
0000
0011
0000
0101
0000
1000
0100
0001
0100
1000
0000
1001
0000
,  // measure 41
0001
0000
0100
0000
0001
0000
0100
0000
0001
0000
0100
0000
0010
0000
0000
0000
0000
0000
0101
0000
0000
0000
0000
0000
0001
0000
0000
1000
0000
0000
0100
0000
0000
0010
0000
0000
0100
0000
1000
0000
0100
0000
1000
0000
0100
0000
1000
0000
,  // measure 42
0001
0000
0000
0100
0001
0000
2000
0100
0000
0001
0000
3020
0000
0000
0001
0000
,  // measure 43
0100
1030
0010
1000
0100
0001
0100
0010
,  // measure 44
0001
1000
0010
0100
0001
2000
0100
3002
,  // measure 45
0010
0000
0000
1003
0000
0000
1100
0000
0000
0000
0000
0000
1001
0000
0000
0000
0000
0000
1000
0100
1000
0100
1000
0100
,  // measure 46
0010
0000
0000
0010
0001
0000
2000
0100
0000
0010
0000
3002
0000
0000
0100
0000
,  // measure 47
0010
1003
1001
0001
0100
1000
0100
0010
,  // measure 48
1000
0100
0011
0100
1000
1002
0010
1000
,  // measure 49
0203
0310
2020
3030
2200
3300
0022
0033
,  // measure 50
0202
0000
0303
0000
1001
0000
1000
0100
0000
0110
0000
0012
0000
0000
0010
0000
,  // measure 51
1000
0103
0220
0000
0000
0000
0000
0000
,  // measure 52
0000
0330
0000
0000
;
