#TITLE:Dragon Blade;
#SUBTITLE:"Dark Dragon" Special;
#ARTIST:Kozo Nakamura;
#TITLETRANSLIT:;
#SUBTITLETRANSLIT:;
#ARTISTTRANSLIT:;
#CREDIT:Dominator;
#BANNER:Dragon Blade.png;
#BACKGROUND:Dragon Blade-bg.png;
#LYRICSPATH:;
#CDTITLE:./CDTITLES/GuitarFreaks & DrumMania.png;
#MUSIC:Dragon Blade.mp3;
#OFFSET:0.899;
#SAMPLESTART:27.310;
#SAMPLELENGTH:10.000;
#SELECTABLE:YES;
#BPMS:0.000=240.000;
#STOPS:;
#BGCHANGES:;

//---------------dance-double - ----------------
#NOTES:
     dance-double:
     :
     Easy:
     6:
     0.396,0.445,0.086,0.021,0.000:
00000000
00000000
00000000
00000000
,
00000000
00000000
00000000
00000000
,
00000000
00000000
00000000
00000000
,
00000000
00000000
00000000
00000000
,
00000000
00000000
00000000
00000000
,
10000000
01000000
10000000
00000000
,
01000000
00010000
01000000
00000000
,
00010000
00001000
00010000
00000000
,
00001000
00000010
00001000
00000000
,
00000010
00000010
00000001
00000000
,
00001000
00001000
00000001
00000000
,
00000010
00000001
00000010
00000001
,
00000100
00001000
00000100
00001000
,
00010000
00100000
10000000
00100000
,
10000000
01000000
00100000
00010000
,
10000000
00000000
01000000
10000000
,
00010000
00000000
00100000
00010000
,
10000000
00000000
00000000
01000000
00000000
00010000
00000000
01000000
,
00000000
00000000
00000000
00010000
00000000
00001000
00000000
00000000
,
00000010
00000001
00000010
00000001
,
00000100
00001000
00000100
00001000
,
00010000
00100000
10000000
00010000
,
10000000
01000000
00100000
00010000
,
10000000
00010000
10000000
00000000
,
00000000
01000000
00100000
01000000
,
00100000
00000000
00100000
00000000
,
00001000
00000000
00001000
00000000
,
00010000
00000000
00000000
00000000
00001000
00000000
00000000
00010000
,
00000000
00000010
00000010
00000000
,
00000100
00000000
00000000
00000001
00000000
00000000
00001000
00000000
,
00000000
00000010
00000010
00000000
,
00000100
00001000
00010000
00000000
,
00001000
00010000
00100000
00000000
,
10000000
00010000
00100000
00000000
,
01000000
00010000
00001000
00000000
,
00000000
00000000
01000000
00000000
00100000
00000000
00000000
10000000
,
00000000
01000000
00000000
00010000
00000000
00001000
00000000
00000000
,
00000100
00000000
00000000
00000100
00000000
00000000
00000100
00000000
,
00000001
00000000
00001000
00000000
,
00000100
00000000
00000100
00000000
,
00000010
00000000
00000010
00000000
,
00000001
00000000
00000000
00000100
00000000
00000000
00000010
00000000
,
00000000
00010000
00000000
00000000
00001000
00000000
01000000
00000000
,
00100000
00000000
00000000
00100000
00000000
00000000
00100000
00000000
,
00000000
10000000
10000000
10000000
,
00100000
00000000
10000000
00000000
,
01000000
00000000
00010000
00000000
,
00001000
00000000
00010000
00000000
,
00000100
00000000
00000010
00000000
,
00000001
00000000
00001000
00000000
,
00000100
00000000
00010000
00000000
,
00001000
00000000
00100000
00000000
,
00010000
00000000
00010000
00000000
,
00100000
00010000
00100000
00000000
,
01000000
00010000
01000000
00000000
,
00010000
00001000
00010000
00000000
,
00000010
00000100
00000001
00000000
,
00000010
00000100
00000010
00000000
,
00000001
00001000
00000100
00000000
,
00010000
00001000
00100000
00000000
,
01000000
10000000
00010000
00000000
,
01000000
00000000
01000000
00000000
,
00100000
10000000
00010000
00000000
,
01000000
00000000
01000000
00000000
,
00001000
00010000
00000100
00000000
,
00000010
00000000
00000010
00000000
,
00000001
00001000
00000100
00000000
,
00010000
00000000
00010000
00000000
,
00000010
00000000
00000100
00000000
,
00001000
00001000
00001000
00000000
,
00010000
00010000
00010000
00000000
,
00011000
00000000
00000000
00011000
00000000
00000000
00011000
00000000
,
00000000
00000100
00000100
00000000
,
00000010
00000001
00000010
00000001
,
00000100
00001000
00000100
00001000
,
00010000
00100000
10000000
00100000
,
10000000
01000000
00100000
00010000
,
10000000
00000000
01000000
10000000
,
00010000
00000000
00100000
00010000
,
10000000
00000000
00000000
01000000
00000000
00010000
00000000
01000000
,
00000000
00000000
00000000
00010000
00000000
00001000
00000000
00000000
,
00000010
00000001
00000010
00000001
,
00000100
00001000
00000100
00001000
,
00010000
00100000
10000000
00010000
,
10000000
01000000
00100000
00010000
,
10000000
00010000
10000000
00000000
,
00000000
01000000
00100000
01000000
,
00001000
00000000
00001000
00000000
,
00011000
00000000
00010100
00000000
,
00000110
00000000
00000011
00000000
,
00000000
00000000
00000000
00000000
,
00002002
00000000
00000000
00000000
,
00003003
00000000
00000000
00000000
;

//---------------dance-double - ----------------
#NOTES:
     dance-double:
     :
     Medium:
     7:
     0.485,0.494,0.043,0.021,0.000:
00000000
00000000
00000000
00000000
,
00000000
00000000
00000000
00000000
,
00000000
00000000
00000000
00000000
,
00000000
00000000
00000000
00000000
,
00000000
00000000
00000000
00000000
,
00100000
10000000
01000000
00010000
,
01000000
00010000
00001000
00000010
,
00000001
00000100
00001000
00000100
,
00001000
00010000
00011000
00000000
,
00100000
00100000
00100000
00000000
,
10000000
10000000
10000000
00000000
,
00100000
10000000
01000000
00010000
,
01000000
00010000
00001000
00000010
,
00001000
00000010
00000001
00000100
,
00000001
00000100
00001000
00010000
,
00100000
00100000
10000000
10000000
,
01000000
01000000
00010000
00010000
,
00001000
00010000
00000000
00001000
00000000
00010000
00000000
00001000
,
00000000
00000010
00000000
00000001
00000000
00001000
00000000
00000000
,
00000010
00000001
00000100
00001000
,
00000100
00001000
00010000
00100000
,
00010000
00100000
10000000
01000000
,
10000000
01000000
00010000
00001000
,
00000010
00000000
00000001
00000000
00000010
00000000
00000000
00000001
,
00000000
00001000
00000100
00000010
,
00000001
00001000
00000001
00000000
,
00000100
00000010
00000100
00000000
,
00000001
00000000
00000000
00000000
00001000
00000000
00000001
00000100
,
00000000
00001000
00010000
00100000
,
10000000
00000000
00000000
00010000
00000000
00000000
10000000
00000000
,
00000000
00010000
10000000
01000000
,
00100000
00010000
10000000
01000000
,
00010000
00001000
00000010
00000001
,
00001000
00000010
00000100
00001000
,
00010000
00100000
10000000
00010000
,
00100000
00000000
00000000
00000000
01000000
00100000
00000000
00010000
,
00000000
10000000
00000000
01000000
00000000
00010000
00000000
00001000
,
00010000
00000000
00000000
00001000
00000000
00000000
00010000
00000000
,
00000010
00000100
00000010
00000000
,
00001000
00000000
00001000
00000000
,
00000001
00000000
00000001
00000000
,
00000100
00000010
00000000
00000010
00010000
00000000
00010000
00001000
,
00000000
00001000
01000000
00000000
00100000
00000000
01000000
00000000
,
00010000
01000000
00000000
00100000
01000000
00000000
00010000
10000000
,
00000000
00010000
00010000
00010000
,
10000000
00000000
01000000
00100000
,
00001000
00010000
00000100
00000000
,
00000010
00000000
00000001
00001000
,
00000100
00000010
00000001
00000000
,
00000100
00000000
00000010
00000000
,
00010000
00000000
00000000
00000000
00001000
00010000
00000000
00000000
,
00001000
00010000
00100000
10000000
,
00010000
10000000
00010000
00000000
,
00100000
01000000
00010000
00001000
,
00000010
00000100
00010000
00001000
,
01000000
00100000
10000000
01000000
,
00010000
00001000
00011000
00000000
,
00000010
00000100
00001000
00010000
,
00100000
01000000
00001000
00010000
,
00000100
00000010
00000001
00000100
,
00001000
00010000
00011000
00000000
,
01000000
00100000
00010000
10000000
,
00010000
00000000
01000000
00100000
00000000
00000000
10000000
00000000
,
01000000
00010000
00001000
00000010
,
00000001
00000000
00000100
00000010
00000000
00000000
00001000
00000000
,
00000001
00000100
00001000
00010000
,
00000100
00000000
00000000
00000010
00000000
00000000
00000001
00000000
,
00000100
00001000
00010000
00001000
,
01000000
00000000
00100000
00000000
10000000
00010000
10000000
00000000
,
00100000
00000000
01000000
00000000
10000000
00010000
00000000
00000000
,
10000000
00000000
01000000
00000000
00100000
01000000
00000000
00000000
,
00010000
00000000
00000000
00001000
00000000
00000000
00010000
00000000
,
00000000
00000010
00000100
00000000
,
00000100
00000001
00000010
00001000
,
00000010
00001000
00010000
01000000
,
00010000
01000000
10000000
00100000
,
10000000
00100000
00010000
00001000
,
00000100
00000100
00000001
00000001
,
00000010
00000010
00001000
00001000
,
00010000
00001000
00000000
00010000
00000000
00001000
00000000
00010000
,
00000000
01000000
00000000
10000000
00000000
00010000
00000000
00000000
,
01000000
10000000
00100000
00010000
,
00100000
00010000
00001000
00000100
,
00001000
00000100
00000001
00000010
,
00000001
00000010
00001000
00010000
,
01000000
00000000
10000000
00000000
01000000
00000000
00000000
10000000
,
00000000
00010000
00100000
01000000
,
10000000
00010000
10000000
00000000
,
01000000
00000000
01000000
00000000
,
00100000
00000000
00100000
00000000
,
00000000
00000000
00000000
00000000
,
00022000
00000000
00000000
00000000
,
00033000
00000000
00000000
00000000
;

//---------------dance-double - ----------------
#NOTES:
     dance-double:
     :
     Hard:
     8:
     0.612,0.593,0.011,0.021,0.043:
00000000
00000000
00000000
00000000
,
00000000
00000000
00000000
00000000
,
00000000
00000000
00000000
00000000
,
00000000
00000000
00000000
00000000
,
00000000
00000000
00000000
00000000
,
00100000
10000000
01000000
00010000
,
01000000
00010000
00001000
00000010
,
00000001
00000100
00001000
00000100
,
00001000
00000000
00010000
00000000
00100000
01000000
00100000
00000000
,
10000000
00000000
10000000
00000000
01000000
00100000
00000000
00100000
,
01000000
00000000
01000000
00000000
00010000
00001000
00000000
00001000
,
00000010
00000001
00000010
00000000
00000001
00001000
00000001
00000000
,
00000100
00001000
00010000
00100000
,
10000000
01000000
10000000
00000000
00010000
10000000
00010000
00000000
,
10000000
01000000
00010000
00001000
,
00000010
00000001
00000010
00000000
00000001
00001000
00000001
00000000
,
00000100
00000010
00000100
00000000
00000010
00010000
00000010
00000000
,
00001000
00000100
00000000
00010000
00000000
00001000
00000000
00100000
,
00000000
01000000
00000000
10000000
00000000
00100000
00000000
00000000
,
00100000
10000000
00100000
00000000
10000000
00010000
10000000
00000000
,
01000000
00010000
00001000
00000010
,
00000001
00000100
00000001
00000000
00001000
00000001
00001000
00000000
,
00000001
00000100
00001000
00010000
,
00100000
10000000
00100000
00000000
10000000
00000000
01000000
00100000
,
00000000
00100000
01000000
00000000
00010000
00000000
00001000
00000000
,
00000010
00000001
00000010
00000000
00000100
00000000
00010000
00000000
,
00001000
00010000
00001000
00000000
01000000
00000000
00100000
00000000
,
10000000
00000000
00010000
00000000
01000000
00100000
01000000
00010000
,
00000000
10000000
01000000
00010000
,
00001000
00000000
00000010
00000100
00000000
00000100
00000010
00000000
,
00000000
00000001
00000100
00001000
,
00010000
00000000
00001000
00010000
00001000
00000000
00100000
00000000
,
01000000
00000000
00100000
01000000
00100000
00000000
00010000
00000000
,
10000000
00000000
01000000
00100000
01000000
00000000
00010000
00000000
,
00001000
00000000
00000010
00000100
00000010
00000000
00000001
00000000
,
00001000
00000000
00000001
00000000
00000100
00000010
00000000
00000100
,
00000000
00001000
00000000
00010000
00000000
00001000
00000000
01000000
,
00100000
00000000
00000000
00100000
00000000
00000000
00100000
00000000
,
10000000
01000000
00010000
00001000
,
00000010
00000000
00000001
00001000
00000001
00000000
00000100
00000010
,
00000100
00000000
00000010
00010000
00000010
00000000
00001000
00000000
,
00000001
00000010
00000000
00000100
00000010
00000000
00000100
00010000
,
00000000
00001000
00010000
00000000
00001000
00000000
01000000
00000000
,
00100000
10000000
00000000
00100000
01000000
00000000
00010000
01000000
,
00000000
00100000
10000000
00010000
,
10000000
01000000
00000000
00000000
10000000
00000000
01000000
00000000
,
00010000
00000000
00001000
00000000
00010000
00001000
00000000
00000000
,
00000010
00000001
00000000
00000000
00000010
00000000
00000001
00000000
,
00000100
00001000
00010000
00000000
,
00100000
10000000
00000000
00000000
00010000
10000000
00000000
00000000
,
01000000
10000000
00000000
00000000
00010000
10000000
00000000
00000000
,
01000000
00010000
00001000
00000100
,
00000010
00001000
00000010
00000000
00000100
00000000
00000000
00000000
,
00000010
00001000
00000100
00010000
,
00001000
01000000
00010000
00100000
,
01000000
00010000
00001000
00000010
,
00000100
00000010
00000100
00000000
00000010
00000000
00000001
00000000
,
00000100
00000010
00010000
00001000
,
01000000
00010000
10000000
00100000
,
10000000
01000000
00010000
00001000
,
00000010
00000100
00000010
00000000
00000001
00000000
00001000
00000000
,
00000001
00000010
00001000
00010000
,
01000000
00000000
00100000
00010000
00000000
00010000
10000000
00000000
,
01000000
00010000
00001000
00000010
,
00000001
00000000
00001000
00000001
00000000
00000001
00000100
00000000
,
00001000
00010000
00100000
10000000
,
01000000
00000000
00100000
00010000
00000000
00010000
10000000
00000000
,
01000000
00010000
00001000
00000010
,
00000001
00001000
00000001
00000000
00000100
00000010
00000100
00000000
,
00000001
00000000
00000100
00000000
00000010
00010000
00000000
00010000
,
00001000
00000000
01000000
00000000
00100000
10000000
00000000
10000000
,
00010000
00000000
00000000
00010000
00000000
00000000
00010000
00000000
,
00000000
00000000
01000000
00100000
01000000
00000000
00000000
00000000
,
00100000
10000000
00100000
00000000
10000000
00010000
10000000
00000000
,
01000000
00010000
00001000
00000010
,
00000001
00000100
00000001
00000000
00001000
00000001
00001000
00000000
,
00000001
00000100
00001000
00010000
,
00100000
10000000
00100000
00000000
10000000
00010000
10000000
00000000
,
01000000
00100000
01000000
00000000
00100000
00001000
00100000
00000000
,
00010000
01000000
00000000
00001000
00000000
00010000
00000000
00000010
,
00000000
00000100
00000000
00000001
00000000
00000010
00000000
00000000
,
00000010
00000001
00000010
00000000
00000001
00001000
00000001
00000000
,
00000100
00001000
00010000
00100000
,
10000000
01000000
10000000
00000000
00010000
10000000
00010000
00000000
,
10000000
01000000
00010000
00001000
,
00000010
00000001
00000010
00000000
00000001
00000000
00000100
00000010
,
00000000
00000010
00000100
00000000
00001000
00000000
00010000
00000000
,
00100000
10000000
00100000
00000000
01000000
00000000
00001000
00000000
,
00010000
00000000
00000000
00000000
00000000
00000000
00000000
00000000
00000000
00000000
00001000
00000000
00000000
00000000
00000000
00000000
00000000
00000000
00000000
00000000
00000000
00001000
00000000
00000000
00000000
00000000
00000000
00000000
00000000
00000000
00000000
00000000
00010000
00000000
00000000
00000000
00000000
00000000
00000000
00000000
00000000
00000000
00001000
00000000
00000000
00000000
00000000
00000000
00000000
00000000
00000000
00000000
00000000
00001000
00000000
00000000
00000000
00000000
00000000
00000000
00000000
00000000
00000000
00000000
,
01000000
00000000
00000000
00000000
00000000
00000000
00000000
00000000
00000000
00000000
00100000
00000000
00000000
00000000
00000000
00000000
00000000
00000000
00000000
00000000
00000000
00100000
00000000
00000000
00000000
00000000
00000000
00000000
00000000
00000000
00000000
00000000
01000000
00000000
00000000
00000000
00000000
00000000
00000000
00000000
00000000
00000000
00100000
00000000
00000000
00000000
00000000
00000000
00000000
00000000
00000000
00000000
00000000
00100000
00000000
00000000
00000000
00000000
00000000
00000000
00000000
00000000
00000000
00000000
,
00000000
00000000
00000000
00000000
,
20020000
00000000
00000000
00000000
,
30030000
00000000
00000000
00000000
;

//---------------dance-single - It's hard----------------
#NOTES:
     dance-single:
     It's hard:
     Challenge:
     10:
     1.000,1.000,0.677,0.333,0.333: // measure 1
0000
0000
0000
0000
,  // measure 2
0001
0100
1000
0100
0000
0000
0010
1000
,  // measure 3
0000
0000
0001
1000
0100
0010
0000
0000
,  // measure 4
0001
1000
0100
0010
0000
0000
0100
1000
,  // measure 5
0000
0000
0100
0001
0100
0010
0100
1000
,  // measure 6
0001
1000
0001
0100
0001
0010
0100
1000
,  // measure 7
0001
0010
1000
0001
0100
1000
0001
0100
,  // measure 8
0010
0100
1000
0100
0010
1000
0100
0010
,  // measure 9
0001
1000
0100
0001
1000
0010
0001
0010
,  // measure 10
1100
0000
0000
0000
0000
0000
1100
0000
0000
0000
0000
0000
0010
0000
0000
0001
0000
0000
0000
0000
1000
0000
0100
0000
,  // measure 11
1000
0001
0100
1000
0100
0020
0000
0030
,  // measure 12
0100
0001
1000
0100
0010
1000
0010
0001
,  // measure 13
0000
0000
1000
0000
0100
0000
1000
0000
0000
0001
0000
0000
0100
0000
0000
0010
0000
0000
0000
0000
0000
0100
0000
0000
,  // measure 14
0001
1000
0010
0100
1000
0100
0001
1000
,  // measure 15
0100
0001
1000
0010
0002
0000
0000
0003
,  // measure 16
1000
0100
0010
0100
0001
1000
0010
0001
,  // measure 17
1000
0010
0100
0001
0100
1000
0100
0010
,  // measure 18
1000
0101
0000
0110
0000
1010
0000
1001
,  // measure 19
0000
1100
0000
0110
0000
0022
0000
0030
,  // measure 20
1003
0001
0100
0010
0100
1000
0100
0001
,  // measure 21
0000
0000
1000
0000
0010
0000
1000
0000
0000
0001
0000
0000
0010
0000
0000
0100
0000
0000
0000
0000
0000
0001
0000
0000
,  // measure 22
0100
1000
0001
0100
0010
0100
1000
0100
,  // measure 23
0001
0000
0000
0000
1000
0000
0100
0000
1000
0000
0100
0000
0020
0000
0000
0000
0000
0000
0000
0000
0000
0030
0000
0000
,  // measure 24
0100
0001
0100
1000
0001
0100
0010
1000
,  // measure 25
0000
0001
0100
0010
0001
0010
1000
0000
,  // measure 26
0001
0000
0000
1000
0000
0000
0001
0000
0010
0000
0001
0000
1000
0000
0000
0010
0000
0000
0100
0000
0001
0000
0100
0000
,  // measure 27
0001
0000
0000
1000
0000
0000
0100
0000
0010
0000
0100
0000
0010
0000
0000
0001
0000
0000
1000
0000
0010
0000
1000
0000
,  // measure 28
2002
0000
0000
0003
3100
0010
0001
1000
,  // measure 29
0000
0000
0010
1000
0010
0100
0001
1000
,  // measure 30
0200
0000
0300
0022
0000
0033
2002
0000
,  // measure 31
0000
3000
0013
0001
0010
0100
0010
0000
,  // measure 32
2200
3000
0310
0001
0010
0100
1000
0001
,  // measure 33
0200
0000
0310
1000
0001
0100
0010
0001
,  // measure 34
0020
0000
1030
0100
0001
0100
0010
0001
,  // measure 35
2000
0000
3010
0100
0010
0001
0010
1000
,  // measure 36
0002
0000
0000
0000
1003
0100
0001
0100
,  // measure 37
0000
0011
0000
1100
0000
1001
0000
0100
,  // measure 38
0010
0000
0000
0000
0000
0000
0000
0000
0000
0000
0000
0000
0000
0000
0000
0000
0000
0000
1010
0000
0000
0000
0000
0000
0000
0000
0000
0000
0000
0000
0000
0000
0000
0100
0000
0000
0001
0000
0000
0000
1000
0000
0000
0000
0001
0000
0000
0000
,  // measure 39
0000
0100
0001
0100
0010
1000
0001
0000
,  // measure 40
2200
0300
3100
0010
0002
0000
1003
0010
,  // measure 41
0200
0000
0301
1000
0200
0000
0310
0001
,  // measure 42
1000
1100
0000
0001
0101
0000
1000
1010
,  // measure 43
0000
0000
0000
0001
0000
0000
0011
0000
0000
0000
0000
0000
1000
0000
0100
0000
1000
0000
0001
0000
0000
0100
0000
0000
,  // measure 44
0010
0101
0000
1000
1100
0000
0100
1001
,  // measure 45
0000
0000
0000
0000
0000
0000
0001
0000
0010
0000
0100
0000
1000
0000
0000
0001
0000
0000
0100
0000
0000
0010
0000
0000
,  // measure 46
1000
0101
0000
0100
0001
1000
0100
0001
,  // measure 47
0100
0010
0001
1000
0001
0020
0000
0000
,  // measure 48
0031
1100
0000
0001
0100
0001
1000
0010
,  // measure 49
0001
1000
0100
0001
1000
0020
0000
0000
,  // measure 50
1030
0101
0000
0000
0001
1100
0000
0000
,  // measure 51
0010
1001
0000
0000
0100
1001
0000
0000
,  // measure 52
1000
0010
0100
0010
0001
0010
1000
0001
,  // measure 53
0010
0000
0000
0100
0000
0000
0010
0000
0000
0001
0000
0000
0010
0000
0000
0100
0000
0000
1000
0000
0100
0000
0010
0000
,  // measure 54
0100
0000
0000
1000
0000
0000
0001
0000
0010
0000
0001
0000
1000
0000
0000
0100
0000
0000
0010
0000
0001
0000
0010
0000
,  // measure 55
0001
0000
0000
1000
0000
0000
0100
0000
1000
0000
0100
0000
1000
0000
0000
0001
0000
0000
1000
0000
0100
0000
1000
0000
,  // measure 56
0001
0000
0000
0100
0000
0000
0010
0000
1000
0000
0010
0000
0100
0000
0000
0001
0000
0000
1000
0000
0010
0000
1000
0000
,  // measure 57
0001
0001
0100
1000
0001
0010
1000
0100
,  // measure 58
0010
0000
0000
0001
0000
0000
1000
0000
0100
0000
1000
0000
0001
0000
0000
0010
0000
0000
0100
0000
1000
0000
0100
0000
,  // measure 59
1000
0000
0000
0001
0000
0000
0010
0000
0001
0000
0010
0000
0001
0000
0000
1000
0000
0000
0001
0000
0010
0000
0001
0000
,  // measure 60
1000
0000
0000
0010
0000
0000
0100
0000
0001
0000
0100
0000
0010
0000
0000
1000
0000
0000
0001
0000
0100
0000
0001
0000
,  // measure 61
1000
0100
0010
0100
0001
1000
0010
0001
,  // measure 62
1100
0001
0101
1000
,  // measure 63
0001
0100
0010
1000
0000
0001
0010
0000
,  // measure 64
2200
0300
3001
0100
0010
0100
1000
0100
,  // measure 65
0010
0000
1000
0101
0000
0001
1000
0100
,  // measure 66
0010
0000
0100
0001
0100
0010
0100
1000
,  // measure 67
0101
0000
0000
0110
0000
0000
1001
0000
,  // measure 68
0100
0001
0100
1000
0001
0010
1000
0010
,  // measure 69
0100
0001
1000
0100
0001
1000
0010
0001
,  // measure 70
1100
0000
1100
0000
0001
0100
0000
0100
,  // measure 71
1000
0100
0001
0000
1000
0200
0000
1300
,  // measure 72
0011
0000
0000
1001
0000
0000
1100
0000
,  // measure 73
0000
0000
0010
0001
1000
0000
0110
0000
,  // measure 74
0010
1000
0010
0100
0001
1000
0100
0010
,  // measure 75
0000
0100
1000
0001
0100
0010
0000
0100
,  // measure 76
1000
0100
0001
1000
0100
0001
0100
1000
,  // measure 77
0001
0100
0010
1000
0002
0000
0000
0003
,  // measure 78
0010
0001
1000
0010
0100
0001
1000
0100
,  // measure 79
0010
0001
1000
0010
0100
0010
0001
0010
,  // measure 80
0100
0101
0000
1001
0000
1100
0000
0011
,  // measure 81
0000
1001
0000
0110
0000
1001
0000
0000
,  // measure 82
0100
0010
0100
1000
0001
0010
1000
0001
,  // measure 83
0000
0100
1000
0001
0010
1000
0000
0010
,  // measure 84
1000
0010
0100
0010
0001
0010
1000
0001
,  // measure 85
0100
0010
1000
0001
0200
0000
0000
0300
,  // measure 86
0010
0100
1000
0100
0010
1000
0100
0010
,  // measure 87
0000
0001
1000
0100
0010
0100
0001
0100
,  // measure 88
1000
0000
0000
0100
0000
0000
0010
0000
0001
0000
0010
0000
0001
0000
0000
1000
0000
0000
0010
0000
1000
0000
0010
0000
,  // measure 89
1010
0000
1001
0000
1100
0000
0011
0000
1010
0000
0101
0000
,  // measure 90
1100
0000
0011
0000
1001
0000
0101
0000
0110
0000
1001
0000
,  // measure 91
0200
0000
0000
0000
,  // measure 92
0310
0000
0000
0000
;
