#TITLE:Dance Celebration (System 7 Remix);
#SUBTITLE:"CHAOS" Special;
#ARTIST:Bill Hamel feat. Kevens;
#TITLETRANSLIT:;
#SUBTITLETRANSLIT:;
#ARTISTTRANSLIT:;
#CREDIT:Dominator;
#BANNER:Dance Celebration (System 7 Remix).png;
#BACKGROUND:Dance Celebration (System 7 Remix)-bg.png;
#LYRICSPATH:;
#CDTITLE:./CDTITLES/DanceDanceRevolution X.png;
#MUSIC:Dance Celebration (System 7 Remix).mp3;
#OFFSET:-0.053;
#SAMPLESTART:18.222;
#SAMPLELENGTH:14.540;
#SELECTABLE:YES;
#BPMS:0.000=132.000;
#STOPS:;
#BGCHANGES:;

//---------------dance-double - ----------------
#NOTES:
     dance-double:
     :
     Easy:
     6:
     0.271,0.295,0.043,0.312,0.000:
00000000
00000000
00000000
00000000
,
00000000
00000000
00000000
00000000
,
10000000
00000000
00000000
00000000
,
00010000
00000000
00000000
00000000
,
00001000
00000000
00000000
00000000
,
00000001
00000000
00000000
00000000
,
00000001
00000000
00001000
00000000
,
00000100
00000000
00010000
00000000
,
02000000
00000000
00000000
03000000
,
00200000
00000000
00000000
00300000
,
20000000
00010000
01000000
30010000
,
01000000
00010000
00001000
00000010
,
00000002
00000100
00000010
00000103
,
00000010
00001000
00000100
00010000
,
00002000
00000010
00010000
00003010
,
00010000
00100000
10000000
01000000
,
00010000
00001000
00010000
01000000
,
20000000
00000000
00000000
30000000
,
00100000
00100000
01000000
01000000
,
00010000
00001000
00000100
00000001
,
00000010
00000010
00000100
00000100
,
00010000
00001000
00010000
00011000
,
00100000
00100000
10000000
10000000
,
01000000
00010000
00001000
00000100
,
00000002
00000000
00000000
00000003
,
00002000
00000000
00000000
00003000
,
00000020
00000100
00001000
00000130
,
00001000
00010000
01000000
10000000
,
00020000
00100000
10000000
00130000
,
00001000
00010000
00000010
00000100
,
00000002
00000010
00001000
00000013
,
00000100
00001000
00010000
00100000
,
10000000
01000000
00010000
01000000
,
00001000
00020000
00000000
00030000
,
00002000
00000000
00000200
00003000
,
00000002
00000300
00000020
00000003
,
00002000
00000030
00020000
00003000
,
02000000
00030000
20000000
33000000
,
00010000
01000000
00000000
10000000
,
00100000
00010000
00000000
00001000
,
00000010
00000001
00000000
00001000
,
00000220
00000000
00000000
00000330
,
00002000
00010000
00000100
00013000
,
02000000
00010000
10000000
03010000
,
00200000
00001000
01000000
00301000
,
00010000
00001000
00000100
00000001
,
00000020
00001000
00000001
00001030
,
00020000
00001000
01000000
00031000
,
00010000
00100000
10000000
01000000
,
20020000
00000000
30030000
10010000
;

//---------------dance-double - ----------------
#NOTES:
     dance-double:
     :
     Medium:
     8:
     0.419,0.482,0.959,0.097,0.022:
00000000
00000000
00000000
00000000
,
00000000
00000000
00000000
00000000
,
00000010
00000000
00000001
00000000
,
00000100
00000000
00001000
00000000
,
00100000
00000000
10000000
00000000
,
01000000
00000000
00010000
00000000
,
00000010
00001000
00000010
00000000
00000001
00000000
00000100
00000000
,
00001000
00010000
00001000
00000000
00100000
00000000
00010000
00000000
,
01000000
00000000
00000000
00001000
00000000
00000000
00010000
00000000
00000000
00000010
00000000
00000000
00001000
00000000
00000000
00000000
,
00000200
00000000
00000000
00000300
,
00001010
00001010
00000011
00001010
,
00011000
00010010
00011000
00101000
,
10100000
10100000
01010000
10100000
,
01010000
00011000
00001100
00000101
,
00000011
00001100
00001010
00000101
,
00010010
00001100
00101000
01010000
,
10010000
10010000
01100000
10010000
,
02000000
00000000
00000000
03000000
,
00100000
10000000
00100000
00000000
01000000
00010000
01000000
00000000
,
00001000
00010000
00001000
00000000
00000010
00000001
00000010
00000000
,
00000100
00010000
00000100
00000000
00001000
00100000
00001000
00000000
,
00010000
00100000
10000000
01100000
,
00001000
00100000
00001000
00000000
01000000
00010000
01000000
00000000
,
00001000
00010000
00001000
00000000
00000100
00000010
00000100
00000000
,
00000002
00000000
00000020
00000033
,
00002200
00000000
00000000
00003300
,
00000101
00000101
00001100
00000101
,
00000011
00001010
00011000
00110000
,
11000000
11000000
01010000
11000000
,
10100000
00110000
00011000
00001010
,
00010100
00010010
01001000
00101000
,
00110000
10100000
11000000
01010000
,
00011000
00011000
00010010
00001100
,
00000110
00002002
00000000
00003003
,
00000010
00000000
00000001
00000000
,
00000100
00000000
00001000
00000000
,
00100000
00000000
10000000
00000000
,
01000000
00000000
00010000
00000000
,
00001000
00000000
00000010
00000000
00000000
00000100
00000010
00000000
,
00000001
00000000
00000100
00000000
00000000
00001000
00010000
00000000
,
00100000
00000000
00010000
00000000
00000000
10000000
00100000
00000000
,
02000000
00000000
00000000
03000000
,
11000000
11000000
00110000
11000000
,
01010000
01010000
00011000
00001010
,
00000110
00001001
00000110
00001001
,
00010010
00010100
00101000
01001000
,
11000000
11000000
01010000
11000000
,
10010000
10010000
00011000
00001001
,
00001010
00000101
00000011
00001100
,
00000001
00000000
00000000
00000100
00000000
00000000
00001000
00000000
00000000
00010000
00000000
00000000
00011000
00000000
00000000
00000000
;

//---------------dance-double - ----------------
#NOTES:
     dance-double:
     :
     Hard:
     13:
     0.514,0.563,0.129,0.162,0.366:
00000000
00000000
00000000
00000000
,
00000000
00000000
00000000
00000000
,
20000000
00000000
00020000
30000000
,
00002000
00030000
00003001
00001000
,
00000002
00000000
00002000
00000003
,
00020000
00003000
10030000
00010000
,
00100000
00000000
01000000
10000000
00100000
00000000
00000000
10000000
01000000
00000000
00010000
00000000
00001000
00000000
00000000
00000000
,
00000010
00000000
00000001
00000100
00000010
00000000
00000000
00000100
00000001
00000000
00001000
00000000
00000100
00000000
00000000
00000000
,
00010000
00000000
00000000
00011000
00000000
00000000
00100000
00000000
00000000
10010000
00000000
00000000
00100000
00000000
00000000
00000000
,
02000000
00000000
00000000
03000000
,
00100000
00000000
00010000
01000000
00100000
00000000
10000000
00000000
00100000
00010000
00001000
00000000
00000010
00000000
00000001
00000000
,
00000010
00000000
00000000
00000010
00000100
00000000
00000000
00000100
00001000
00000000
00000000
00001000
00000010
00000000
00000000
00000010
,
00000100
00000000
00000001
00000010
00000100
00000000
00010000
00000000
00001000
00100000
00010000
00000000
10000000
00000000
01000000
00000000
,
00100000
00000000
00000000
00100000
00001000
00000000
00000000
00001000
01000000
00000000
00100000
00000000
10010000
00000000
00000000
00000000
,
01000000
00000000
00100000
00001000
00010000
00000000
00001000
00000000
00000010
00000001
00001000
00000000
00000010
00000000
00000100
00000000
,
00001000
00000000
00000000
00001000
00010000
00000000
00000000
00010000
00000100
00000000
00000000
00000100
00000010
00000000
00000000
00000010
,
00001000
00010000
00100000
00000000
01000000
00001000
00100000
00000000
,
20020000
00000000
00000000
30030000
,
00100000
00000000
00000000
00100000
10000000
00000000
00000000
10000000
01000000
00000000
00000000
01000000
00010000
00000000
00000000
00010000
,
00001000
00000000
00000000
00001000
00000100
00000000
00000000
00000100
00000001
00000000
00000000
00000001
00000010
00000000
00000000
00000010
,
00001000
00000000
00000000
00001000
00010000
00000000
00000000
00010000
00100000
00000000
00000000
00100000
10000000
00000000
00000000
10000000
,
00010000
00000000
00000000
00010000
00001000
00000000
00000000
00001000
00000001
00000000
00000000
00000000
00001001
00000000
00000000
00000000
,
00000010
00000000
00000000
00010000
00001000
00000000
00000000
01000000
00100000
00000000
00000000
10000000
01000000
00000000
00000000
00010000
,
00000010
00000000
00000000
00001000
00000100
00000000
00000000
00010000
00001000
00000000
00000000
00000010
00000001
00000000
00001000
00000000
,
00000020
00000000
00000200
00000330
,
00011000
00000000
00000000
00001010
00000000
00000000
00010100
00000000
00000000
00101000
00000000
00000000
10010000
00000000
00000000
00000000
,
00100000
10000000
01000000
10000000
00100000
10000000
01000000
10000000
,
00100000
00010000
00001000
00000010
00000001
00001000
00000010
00000100
,
00000001
00000100
00001000
00000100
00000001
00000100
00001000
00000100
,
00000001
00000010
00000100
00010000
00001000
01000000
00100000
00000000
,
10000000
00010000
00100000
00010000
10000000
00010000
00100000
00010000
,
01000000
00100000
00010000
00001000
00000010
00000001
00001000
00000010
,
00000100
00000001
00000100
00000000
00001000
00010000
00001000
00000000
,
01000000
00200000
00000000
00300000
,
00020000
00000000
00100000
00000000
,
10000000
00000000
01000000
00030000
,
00002000
00000000
00000010
00000000
,
00000001
00000000
00000100
00003000
,
00010000
00000000
00001000
00000000
00000100
00000000
00000000
00000001
00000010
00000000
00000001
00000000
00000100
00000000
00000000
00000000
,
00000001
00000000
00001000
00000000
00000100
00000000
00000000
00010000
00001000
00000000
00100000
00000000
01000000
00000000
00000000
00000000
,
10000000
00000000
00010000
00000000
01000000
00000000
00000000
00001000
00010000
00000000
00100000
00000000
10000000
00000000
00000000
00000000
,
00020000
00000000
00000000
00030000
,
01000000
00000000
00010000
00100000
01000000
00000000
10000000
00000000
00100000
00010000
00001000
00000000
00000100
00000000
00000001
00000000
,
00000010
00000000
00000100
00001000
00010000
00000000
00100000
00000000
01000000
10000000
00100000
00000000
01000000
00000000
00010000
00000000
,
00100000
00000000
00001000
00010000
00000010
00000000
00001000
00000000
00000100
00010000
00000010
00000000
00000100
00000000
00000001
00000000
,
00000010
00000000
00000000
00000010
00001000
00000000
00000000
00001000
00010000
00000000
00001000
00000000
00011000
00000000
00000000
00000000
,
00100000
00000000
01000000
10000000
00010000
00000000
00100000
00000000
00001000
00010000
00100000
00000000
01000000
00000000
00010000
00000000
,
00001000
00000000
00000100
00000010
00000001
00000000
00001000
00000000
00000010
00000100
00000001
00000000
00001000
00000000
00000100
00000000
,
00000010
00001000
00000010
00000000
00001000
00010000
00001000
00000000
01000000
10000000
01000000
00000000
00100000
00000000
00000000
00000000
,
10010000
00000000
10000000
01000000
00000000
10000000
00100000
00000000
10000000
01000000
00000000
10000000
00010000
10000000
00000000
00000000
;

//---------------dance-single - not sure about this one----------------
#NOTES:
     dance-single:
     not sure about this one:
     Challenge:
     10:
     0.986,0.858,1.000,0.345,0.738: // measure 1
0000
0000
0000
0000
,  // measure 2
0200
0000
0000
0302
0000
0000
2003
0000
0000
3200
0000
0000
0320
0000
0030
0000
,  // measure 3
0021
0100
0130
0000
1200
0010
0310
0000
,  // measure 4
0120
0001
0031
0000
0012
1000
1003
0000
,  // measure 5
2001
0010
3010
0000
1020
0100
0130
0000
,  // measure 6
0210
0001
0301
0000
0102
1000
1003
0000
,  // measure 7
1100
0000
0100
0010
0001
0000
1000
0010
0100
0000
0001
1000
0100
0000
0010
0001
,  // measure 8
1000
0000
0010
0100
0001
0000
1000
0100
0010
0000
0001
1000
2020
0000
3030
0000
,  // measure 9
0001
0100
0000
0010
1000
0000
1000
0001
0000
1000
0100
0000
0021
0000
0130
0000
,  // measure 10
0110
0000
1000
0100
1000
0100
1000
0100
1000
0100
1000
0100
2000
0000
3100
0000
,  // measure 11
1100
0000
0010
0001
1000
0000
0101
0000
0010
1000
0100
0000
0110
0000
0011
0000
,  // measure 12
0100
0010
0001
0010
0100
1000
0010
1000
0100
0010
0001
0010
0100
1000
0010
0000
,  // measure 13
0101
0000
0010
1000
0001
0000
0011
0000
0001
1000
0010
0000
0101
0000
1100
0000
,  // measure 14
0001
0010
0100
0010
0001
1000
0010
1000
0001
0010
0100
0010
0001
1000
0010
0000
,  // measure 15
1010
0000
0001
1000
0100
0000
0011
0000
0100
1000
0001
0000
0101
0000
1001
0000
,  // measure 16
0010
0100
0001
0100
0010
1000
0001
1000
0010
0100
0001
0100
0010
1000
0001
0000
,  // measure 17
1100
0000
0001
1000
0010
0000
0100
0010
1000
0000
0001
0010
0100
0000
0110
0000
,  // measure 18
0011
0000
0100
1000
0001
0010
0100
1000
0001
0010
0100
1000
0100
1000
0100
0000
,  // measure 19
1100
0000
0001
0010
0001
0000
0010
0100
0010
0000
0100
1000
0100
0000
1000
0010
,  // measure 20
1000
0000
0001
0100
0001
0000
1000
0001
1000
0000
0001
0010
0001
0010
0100
0000
,  // measure 21
1100
0000
0010
0001
1000
0000
0010
0100
0001
0000
0010
0100
1000
0000
0100
1000
,  // measure 22
0001
1100
1001
0101
0110
1010
1001
0011
,  // measure 23
1100
0000
0010
0001
0100
0000
0010
1000
0100
0000
0010
0001
1000
0000
0010
0100
,  // measure 24
0001
0000
0100
0010
1000
0000
0001
0010
0100
0000
1000
0100
0010
0001
1000
0000
,  // measure 25
0001
0010
1000
0010
0001
1000
0100
0001
0100
1000
0001
1000
0200
0000
0300
0000
,  // measure 26
0011
0000
0000
1001
0000
0000
0101
0000
0000
0110
0000
0000
2010
0000
3100
0000
,  // measure 27
2100
0001
3010
1020
1000
0130
0101
0010
,  // measure 28
1010
0000
0110
0000
0001
1000
0010
0000
1010
0000
0100
0001
1000
0000
0010
0000
,  // measure 29
0201
1000
0310
1020
0001
0130
1010
0100
,  // measure 30
0101
0000
1100
0000
0100
1000
0001
0000
0110
0000
1000
0010
0100
0000
0010
0000
,  // measure 31
2010
0100
3001
2100
0001
3010
0110
0001
,  // measure 32
0011
0000
1100
0000
0010
0001
0100
0000
0101
0000
0010
1000
0100
0000
1000
0000
,  // measure 33
1100
0000
0010
0001
0010
0001
1000
0100
1000
0001
0100
0001
0010
0100
1000
0100
,  // measure 34
1000
0000
0110
0000
0001
0010
0001
0010
0001
0010
0001
0010
0001
0010
0001
0000
,  // measure 35
0012
0010
1000
0103
0210
0010
1000
0301
,  // measure 36
1020
1000
0001
0130
0201
0010
1000
0301
,  // measure 37
0021
0100
1000
0031
2001
0010
0100
3001
,  // measure 38
0210
0000
0001
0000
0010
0000
1300
0000
1100
0000
0010
0001
0000
1000
0010
0000
,  // measure 39
0101
0000
0010
0000
1100
0000
1000
0010
0100
0000
0101
0000
1001
0000
0000
1000
,  // measure 40
0100
0000
0110
0000
0011
0000
1000
0001
0100
0000
0110
0000
1010
0000
0000
0010
,  // measure 41
0100
0000
0101
0000
0011
0000
0100
1000
0001
0000
1100
0000
1001
0000
0011
0000
,  // measure 42
0001
0010
0001
0010
0100
0010
0100
1000
0010
0100
0001
0010
0001
0000
1100
0000
,  // measure 43
1010
0000
0100
0010
0100
0000
0101
0000
0010
1000
0010
0000
0101
0000
1001
0000
,  // measure 44
0110
0000
0100
1000
0100
0000
1001
0000
0100
0001
0100
0000
1100
0000
1001
0000
,  // measure 45
0011
0000
0001
0100
0001
0000
1100
0000
0010
0100
0010
0000
0011
0000
1100
0000
,  // measure 46
0100
0010
0000
0001
1000
0000
0010
1000
0000
0001
0010
0000
0011
0000
1100
0000
,  // measure 47
0110
0000
0001
1000
0010
0000
1010
0000
0100
0001
0010
0000
0011
0000
1001
0000
,  // measure 48
1100
0000
0010
0001
0100
0000
0110
0000
1000
0001
0010
0000
0011
0000
1100
0000
,  // measure 49
1000
0100
1000
0100
1000
0010
0100
0001
0100
0001
0100
0000
1010
0000
0101
0000
,  // measure 50
0011
0000
0100
1000
0000
0010
0100
0000
0001
0010
0000
0100
1000
0010
0000
0000
;
