#TITLE:Colours;
#SUBTITLE:;
#ARTIST:EnsionD feat. Vaceslav;
#TITLETRANSLIT:;
#SUBTITLETRANSLIT:;
#ARTISTTRANSLIT:;
#GENRE:;
#CREDIT:;
#BANNER:colours.png;
#BACKGROUND:colours-bg.png;
#LYRICSPATH:;
#CDTITLE:;
#MUSIC:Colours (feat. Vaceslav).ogg;
#OFFSET:-0.012000;
#SAMPLESTART:39.366997;
#SAMPLELENGTH:15.000000;
#SELECTABLE:YES;
#BPMS:0.000000=128.000000
;
#STOPS:
;
#BGCHANGES:;
#KEYSOUNDS:;
#ATTACKS:;

//---------------dance-single - ----------------
#NOTES:
     dance-single:
     :
     Hard:
     9:
     0.423086,0.401051,0.334943,0.035257,0.000000,336.000000,298.000000,38.000000,4.000000,0.000000,0.000000,0.423086,0.401051,0.334943,0.035257,0.000000,336.000000,298.000000,38.000000,4.000000,0.000000,0.000000:
0000
0000
0000
0000
,
0000
0000
0000
0000
,
0000
0000
0000
0000
,
0000
0000
0000
0000
,
0000
0000
0000
0000
,
0001
0000
0010
0001
1000
0100
0010
0001
,
0000
0000
0100
0010
0100
0001
1000
0000
,
0100
0000
0010
0000
0100
1000
0001
0100
,
0000
0000
0010
0000
1000
0001
0010
0100
,
1000
0100
1000
0001
0010
0001
0000
1001
,
0000
1000
0100
0010
0001
1000
0010
0100
,
0001
0000
0010
0100
1000
0001
0100
0010
,
0000
0100
0001
1000
0100
0010
0001
1000
,
0010
0000
0100
0000
0001
0100
0010
1000
,
0000
0001
0010
0100
1000
0100
0010
0001
,
1000
0000
0010
0100
0001
1000
0100
0010
,
0000
0001
0100
0001
1000
0100
0010
0000
,
0011
0000
1001
0000
1000
0010
0100
0001
,
0000
0100
0000
0010
1000
0001
0010
0100
,
1000
0000
1100
0000
1001
0000
0001
0100
,
0000
0110
0000
1001
0000
0100
0001
1000
,
0100
0000
1100
0000
0010
0001
1000
0010
,
0000
0101
0000
0001
1000
0100
0010
0100
,
1000
0000
1010
0000
0101
0000
0001
1000
,
0000
1100
0000
0011
0000
0001
1000
0010
,
0100
0000
0101
0000
0001
0010
0100
1000
,
0000
1100
0000
1000
0001
1000
0010
0100
,
0001
0000
0101
0000
1010
0000
0010
0100
,
0000
1001
0000
0110
0000
0100
1000
0001
,
0100
0000
1010
0000
0100
0001
0010
0100
,
0000
1100
0000
1000
0001
0100
0010
0100
,
0001
0000
0011
0000
1100
0000
1000
0001
,
0000
0101
0000
0110
0000
0010
1000
0001
,
0010
0000
1100
0000
1000
0001
0100
0010
,
0000
0110
0000
0100
0001
1000
0100
0010
,
0001
0000
1100
0000
0011
0000
0001
1000
,
0000
1010
0000
0101
0000
0001
1000
0000
,
1001
0000
0110
0000
0001
0010
0100
1000
,
0000
1100
0000
1000
0001
0100
0010
0100
,
0001
0000
0101
0000
1010
0000
0010
0100
,
0000
1001
0000
0110
0000
0100
0010
0001
,
1000
0000
0010
0000
0100
0001
0100
0010
,
0000
1000
0000
0001
0010
0100
1000
0001
,
0100
0000
0010
0000
1000
0000
0010
0100
,
0000
0001
0000
0010
0000
0100
1000
0001
,
1000
0000
0100
0000
0010
0001
1000
0010
,
0000
0100
0000
0001
0100
0010
0100
0001
,
1000
0000
0100
0000
0010
0000
0001
1000
,
0000
0010
0000
0100
0000
0001
0100
0010
,
2000
0000
0001
0000
3001
0100
0010
0100
,
0000
0001
0000
1000
0100
0010
0001
0000
,
0200
0000
0010
0000
0310
0100
0001
1000
,
0000
0100
0000
0010
0100
1000
0001
0100
,
0020
0000
1000
0000
0130
0001
0100
0010
,
0000
1000
0000
0001
0010
0100
1000
0000
,
0002
0000
0010
0000
1003
0001
0100
0010
,
0000
0100
0000
0001
0010
0100
1000
0001
;

//---------------dance-single - ----------------
#NOTES:
     dance-single:
     :
     Medium:
     6:
     0.284576,0.300788,0.008814,0.149843,0.000000,226.000000,225.000000,1.000000,17.000000,0.000000,0.000000,0.284576,0.300788,0.008814,0.149843,0.000000,226.000000,225.000000,1.000000,17.000000,0.000000,0.000000:
0000
0000
0000
0000
,
0000
0000
0000
0000
,
0000
0000
0000
0000
,
0000
0000
0000
0000
,
0000
0000
0000
0000
,
0002
0000
0003
0000
1000
0010
1000
0100
,
0010
0001
0000
2000
0000
0000
3010
0000
,
0200
0000
0000
0000
0000
0301
0000
2002
,
0000
0000
3003
0000
0100
0010
1000
0001
,
0010
0100
0010
0100
0000
1000
0000
0001
,
0000
0100
0000
0020
0000
0000
0030
1000
,
0001
0100
0000
0010
0000
0100
0000
0001
,
0000
1000
0000
0100
0000
0000
0010
0001
,
0000
0000
1000
0000
0010
0000
0100
0001
,
0000
0010
0000
0002
0000
0000
0003
0000
,
1000
0010
0000
0100
0000
0001
0000
0020
,
0000
0000
0000
0230
0000
0000
1300
0000
,
1000
0000
0001
0000
0100
0000
0100
0010
,
0000
0100
0000
0001
1000
0000
0100
0000
,
0010
0000
0001
0000
1000
0000
0010
0100
,
0000
0001
0000
0100
0000
0010
1000
0000
,
0001
0000
0010
0000
0100
1000
0000
0001
,
0000
0100
0000
0010
0100
0000
0001
0000
,
0010
0000
0100
0000
1000
0000
0001
0010
,
0000
0100
0000
1000
0000
0001
0100
0000
,
0010
0000
1000
0000
0001
0000
0010
0100
,
0000
1000
0000
0001
0100
0000
0010
0000
,
1000
0000
0001
0000
0010
0000
0001
1000
,
0000
0010
0000
1000
0000
0100
0010
0000
,
0001
0000
0010
0000
0100
1000
0000
0001
,
0000
0100
0000
0010
0000
1000
0100
0000
,
0010
0000
0001
0000
1000
0000
0001
0010
,
0000
0100
0000
1000
0000
0001
0100
0000
,
0010
0000
0100
0000
0001
1000
0000
0100
,
0000
0010
0000
0001
0010
0000
0100
0000
,
1000
0000
0010
0000
0100
0000
0010
1000
,
0000
0001
0000
0010
0000
0100
1000
0000
,
0010
0000
0100
0000
0001
1000
0000
0010
,
0000
1000
0000
0001
0010
0000
0100
0000
,
1000
0000
0100
0000
0010
0000
0001
0100
,
0000
0010
0000
0100
0000
0001
0010
0000
,
0100
0000
1000
0000
0001
0000
0100
0010
,
0000
1000
0000
0100
1000
0000
0001
0000
,
0010
0000
0100
0000
0010
0000
0001
1000
,
0000
0001
0000
1000
0000
0010
0100
0000
,
0001
0000
0010
0000
0100
0000
1000
0010
,
0000
0100
0000
0001
0100
0000
0010
0000
,
1000
0000
0001
0000
0010
0000
0100
1000
,
0000
0001
0000
0100
0000
0010
0100
0000
,
0002
0000
0003
0000
0010
0100
1000
0002
,
0000
0000
0000
0000
0103
0010
0100
0000
,
0002
0000
0000
0000
0013
0100
1000
0020
,
0000
0000
0000
0000
1030
0100
1000
0001
,
0200
0000
0000
0000
0310
0100
0001
2000
,
0000
0000
0000
0000
3001
0010
0100
0000
,
0020
0000
0000
0000
0031
1000
0010
0200
,
0000
0000
0000
0000
1300
0100
0001
1000
;

//---------------dance-single - ----------------
#NOTES:
     dance-single:
     :
     Easy:
     3:
     0.115845,0.150063,0.017629,0.052886,0.000000,92.000000,90.000000,2.000000,6.000000,0.000000,0.000000,0.115845,0.150063,0.017629,0.052886,0.000000,92.000000,90.000000,2.000000,6.000000,0.000000,0.000000:
0000
0000
0000
0000
,
0000
0000
0000
0000
,
0000
0000
0000
0000
,
0000
0000
0000
0000
,
0000
0000
0000
0000
,
1000
0000
0001
0000
,
0100
0000
0000
0000
,
0010
0000
1000
0000
,
0001
0000
0000
0000
,
0010
0000
0100
0000
,
0010
0000
0100
0000
,
1000
0000
0001
0000
,
1000
0000
0001
0000
,
0100
0000
0010
0000
,
1000
0000
0001
0000
,
0010
0000
0100
0000
,
1000
0000
0001
0000
,
1001
0000
1000
0000
,
0001
0000
0000
0000
,
0100
0000
0010
0000
,
0100
0000
0000
0000
,
0001
0000
0010
0000
,
0100
0000
0000
0000
,
1000
0000
0001
0000
,
0100
0000
0000
0000
,
0010
0000
1000
0000
,
0100
0000
1000
0000
,
0010
0000
0100
0000
,
0001
0000
0000
0000
,
0010
0000
0001
0000
,
1000
0000
0010
0000
,
1000
0000
0001
0000
,
0010
0000
0000
0000
,
0001
0000
0100
0000
,
0010
0000
1000
0000
,
0010
0000
0100
0000
,
0001
0000
0000
0000
,
1000
0000
0001
0000
,
0100
0000
0001
0000
,
1000
0000
0100
0000
,
1000
0000
0000
0000
,
0010
0000
0010
0000
,
0100
0000
0000
0000
,
0001
0000
0001
0000
,
1000
0000
0000
0000
,
0010
0000
0100
0000
,
0001
0000
0000
0000
,
0010
0000
0100
0000
,
1000
0000
0000
0000
,
0020
0000
0130
0000
,
0200
0000
0301
0000
,
0002
0000
1000
0000
,
1003
0000
0000
0000
,
0200
0000
0310
0000
,
0002
0000
1003
0000
,
0020
0000
0100
0000
,
0130
0000
0010
1001
;

//---------------dance-single - ----------------
#NOTES:
     dance-single:
     :
     Beginner:
     1:
     0.069255,0.100042,0.017629,0.000000,0.000000,55.000000,53.000000,2.000000,0.000000,0.000000,0.000000,0.069255,0.100042,0.017629,0.000000,0.000000,55.000000,53.000000,2.000000,0.000000,0.000000,0.000000:
0000
0000
0000
0000
,
0000
0000
0000
0000
,
0000
0000
0000
0000
,
0000
0000
0000
0000
,
0000
0000
0000
0000
,
1000
0000
0000
0000
,
1000
0000
0000
0000
,
0001
0000
0000
0000
,
0001
0000
0000
0000
,
0100
0000
0000
0000
,
0010
0000
0000
0000
,
0100
0000
0000
0000
,
0010
0000
0000
0000
,
1000
0000
0000
0000
,
0001
0000
0000
0000
,
0010
0000
0000
0000
,
0100
0000
0000
0000
,
1001
0000
0000
0000
,
1000
0000
0000
0000
,
0001
0000
0000
0000
,
0100
0000
0000
0000
,
0010
0000
0000
0000
,
0100
0000
0000
0000
,
0001
0000
0000
0000
,
1000
0000
0000
0000
,
0100
0000
0000
0000
,
0010
0000
0000
0000
,
0001
0000
0000
0000
,
1000
0000
0000
0000
,
0010
0000
0000
0000
,
0100
0000
0000
0000
,
0001
0000
0000
0000
,
1000
0000
0000
0000
,
0100
0000
0000
0000
,
1000
0000
0000
0000
,
0010
0000
0000
0000
,
0100
0000
0000
0000
,
0001
0000
0000
0000
,
1000
0000
0000
0000
,
0100
0000
0000
0000
,
0010
0000
0000
0000
,
0001
0000
0000
0000
,
0001
0000
0000
0000
,
1000
0000
0000
0000
,
1000
0000
0000
0000
,
0010
0000
0000
0000
,
0010
0000
0000
0000
,
0100
0000
0000
0000
,
0100
0000
0000
0000
,
0001
0000
0000
0000
,
0010
0000
0000
0000
,
0100
0000
0000
0000
,
1000
0000
0000
0000
,
0010
0000
0000
0000
,
0100
0000
0000
0000
,
0001
0000
0000
0000
,
1000
0000
0000
1001
;

//---------------dance-single - cool off----------------
#NOTES:
     dance-single:
     breathe:
     Challenge:
     11:
     0.493601,0.476248,0.449529,0.000000,0.088143,392.000000,341.000000,51.000000,0.000000,0.000000,0.000000,0.493601,0.476248,0.449529,0.000000,0.088143,392.000000,341.000000,51.000000,0.000000,0.000000,0.000000:
// measure 0
0000
0000
0000
0000
,  // measure 1
0000
0000
0000
0000
,  // measure 2
0000
0000
0000
0000
,  // measure 3
0000
0000
0000
0000
,  // measure 4
0000
0000
0000
0000
,  // measure 5
1000
0000
0101
0000
1000
0100
0010
0001
,  // measure 6
0000
0000
1100
0100
0010
0001
1000
0000
,  // measure 7
0101
0000
1000
0000
0010
0100
0001
1000
,  // measure 8
0000
0000
1100
0000
0001
1000
0100
0010
,  // measure 9
0001
0001
1000
0010
0100
0100
0010
1000
,  // measure 10
0100
0100
0010
0001
1000
1000
0010
0100
,  // measure 11
0010
0010
0100
0001
1000
1000
0100
0010
,  // measure 12
0001
0001
0100
0010
1000
1000
0001
0010
,  // measure 13
0100
0100
0001
0100
0010
0010
0001
1000
,  // measure 14
0010
0010
0001
0010
1000
1000
0100
0010
,  // measure 15
0001
0001
1000
0010
0100
0100
1000
0100
,  // measure 16
0010
0010
1000
0100
0001
0100
1000
0000
,  // measure 17
1100
0000
0000
1000
0001
0000
0000
0001
0100
0000
0010
0000
1000
0000
0001
0000
,  // measure 18
0000
0011
0000
1100
0001
0100
1000
0100
,  // measure 19
0010
0000
0000
0010
1000
0000
0000
1000
0001
0000
0000
0000
0010
0000
0110
0000
,  // measure 20
0000
1100
0000
0011
0000
1100
0010
0001
,  // measure 21
0101
0000
0000
0001
0100
0000
0000
0100
0010
0000
1000
0000
0001
0000
0010
0000
,  // measure 22
0000
1100
0000
1100
0001
0100
0010
1000
,  // measure 23
0100
0000
0000
0010
0001
0000
0000
0001
1000
0000
0000
0000
0010
0000
1000
0000
,  // measure 24
0000
1010
0000
0101
0000
1010
0100
0001
,  // measure 25
0011
0000
1000
0100
0001
0100
0010
0001
,  // measure 26
1000
0010
0100
0001
0000
1000
1000
0100
,  // measure 27
0001
0100
0010
0001
1000
0010
0100
1000
,  // measure 28
0100
0010
0000
1000
0000
0011
1000
0010
,  // measure 29
1010
0000
0100
0001
1000
0100
0010
0001
,  // measure 30
0000
0011
0000
0101
0100
1000
0100
0010
,  // measure 31
1000
0000
0000
0010
1000
0000
0000
0001
0010
0000
0000
0000
0100
0000
1000
0000
,  // measure 32
0000
1001
0000
0101
0000
0010
1000
0100
,  // measure 33
0010
0001
0010
0100
0001
0100
0010
0001
,  // measure 34
1000
0010
0000
0100
0001
1000
0100
0010
,  // measure 35
0001
0000
0001
1000
0010
0100
1000
0100
,  // measure 36
0010
1000
0000
1100
0000
0011
1000
0010
,  // measure 37
0101
0000
0010
1000
0100
0001
0100
1000
,  // measure 38
0000
1001
0000
0101
0010
1000
0100
0010
,  // measure 39
0011
0000
0000
1000
0010
0000
0000
0010
1000
0000
0000
0000
0001
0000
0010
0000
,  // measure 40
0000
1100
0000
1001
0000
0101
0010
1000
,  // measure 41
1100
0000
0000
0010
0001
0000
0000
0001
0010
0000
0100
0000
1000
0000
0001
0000
,  // measure 42
0000
0101
0000
0010
1000
0100
0001
0100
,  // measure 43
0010
0000
0000
0001
0010
0000
0000
0001
1000
0000
0000
0000
0010
0000
1000
0000
,  // measure 44
0000
1010
0000
0101
0000
1001
1000
0100
,  // measure 45
0010
0000
0000
0100
1000
0000
0000
0001
0100
0000
0010
0000
1000
0000
0001
0000
,  // measure 46
0000
0011
0000
0100
1000
0001
0100
0010
,  // measure 47
1000
0000
0000
0010
1000
0000
0000
1000
0001
0000
0000
0000
0010
0000
0001
0000
,  // measure 48
0000
0011
0000
1100
0000
1001
0001
0100
,  // measure 49
0010
0000
1010
0100
0001
1000
0100
0010
,  // measure 50
0000
0000
0011
1000
0010
0100
0010
0000
,  // measure 51
1010
0000
1001
0000
0001
0100
0010
1000
,  // measure 52
0000
0000
1100
0000
1000
0001
0100
0010
,  // measure 53
0100
0000
1010
0100
0001
1000
0100
0010
,  // measure 54
0000
0000
0011
1000
0001
1000
0010
0000
,  // measure 55
0101
0000
1000
0000
0100
1000
0001
0100
,  // measure 56
0000
0000
1010
0000
0001
0100
0010
1000
;
