#TITLE:BE LOVIN;
#SUBTITLE:;
#ARTIST:D-Crew;
#TITLETRANSLIT:;
#SUBTITLETRANSLIT:;
#ARTISTTRANSLIT:;
#CREDIT:Dominator;
#BANNER:BE LOVIN.png;
#BACKGROUND:BE LOVIN-bg.png;
#LYRICSPATH:;
#CDTITLE:./CDTITLES/beatmania.PNG;
#MUSIC:BE LOVIN.mp3;
#OFFSET:-0.149;
#SAMPLESTART:9.210;
#SAMPLELENGTH:15.000;
#SELECTABLE:YES;
#DISPLAYBPM:185.000;
#BPMS:0.000=185.000;
#STOPS:;
#BGCHANGES:;

//---------------dance-double - ----------------
#NOTES:
     dance-double:
     :
     Easy:
     3:
     0.275,0.339,0.162,0.040,0.000:
00000000
00000000
00000000
00000000
,
00000000
00000000
00000000
00000000
,
00000000
00000000
00000000
00000000
,
00000000
00000000
00000000
00000000
,
00000000
00100000
00000000
00100000
,
00000000
00010000
00000000
00010000
,
00000000
00001000
00000000
00001000
,
00000020
00000000
00000000
00000030
,
00000010
00000000
00000010
00000010
,
00000001
00000000
00000001
00000001
,
00000100
00000000
00000100
00000100
,
00001000
00000000
00001000
00001000
,
00010000
00000000
00010000
00010000
,
01000000
00000000
01000000
01000000
,
10000000
00000000
10000000
10000000
,
00100000
00000000
00100000
00100000
,
00000000
00010000
00000000
00001000
,
00000000
00010000
00000000
00001000
,
00000000
00000010
00000000
00000100
,
00000000
00000010
00000000
00000100
,
00000000
00010000
00000000
00001000
,
00000000
00010000
00000000
00001000
,
00000000
00100000
00000000
01000000
,
00000000
00100000
00000000
01000000
,
10000000
10000000
10000000
10000000
,
00010000
00010000
00010000
00010000
,
00001000
00001000
00001000
00001000
,
00000001
00000001
00000001
00000001
,
00000000
00001001
00000000
00011000
,
00000000
10010000
00000000
00011000
,
00000000
00000110
00000000
00011000
,
00000000
01100000
00000000
00011000
,
00000000
00000010
00000000
00000001
,
00000000
00001000
00000000
00000100
,
00000000
00000010
00000000
00000001
,
00000000
00000100
00000000
00001000
,
00000000
00010000
00000000
01000000
,
00000000
10000000
00000000
00100000
,
00000000
01000000
00000000
00010000
,
00200000
00000000
00000000
00300000
,
00000000
00001000
00000000
00010000
,
00000000
00000010
00000000
00000100
,
00000000
00001000
00000000
00010000
,
00000000
00100000
00000000
01000000
,
00000000
00100000
00000000
01000000
,
00000000
00001000
00000000
00010000
,
00000000
00000100
00000000
00000010
,
00000200
00000000
00000000
00000300
,
00001000
00000001
00001000
00000001
,
00000100
00000010
00000100
00000010
,
00010000
00001000
00010000
00001000
,
00100000
01000000
00100000
01000000
,
00000000
10000000
00000000
10010000
,
00000000
00010000
00000000
00011000
,
00000000
00001000
00000000
00001001
,
00000100
00001000
00010000
01000000
,
00011000
00000000
00000000
00000000
;

//---------------dance-double - ----------------
#NOTES:
     dance-double:
     :
     Medium:
     6:
     0.504,0.573,0.283,0.054,0.000:
00000000
00000000
00000000
00000000
,
00000000
00000000
00000000
00000000
,
00000000
00000000
00000000
00000000
,
00000000
00000000
00000000
00000000
,
00001000
00000000
00000000
00001000
00000000
00001000
00000000
00000000
,
00010000
00000000
00000000
00010000
00000000
00010000
00000000
00000000
,
00100000
00000000
00000000
00100000
00000000
00100000
00000000
00000000
,
02000000
00000000
00000000
03010000
,
00011000
00000010
00000100
00001000
,
00010000
00100000
01000000
00010000
,
00011000
00000100
00000001
00000010
,
00011000
01000000
10000000
00100000
,
00100000
10000000
01000000
00000000
00010000
00000000
00001000
00000000
,
00000010
00000001
00000100
00000000
00001000
00000000
00010000
00000000
,
00100000
00010000
00001000
00000000
00000010
00001000
00010000
00000000
,
00001000
00010000
00001000
00000000
00011000
00000000
00011000
00000000
,
00000000
00100000
00000000
00100000
00000000
10000000
00000000
01000000
,
00000000
00010000
00000000
01000000
00000000
00010000
00000000
00001000
,
00000000
00000010
00000000
00000010
00000000
00000001
00000000
00000100
,
00000000
00001000
00000000
00000100
00000000
00001000
00000000
00010000
,
00000010
00001000
00000010
00001000
00000000
00000010
00000000
00010000
,
00001000
00010000
00001000
00010000
00000000
00001000
00000000
00010000
,
00100000
00010000
00100000
00010000
00000000
00100000
00000000
01000000
,
00001000
00010000
00000000
00001000
00010000
00000000
00011000
00000000
,
00000010
00000000
00000100
00000000
00000001
00000100
00001000
00000000
,
00000100
00000000
00000010
00000000
00000100
00001000
00010000
00000000
,
00001000
00000000
00010000
00000000
01000000
10000000
00100000
00000000
,
01000000
00000000
00010000
00000000
10000000
01000000
00100000
00000000
,
00100000
00010000
01000000
00000000
00100000
00000000
00100000
00000000
,
00010000
00001000
00000010
00000000
00000100
00000000
00000100
00000000
,
00001000
00000001
00000100
00000000
00001000
00000000
00001000
00000000
,
00010000
01000000
10000000
00000000
10010000
00000000
01100000
00000000
,
10010000
01000000
00100000
00010000
,
00001000
00000100
00000010
00001001
,
00000010
00001000
00000001
00000100
,
00001000
00000000
00010000
00000000
00001000
00000100
00000001
00000000
,
00001001
00000010
00000100
00001000
,
00010000
00100000
01000000
10010000
,
00100000
01000000
10000000
00010000
,
00200000
00000000
00000000
01300000
,
10000000
00000000
01000000
00000000
00010000
00001000
00000100
00000000
,
00000001
00000000
00000100
00000000
00001000
00010000
01000000
00000000
,
00100000
00000000
01000000
00000000
00010000
00001000
00000100
00000000
,
00000010
00000000
00000100
00000000
00001000
00010000
01000000
00000000
,
10000000
01000000
00010000
00000000
00001000
00000000
00000010
00000000
,
00000001
00000100
00001000
00000000
00010000
00000000
00100000
00000000
,
00100000
00010000
00001000
00000000
00000010
00001000
00010000
00000000
,
01000000
00010000
01000000
00010000
00001000
00000100
00001000
00000100
,
00001000
00010000
00100000
11000000
,
00010000
00001000
00000010
00000101
,
00000010
00011000
00100000
00011000
,
01001000
00011000
00010100
00011000
,
00001000
00000000
00000100
00000000
00000001
00000010
00001000
00000000
,
00010000
00000000
01000000
00000000
10000000
00100000
00010000
00000000
,
00001000
00000100
00001000
00010000
,
01000000
00010000
00001000
00010000
,
00022000
00000000
00000000
00033000
;

//---------------dance-double - ----------------
#NOTES:
     dance-double:
     :
     Hard:
     8:
     0.604,0.649,0.229,0.081,0.000:
00000000
00000000
00000000
00000000
,
00000000
00000000
00000000
00000000
,
00000000
00000000
00000000
00000000
,
00000000
00000000
00000000
00000000
,
00100000
01000000
00100000
01000000
00100000
01000000
00100000
01000000
,
00010000
00001000
00010000
00001000
00010000
00001000
00010000
00001000
,
00000100
00000010
00000100
00000010
00000100
00000010
00000100
00000010
,
00002000
00000000
00000000
00003000
,
00000010
00000000
00000100
00000000
00001000
00010000
01000000
00000000
,
10000000
00000000
00100000
00000000
10000000
00010000
01000000
00000000
,
00100000
00000000
01000000
00000000
00100000
10000000
01000000
00000000
,
00100000
00000000
01000000
00000000
00010000
00001000
00000100
00000000
,
00001000
00000100
00000001
00000000
00000010
00000000
00000010
00000000
,
00000001
00000100
00001000
00000000
00010000
00000000
00010000
00000000
,
00001000
00010000
00100000
00000000
00010000
00100000
01000000
00000000
,
00010000
10000000
01000000
00010000
00001000
00000100
00000001
00000000
,
00000001
00001000
00000001
00000010
00000001
00001000
00000001
00000100
,
00000001
00001000
00000001
00000010
00001000
00010000
00100000
00000000
,
10000000
00010000
10000000
00100000
10000000
00010000
10000000
01000000
,
10000000
00010000
10000000
00100000
00010000
00001000
00000100
00000000
,
00000001
00000100
00000001
00000100
00000010
00010000
00000010
00010000
,
00001000
00100000
00001000
00100000
01000000
10000000
01000000
10000000
,
00100000
01000000
00100000
01000000
00001000
00010000
00001000
00010000
,
00000010
00000100
00000010
00000100
00000001
00000000
00001000
00000000
,
00001001
00000000
00000100
00000000
00000010
00001000
00000100
00000000
,
00001001
00000000
00000100
00000000
00001000
00010000
01000000
00000000
,
10010000
00000000
00100000
00000000
01000000
00010000
00100000
00000000
,
10010000
00000000
01000000
00000000
00010000
00001000
00000100
00000000
,
00000001
00001000
00000100
00000010
,
00000001
00000100
00001000
00010000
,
00001000
00010000
00100000
10000000
,
00010000
01000000
00100000
10000000
,
00120000
10000000
01000000
10000000
,
01000000
10000000
00130000
00011000
,
00002010
00000001
00000100
00000001
,
00000100
00000001
00003010
00011000
,
00010000
00000000
00100000
00000000
10000000
01000000
00010000
00001000
,
00000000
00000100
00000000
00000001
00000000
00000010
00000000
00000000
,
00001000
00000000
00000010
00001000
00010000
00100000
10000000
00000000
,
00200000
00000000
00000000
01300000
,
10010000
00000000
00100000
00000000
00010000
00001000
00010000
00000000
,
00011000
00000000
00000100
00000000
00000001
00001000
00000010
00000000
,
00001001
00000000
00000010
00000000
00001000
00010000
00001000
00000000
,
00011000
00000000
01000000
00000000
10000000
00010000
00100000
00000000
,
01000000
00010000
00001000
00000000
00010000
00000000
00000010
00000000
,
00000100
00001000
00010000
00000000
00001000
00000000
00100000
00000000
,
01000000
00010000
00001000
00000000
00010000
00001000
00000100
00000000
,
00000010
00000100
00001000
00010000
00100000
00010000
00001000
00000000
,
00010000
00010000
01000000
01000000
10000000
10000000
00100000
00100000
,
00010000
00001000
00010000
00001000
00000100
00001000
00000100
00000000
,
00001000
00001000
00000100
00000100
00000001
00000001
00000010
00000010
,
00001000
00010000
00001000
00010000
01000000
00010000
01000000
00000000
,
00010000
00000000
00010000
00000000
01000000
10000000
00100000
00010000
,
00001000
00000000
00001000
00000000
00000100
00000001
00000010
00001000
,
00010000
00000010
00001000
00100000
,
00011000
00010100
00011000
01001000
,
00022000
00000000
00000000
00033000
;

//---------------dance-single - A smidget harder than expert----------------
#NOTES:
     dance-single:
     A smidget harder than expert:
     Challenge:
     9:
     0.754,0.802,0.162,0.121,0.054: // measure 1
0000
0000
0000
0000
,  // measure 2
0000
0000
0000
0000
,  // measure 3
0000
0000
0000
0000
,  // measure 4
0000
0000
0000
0000
,  // measure 5
0001
0010
0001
0010
0001
0010
0001
0010
,  // measure 6
0100
1000
0001
1000
0001
1000
0001
1000
,  // measure 7
0010
0100
0001
1000
0010
0100
0001
0010
,  // measure 8
0100
1000
0100
0000
0020
0000
0001
0031
,  // measure 9
0002
0000
1003
0010
0000
0010
0100
0001
,  // measure 10
2000
0000
3100
0010
0000
0001
1000
0100
,  // measure 11
0020
0000
0031
1000
0000
0010
1000
0001
,  // measure 12
0200
0000
0310
1000
0000
0001
0010
0100
,  // measure 13
0010
1000
0010
0000
0100
0000
1000
0000
,  // measure 14
0100
0001
0100
0010
0100
1000
0001
0100
,  // measure 15
1000
0100
0001
0010
1000
0010
0001
0100
,  // measure 16
1000
0001
0010
1000
0001
1000
0100
0000
,  // measure 17
0010
0001
0010
0100
0010
1000
0010
0100
,  // measure 18
0010
0001
0010
0100
0010
1000
0010
0100
,  // measure 19
1000
0100
0010
0100
1000
0100
0001
0100
,  // measure 20
1000
0100
0010
0100
1000
0100
0001
0000
,  // measure 21
0100
1000
0100
0010
0100
0001
0100
0010
,  // measure 22
0100
1000
0100
0010
0100
0001
0100
0010
,  // measure 23
0001
0100
0010
0100
0001
0100
1000
0100
,  // measure 24
0001
0100
0010
0100
0001
0100
1000
0100
,  // measure 25
0001
0000
1000
0000
0010
0100
1000
0100
,  // measure 26
0001
0000
1000
0000
0100
0010
1000
0010
,  // measure 27
0001
0000
1000
0000
0100
0001
0100
1000
,  // measure 28
0001
0000
0100
0000
1000
0100
0001
0100
,  // measure 29
0010
0000
1000
0000
0001
0010
0100
0010
,  // measure 30
1000
0001
0100
1000
0001
0100
0010
1000
,  // measure 31
0100
0010
0001
0010
0100
1000
0001
0010
,  // measure 32
1000
0001
0100
1000
0001
0000
1100
0000
,  // measure 33
0101
0000
1000
0100
0000
0011
0000
1100
,  // measure 34
0000
1001
0000
0110
0000
1010
0000
0000
,  // measure 35
0101
0000
1000
0100
0000
0010
0010
0001
,  // measure 36
0000
1000
1000
0100
0000
0011
0000
0000
,  // measure 37
1100
0000
0001
0100
1000
0100
0001
1000
,  // measure 38
0000
0001
0001
0100
0000
1010
0000
0000
,  // measure 39
0101
0000
1000
0001
0010
1000
0010
0001
,  // measure 40
0100
0010
0100
0000
0020
0000
1000
1030
,  // measure 41
0020
0000
1030
0001
0000
0100
0001
1000
,  // measure 42
0100
0001
0100
1000
0000
0001
0100
0010
,  // measure 43
0100
1000
0100
0001
0000
1000
0100
1000
,  // measure 44
0001
0100
0010
0001
1000
0100
0001
1000
,  // measure 45
0100
0010
0001
0010
0100
1000
0001
0100
,  // measure 46
1000
0001
0010
1000
0001
0010
0100
1000
,  // measure 47
0001
0010
0001
0010
0100
1000
0100
1000
,  // measure 48
0001
0100
1000
0001
0010
1000
0001
0000
,  // measure 49
1000
0010
0100
0001
1000
0010
0100
0001
,  // measure 50
1000
0100
0001
0100
1000
0001
1000
1000
,  // measure 51
0010
0001
0010
1000
0100
0001
0100
0010
,  // measure 52
0100
0000
1000
0100
1000
0000
0001
1000
0001
0000
0010
0001
0010
0000
0100
1000
,  // measure 53
0100
1000
0100
0001
0100
1000
0100
0001
,  // measure 54
0100
0010
0001
0100
1000
0100
0001
0100
,  // measure 55
0010
1000
0001
0010
0100
0010
1000
0010
,  // measure 56
0100
0000
1000
0000
0001
0000
0100
0000
0001
0100
0001
0100
0010
1000
0010
2000
,  // measure 57
0002
0000
0000
3003
;
