#TITLE:Amalgamation;
#SUBTITLE:;
#ARTIST:Mystic Moon;
#TITLETRANSLIT:;
#SUBTITLETRANSLIT:;
#ARTISTTRANSLIT:;
#CREDIT:dominator;
#BANNER:Amalgamation.png;
#BACKGROUND:Amalgamation-bg.png;
#LYRICSPATH:;
#CDTITLE:./CDTitles/DanceDanceRevolution X3.png;
#MUSIC:Amalgamation.mp3;
#OFFSET:0.000;
#SAMPLESTART:38.991;
#SAMPLELENGTH:15.000;
#SELECTABLE:YES;
#BPMS:0.000=166.000;
#STOPS:182.000=1.807
;
#BGCHANGES:;

//---------------dance-double - ----------------
#NOTES:
     dance-double:
     :
     Hard:
     14:
     0.640,0.700,0.136,0.126,0.349:
00000000
00000000
00000000
00000000
,
00000000
00000000
00000000
00000000
,
00000000
00000000
00000000
00000000
,
00000000
00000000
00000000
00000000
,
00000000
00000000
00000000
00000000
,
00000010
00000010
00001000
00001000
,
00000001
00000001
00001100
00011000
,
01000000
01000000
10000000
10000000
,
00100000
00100000
01010000
00011000
,
00000010
00000000
00000000
00000000
00000100
00000000
00000000
00000001
00000000
00000000
00000010
00000000
00000100
00000000
00002000
00000000
,
00000002
00000000
00000000
00003003
,
00000010
00000001
00001000
00000001
00000100
00000000
00001000
00010000
,
00001000
00000000
01000000
00000000
00100000
10000000
00010000
00100000
,
01000000
10000000
01000000
00000000
00100000
00000000
00001000
00000000
00010000
00000000
00000100
00000000
00000010
00000000
00000001
00000000
,
00001000
00000010
00000100
00000001
,
00001000
00000000
00000010
00000000
00000100
00000000
00000010
00000000
00010000
00000000
00000100
00000000
00001000
00000000
00000100
00010000
,
00001000
00000000
00100000
00000000
00010000
00000000
00100000
00000000
01000000
00000000
10000000
00000000
00010000
00000000
10000000
00100000
,
01000000
00000000
00100000
00000000
10000000
00000000
00100000
00000000
01000000
00000000
00001000
00000000
00010000
00000000
00001000
00010000
,
00001000
00000000
00000100
00000000
00000001
00000010
00000100
00001000
,
00000010
00001000
00000001
00001000
00000100
00000000
00000010
00001000
,
00010000
00000000
01000000
00000000
00100000
00010000
10000000
00100000
,
01000000
00100000
01000000
00000000
00010000
00000000
10000000
00000000
01000000
00000000
00010000
00000000
00001000
00000000
00000010
00000000
,
00000100
00001000
00000010
00001000
,
00000001
00000000
00000010
00000000
00000100
00000000
00000010
00000000
00000001
00000000
00000100
00000000
00001000
00000000
00010000
00001000
,
00010000
00000000
01000000
00000000
10000000
00000000
01000000
00000000
00100000
00000000
00010000
00000000
10000000
00000000
00010000
01000000
,
00010000
00000000
10000000
00000000
00100000
00000000
01000000
00000000
00001000
00000000
00010000
00000000
00000100
00000000
00000010
00000100
,
00001000
00000000
00000001
00000000
00000100
00000010
00000100
00000010
,
00001000
00000000
00000000
00001000
00000010
00000000
00000000
00000010
00010000
00000000
00000000
00010000
00001000
00000000
00000000
00001000
,
00100000
00000000
00000000
00100000
01000000
00000000
00000000
01000000
10000000
00000000
00000000
10000000
00010000
00000000
00000000
00010000
,
01000000
00100000
01000000
00000000
00010000
00000000
10000000
00000000
01000000
00000000
00000000
00000000
00100000
00000000
01000000
00100000
,
01000000
00000000
00010000
00000000
00001000
00000010
00000001
00000100
,
00000001
00000000
00000000
00000001
00000010
00000000
00000000
00000010
00000100
00000000
00000000
00000100
00000010
00000000
00000000
00000010
,
00001000
00000000
00000000
00001000
00010000
00000000
00000000
00010000
01000000
00000000
00000000
01000000
10000000
00000000
00000000
10000000
,
00010000
01000000
00010000
00000000
00100000
00000000
00010000
00000000
01000000
00000000
00000000
00000000
00100000
00000000
10000000
01000000
,
10000000
00000000
01000000
00000000
00010000
00001000
00000100
00000010
,
00002002
00000000
00000000
00000000
00003003
00000000
00000000
00000000
00000001
00000000
00000000
00000010
00000000
00000000
00000100
00000000
,
00000220
00000000
00000000
00000000
00000330
00000000
00000000
00000000
00010000
00000000
00000000
00001000
00000000
00000000
01000000
00000000
,
02020000
00000000
00000000
00000000
03030000
00000000
00000000
00000000
00100000
00000000
00000000
01000000
00000000
00000000
00010000
00000000
,
00000000
11000000
00000000
01010000
00000000
01100000
10000000
01000000
,
00100000
00000000
00001000
00010000
00001000
00000000
00010000
00000000
00000100
00000000
00000000
00000010
00000000
00000000
00000001
00000000
,
00001000
00000000
00000010
00000100
00000010
00000000
00000100
00000000
00001000
00000000
00000000
00010000
00000000
00000000
00100000
00000000
,
10000000
00000000
00010000
01000000
00010000
00000000
00100000
00000000
00010000
00000000
00000000
10000000
00000000
00000000
01000000
00000000
,
00100000
01000000
10000000
01000000
00100000
01000000
10000000
00000000
00000000
00010000
01000000
00100000
,
01000000
00010000
01000000
00100000
00000000
00000000
00010000
00000010
00001000
00000010
00010000
00000010
,
00001000
00000000
00000010
00000000
00000101
00000000
00000010
00000000
00000001
00000000
00001100
00000000
,
00010000
00000000
00000000
00000000
00001000
00000000
00000000
00000000
00011000
00000000
00000000
00000000
02020000
03030000
00000000
00000000
00000000
00000000
00100000
00000000
00000000
10000000
00000000
00000000
,
00010000
10000000
01000000
00000000
00010000
00001000
00010000
00000000
,
00000100
00000000
00000000
00000000
00000010
00000000
00000001
00000000
00001000
00000000
00000010
00000000
00000100
00000001
00000100
00000000
,
00000010
00010000
00001000
00000000
01000000
00100000
10000000
00000000
,
00010000
00000000
00100000
00000000
01000000
00000000
00100000
00010000
,
10000000
00000000
00100000
00000000
00010000
00000000
00001000
00000000
00000100
00000000
00000010
00001000
00000001
00000000
00000010
00000000
,
00000100
00000000
00001000
00000000
00000001
00000000
00000100
00000000
00001000
00000000
00010000
00001000
00010000
00000000
01000000
00000000
,
10000000
00000000
01000000
00000000
00100000
00000000
01000000
00000000
00010000
00000000
01000000
00100000
00010000
00000000
00000000
00000000
,
10000000
00000000
00100000
01000000
00001000
00010000
00000010
00001000
,
00000100
00000000
00001000
00000000
00000001
00000000
00000010
00000000
00000100
00000000
00001000
00000000
00000100
00000000
00010000
00001000
,
00010000
00000000
00000010
00001000
00000010
00000000
00010000
00001000
00010000
00000000
00000100
00001000
00000100
00000000
00000010
00000000
,
00001000
00000000
00010000
00000000
01000000
00000000
00100000
00000000
00010000
00000000
01000000
00000000
00100000
00000000
10000000
00010000
,
10000000
00000000
00100000
01000000
00100000
00000000
10000000
00010000
10000000
00000000
01000000
00000000
00100000
00000000
00001000
00000000
,
00010000
00001000
00010000
00000100
00001000
00000100
00001000
00000001
,
00000100
00000000
00000001
00000000
00001000
00000000
00000100
00000000
00000010
00000000
00000001
00000010
00000001
00000000
00000100
00000000
,
00000001
00001000
00000100
00000000
00010000
00001000
00010000
00000000
,
00000000
00000000
01000000
01000000
01000000
00000000
00100000
00000000
,
00100000
00000000
00000000
00000000
00010000
00000000
00000000
00000000
00010000
00000000
00000000
01000000
00100000
00000000
00000000
00000000
,
00100000
00000000
10000000
01000000
00010000
01000000
00100000
00000000
,
00100000
00000000
00000000
00000000
00001000
00000000
00000000
00000000
00001000
00000000
00000000
00010000
00000100
00000000
00000000
00000000
,
00000100
00000000
00000010
00000001
00001000
00000010
00000100
00000000
,
00000100
00000000
00000000
00000001
00000000
00000000
00000010
00000000
00000100
00000000
00020000
00000000
00002000
00000000
00000000
00000000
,
00033000
00000000
00100000
01000000
00100000
00000000
00010000
00000000
01000000
00000000
00100000
00000000
20000000
00000000
00000000
00000000
,
00000000
00000000
00000000
30000000
;

//---------------dance-single - additional challenge----------------
#NOTES:
     dance-single:
     additional challenge:
     Challenge:
     10:
     0.849,0.900,0.708,0.107,0.630: // measure 1
0000
0000
0000
0000
,  // measure 2
0000
0000
0000
0000
,  // measure 3
0000
0000
0000
0000
,  // measure 4
0000
0000
0000
0000
,  // measure 5
0000
0000
0000
0000
,  // measure 6
0110
0000
0000
0010
0001
0000
0000
0001
0100
0000
0000
0100
0010
0000
0000
0010
,  // measure 7
1000
0000
0000
1000
0001
0000
0000
0001
0010
0000
0100
0000
1000
0000
0001
0000
,  // measure 8
0100
0000
0000
0100
0010
0000
0000
1000
0001
0000
0000
0010
0100
0000
0000
0010
,  // measure 9
0001
0000
0000
0100
0010
0000
0000
1000
0100
0000
0010
0000
0001
0000
0100
0000
,  // measure 10
1010
0000
0000
0100
0000
0000
0101
0000
0000
0000
1000
0000
0100
0000
0001
0000
,  // measure 11
0100
1000
0001
0100
0001
1000
0100
0010
,  // measure 12
0011
1000
0100
1000
0001
0000
1001
0000
,  // measure 13
0110
0000
1100
0010
0001
0001
0100
0010
,  // measure 14
1000
0010
1000
0000
0001
0000
0010
0000
0100
0000
0000
0000
1001
0000
0100
0000
,  // measure 15
1010
1001
1100
0001
,  // measure 16
0101
0000
0001
1000
0001
0000
1000
0001
1000
0000
0010
1000
0010
0000
0100
0001
,  // measure 17
0100
0000
0001
0010
0001
0000
1000
0100
1000
0000
0100
0010
0001
0000
0010
0100
,  // measure 18
1000
0000
0001
0000
1000
0010
1000
0000
0001
0000
0010
0000
0100
1000
0100
0000
,  // measure 19
0010
0001
0010
0000
0001
1000
0001
0000
1000
0010
0100
0001
1000
0100
0010
0001
,  // measure 20
1000
0001
0100
0001
1000
0000
1010
0000
,  // measure 21
0101
0000
1000
0100
0010
0010
0001
0100
,  // measure 22
0001
1000
0100
0000
0010
0000
0001
0000
0100
0000
0000
0000
1010
0000
0001
0000
,  // measure 23
0101
1001
0110
1000
,  // measure 24
0101
0000
0001
0100
0010
0000
1000
0010
0100
0000
0001
1000
0010
0000
1000
0001
,  // measure 25
0100
0000
0010
1000
0001
0000
0010
0001
1000
0000
0001
0000
0100
0000
0010
1000
,  // measure 26
0010
0000
0100
0000
0001
0000
1000
0001
1000
0100
0010
0100
1000
0001
1000
0010
,  // measure 27
0100
1010
0101
1000
,  // measure 28
0200
0010
0010
0310
0002
1000
1000
1003
,  // measure 29
2000
0010
0010
3010
0020
0100
0100
0130
,  // measure 30
0001
0100
0001
0000
1000
0000
0001
0000
0010
0000
0010
0000
0100
0000
0100
0000
,  // measure 31
0000
0100
1000
0001
0010
0110
0110
0110
,  // measure 32
0200
1000
1000
1300
2000
0001
0001
3001
,  // measure 33
0002
0010
0010
0013
0020
0100
0100
0130
,  // measure 34
1000
0001
1000
0000
0100
0000
0000
0000
0011
0000
0000
0000
0001
0000
0000
0000
,  // measure 35
0101
0000
0100
0000
0110
0110
1001
1001
,  // measure 36
1000
0001
0010
0100
1000
0100
0010
0000
1001
0000
0000
1100
0000
0000
0011
0000
,  // measure 37
1000
0010
0100
0001
0100
0010
1000
0000
0101
0000
0000
1001
0000
0000
1010
0000
,  // measure 38
0010
0100
0001
1000
0100
0010
0001
0000
0110
0000
0000
1001
0000
0000
0110
0000
,  // measure 39
0000
0110
0000
1010
0000
0011
0000
0010
,  // measure 40
0001
0010
0100
0010
0001
1000
0010
0000
1010
0000
0000
0110
0000
0000
0101
0000
,  // measure 41
0010
0100
0010
1000
0001
1000
0100
0000
0011
0000
0000
1100
0000
0000
1001
0000
,  // measure 42
0010
0001
0010
0100
1000
0100
0010
0000
0011
0000
0000
1001
0000
0000
0101
0000
,  // measure 43
0001
0010
0100
1000
0100
0010
0001
0000
0000
1000
0100
0010
,  // measure 44
0001
0010
0100
1000
0000
0000
1000
0001
0100
0001
1000
0100
,  // measure 45
1000
0000
0011
0000
1001
0000
0101
0000
1010
0000
0110
0000
,  // measure 46
0101
0000
0000
0000
1100
0000
0000
0000
0110
0000
0000
0000
1001
0000
0000
0000
0000
0000
0100
0000
0000
0001
0000
0000
,  // measure 47
0100
0010
1000
0000
1010
0000
0101
0000
,  // measure 48
0010
0000
1000
0000
0001
0000
1000
0000
0100
0000
0010
0000
0001
1000
0001
0000
,  // measure 49
0010
0100
1000
0000
0011
1000
1100
0000
,  // measure 50
1001
0000
0110
0000
1000
0000
1100
0001
,  // measure 51
0010
0000
0100
1000
0100
0000
0010
0000
0001
0000
1000
0001
1000
0000
0010
0000
,  // measure 52
0100
0000
0001
0100
0001
0000
1000
0000
0100
0000
0010
0001
0010
0000
0100
1000
,  // measure 53
0100
0000
1000
0001
1000
0000
0001
1000
0001
0000
0100
0010
0100
0000
0001
0100
,  // measure 54
0010
0000
1000
0001
0100
0010
0100
0001
0010
0100
0010
0001
1000
0000
0001
0000
,  // measure 55
0100
0001
1000
0001
0010
0001
1100
0000
,  // measure 56
0011
0000
0000
0000
0001
1000
0100
0000
0010
0000
0001
0000
1000
0001
0100
0000
,  // measure 57
0010
0000
1000
0000
0001
1000
0100
0000
0010
0001
1000
0000
0001
0100
0010
0000
,  // measure 58
0100
0001
1000
0000
0001
1000
0100
0010
0100
1000
0001
0010
0100
0000
1000
0000
,  // measure 59
0001
0010
0100
0010
0001
0000
1000
0000
0010
0100
0001
0100
0010
0000
1000
0000
,  // measure 60
0001
1000
0100
1000
0001
0000
0010
0000
0100
1000
0100
0010
0001
0000
0010
0000
,  // measure 61
0100
0000
1000
0001
0010
0001
1000
0010
0100
0000
0010
0000
1000
0000
0000
0000
,  // measure 62
1010
0000
0101
0000
0100
0001
2000
0000
,  // measure 63
0010
0010
0010
0010
,  // measure 64
3010
0000
0100
0001
1000
0100
0020
0000
,  // measure 65
0001
0001
0001
0001
,  // measure 66
0031
0000
0000
0000
0010
0000
0100
0000
1000
0000
0001
0000
1001
0000
0000
0100
,  // measure 67
0000
1010
0000
0001
0010
0100
1000
0000
,  // measure 68
0001
0010
0100
1000
0100
0010
0100
1000
0100
0010
0001
1000
0020
0000
0000
0000
,  // measure 69
0000
0000
0000
0030
;
