#TITLE:Against Time;
#SUBTITLE:;
#ARTIST:TheMalenEst;
#TITLETRANSLIT:;
#SUBTITLETRANSLIT:;
#ARTISTTRANSLIT:;
#GENRE:Drum 'n Bass;
#CREDIT:;
#BANNER:Against Time.png;
#BACKGROUND:Against Time-bg.png;
#LYRICSPATH:;
#CDTITLE:;
#MUSIC:Against Time.mp3;
#OFFSET:-0.389373;
#SAMPLESTART:5.815714;
#SAMPLELENGTH:15.000000;
#SELECTABLE:YES;
#BPMS:0.000000=175.000000
,80.000000=87.500000
,112.000000=175.000000
;
#STOPS:
;
#BGCHANGES:;
#KEYSOUNDS:;
#ATTACKS:;

//---------------dance-single - ----------------
#NOTES:
     dance-single:
     :
     Hard:
     14:
     0.706040,0.797142,0.412638,0.112538,0.248521,527.000000,483.000000,44.000000,12.000000,0.000000,0.000000,0.706040,0.797142,0.412638,0.112538,0.248521,527.000000,483.000000,44.000000,12.000000,0.000000,0.000000:
0000
0000
0000
0000
,
0000
0000
0000
0000
,
2002
0000
0000
0000
,
3003
0000
0000
0000
,
0010
1000
0100
0010
0001
0100
0001
1000
,
0001
0100
0010
1000
0100
0010
0000
0000
,
0100
1000
0010
0100
0001
0010
0100
0010
,
0100
1000
0010
1000
0001
0010
0000
0000
,
0001
0010
0001
1000
0010
1000
0001
0100
,
0001
0100
1000
0100
0001
1000
0000
0000
,
1000
0100
1000
0001
0010
0001
1000
0001
,
1000
0000
0010
0000
0001
0000
0010
1000
0000
0000
0001
0000
0000
0010
0000
0001
,
0100
0010
1000
0100
1000
0001
0010
0100
,
1000
0001
0011
0100
1000
1100
1000
0001
,
0100
0010
0100
0001
1000
0100
0010
0100
,
1000
0001
1001
0010
0100
0110
0010
0100
,
0001
0010
1000
0010
0100
1000
0001
0100
,
0010
1000
0100
0100
1000
0001
0001
0100
,
0010
0100
0001
0010
1000
0010
0001
1000
,
0020
0000
0000
0030
,
0210
0000
0000
0000
,
0001
0300
0000
0100
0000
0000
0010
0000
0000
1000
0000
0000
0001
0000
0010
0000
,
0110
0000
0000
1100
0000
0000
1001
0000
0000
0101
0000
0000
0010
0000
1000
0000
,
1100
0000
0000
0011
0000
0000
0110
0000
0000
1100
0000
0000
1001
0000
0101
0000
,
0210
0000
0000
1000
0000
0000
0001
0000
0000
0010
0000
0000
1000
0000
0010
0000
,
0302
0000
0000
0010
0000
0000
1000
0000
0000
0100
0000
0000
0010
0000
1003
0000
,
1001
0000
0000
1100
0000
0000
0011
0000
0000
0110
0000
0000
1001
0000
0110
0000
,
1010
0000
1000
1000
0000
0001
0001
0000
0200
0000
0000
0000
0310
0000
0010
0000
,
1000
0000
0100
0000
0001
0000
1000
0000
0010
0000
0001
0000
1000
0100
1000
0000
,
0010
0000
0001
0000
1000
0000
0100
0000
0001
0000
0010
0000
0100
1000
0100
0000
,
1000
0000
0100
0000
0001
0000
1000
0000
0010
0000
0001
0000
0100
0010
0100
0000
,
0001
0000
0010
0000
1000
0000
0001
0000
0100
0000
1000
0000
0010
1000
0010
0000
,
1000
0000
0001
0000
0010
0000
0100
0000
1000
0000
0001
0000
0100
0001
0100
0000
,
0001
0000
1000
0000
0100
0000
1000
0000
0010
0000
0100
0000
0001
1000
0001
0000
,
0010
0000
0100
0000
0010
0000
0001
0000
1000
0000
0100
0000
1000
0001
1000
0001
,
0020
0000
0000
0030
,
0010
0000
0100
0000
1000
0000
0001
0000
1000
0000
0010
0000
0100
0001
0100
0000
,
0001
0000
1000
0000
0100
0000
0010
0000
0100
0000
1000
0000
0010
1000
0010
0000
,
0100
0000
0001
0000
0100
0000
1000
0000
0100
0000
0001
0000
0010
0100
0010
0000
,
0001
0000
1000
0000
0100
0000
0001
0000
0100
0000
0010
0000
0001
0100
0001
0000
,
1000
0000
0010
0000
0001
0000
1000
0000
0100
0000
0001
0000
1000
0010
1000
0000
,
0100
0000
0001
0000
1000
0000
0010
0000
0001
0000
1000
0000
0010
1000
0010
0000
,
0100
0000
0001
0000
0010
0000
0100
0000
0010
0000
0001
0000
1000
0100
1000
0100
,
0010
0001
0100
0100
0020
0000
2030
0000
,
3001
0000
0010
0000
0100
0000
1000
0000
0010
0000
0100
0000
0001
1000
0001
1000
,
0100
1000
0010
0100
0000
0101
0010
0000
,
0001
0000
0100
0000
1000
0000
0100
0000
0010
0000
1000
0000
0001
1000
0001
1000
,
0010
0100
0010
0110
2000
0000
3001
0000
,
0001
0000
0100
0000
1000
0000
0100
0000
0010
0000
1000
0000
0001
0100
0001
0100
,
0010
1000
0100
1100
0000
1000
0001
0100
,
0010
1000
0001
0100
1000
0100
0001
0010
,
0100
0000
1000
0100
1000
0100
1000
0100
0010
0001
0010
0001
0010
0001
0010
0001
,
0100
0000
0010
0000
1000
0000
0001
0000
0010
0000
0100
0000
1000
0010
1000
0000
,
0100
0010
0110
0000
0100
1100
0000
1000
,
0100
0000
0001
0000
0100
0000
0010
0000
0001
0000
0100
0000
0010
1000
0010
0000
,
0100
0001
0101
0000
0010
1010
0000
1000
,
0001
0000
0010
0000
1000
0000
0010
0000
0100
0000
1000
0000
0010
0100
0010
0000
,
0100
0001
1000
1100
0000
0010
0110
0000
,
0100
0000
0001
0000
0010
0000
1000
0000
0010
0000
0100
0000
1000
0100
1000
0100
,
0010
0001
0100
0010
1000
0001
0200
0000
,
0310
0000
1010
0100
0000
0101
0001
1000
,
1100
0000
0011
0100
0000
1100
0001
0100
,
0010
0000
0110
0001
0000
1001
0100
0010
,
0001
0000
0011
0100
0000
1100
0001
0100
,
0010
0000
1010
0100
0000
0101
0010
1000
,
0001
1000
0100
0010
0000
0010
0100
0000
,
1000
0000
0100
0000
0001
0000
0100
0000
0010
0000
0001
0000
1000
0010
1000
0010
,
0100
0001
0100
0010
1000
0000
0001
0000
,
0010
0000
0000
0000
;

//---------------dance-single - ----------------
#NOTES:
     dance-single:
     :
     Medium:
     10:
     0.424696,0.414514,0.009378,0.084403,0.075025,317.000000,316.000000,1.000000,9.000000,0.000000,0.000000,0.424696,0.414514,0.009378,0.084403,0.075025,317.000000,316.000000,1.000000,9.000000,0.000000,0.000000:
0000
0000
0000
0000
,
0000
0000
0000
0000
,
2002
0000
0000
0000
,
3003
0000
0000
0000
,
0010
0000
1000
0100
0000
1000
0001
0000
,
0100
0000
0010
0100
0000
0001
0010
0000
,
0100
0000
1000
0100
0000
0010
0001
0000
,
1000
0000
0010
0100
0000
0001
1000
0000
,
0001
0000
0010
0001
0000
0100
0010
0000
,
1000
0000
0100
0010
0000
0100
1000
0000
,
0001
0000
0100
1000
0000
0100
0001
0000
,
0010
0000
0000
0000
1000
0000
0000
0010
0000
0000
0100
0000
0000
1000
0000
0000
,
0001
0000
0100
0000
0010
1000
0100
0000
,
0010
0000
0100
0000
1000
0001
0100
0000
,
0010
0000
1000
0000
0001
0010
0100
0000
,
1000
0000
0100
0000
0001
0100
1000
0000
,
0010
0000
0100
0000
0001
1000
0010
0000
,
0100
0000
0001
1000
0000
1000
0001
0000
,
0100
0000
0010
0000
1000
0001
0010
0000
,
0200
0000
0000
0000
,
0320
0000
0000
0000
,
0031
0000
0000
0001
0000
0000
0001
0000
0000
0001
0000
0000
0001
0000
0000
0000
,
1000
0000
0000
1000
0000
0000
1000
0000
0000
1000
0000
0000
1000
0000
0000
0000
,
0010
0000
0000
0010
0000
0000
0010
0000
0000
0010
0000
0000
0010
0000
0000
0000
,
0100
0000
0000
0001
0000
0000
1000
0000
0000
0010
0000
0000
0100
0000
0000
0000
,
0001
0000
0000
0010
0000
0000
0100
0000
0000
1000
0000
0000
0010
0000
0000
0000
,
0100
0000
0000
0001
0000
0000
1000
0000
0000
0010
0000
0000
0100
0000
0000
0000
,
1000
0000
0000
0100
0000
0000
0010
0000
0000
0001
0000
0000
0010
0000
1000
0000
,
0100
0000
1000
0000
0010
1000
0100
0000
,
0010
0000
0100
0000
1000
0001
0100
0000
,
0010
0000
0100
0000
0001
1000
0100
0000
,
0010
0000
0001
0000
1000
0010
0100
0000
,
0001
0000
0010
0000
0001
1000
0100
0000
,
0010
0000
0100
0000
1000
0001
0100
0000
,
0010
0000
1000
0000
0100
0010
0100
0000
,
2000
0000
0000
0000
,
3001
0000
0100
0001
0000
1000
0100
0000
,
0010
0000
0100
1000
0000
0100
0010
0000
,
0001
0000
1000
0010
0000
1000
0001
0000
,
0010
0000
0100
1000
0000
0001
1000
0000
,
0100
0000
0010
0001
0000
0100
0001
0000
,
0010
0000
0100
1000
0000
0001
1000
0000
,
0010
0000
0100
0001
0000
0100
0010
0000
,
0000
1000
0100
1000
0002
0000
2003
0000
,
3010
0000
0100
0001
0000
0100
0001
0000
,
1000
0100
0010
0001
0000
0010
0001
0000
,
1000
0000
0010
0100
0000
0010
0100
0000
,
0001
1000
0100
1000
0001
0000
1000
0000
,
0010
0000
0100
0001
0000
0100
0001
0000
,
0010
0100
1000
0100
0000
0010
0001
0000
,
1000
0000
0100
1000
0000
0010
0100
0000
,
0000
0001
1000
0001
1000
0001
1000
0001
,
1000
0000
0010
0000
1000
0100
1000
0000
,
0010
0000
0100
0000
0001
1000
0100
0000
,
0010
0000
0100
0000
1000
0100
0010
0000
,
0001
0000
0100
0000
0010
0100
0001
0000
,
0010
0000
0100
0000
1000
0001
0100
0000
,
0010
0000
0100
0001
0000
1000
0100
0000
,
1000
0000
0010
0000
0100
0001
0010
0000
,
0000
0100
1000
0010
2000
0000
3002
0000
,
0013
0000
0001
0010
0000
0001
0010
0000
,
0100
1000
0000
0100
1000
0000
0001
0000
,
0100
0000
0010
0100
0000
0010
0100
0000
,
0001
0100
0000
0001
1000
0000
0100
0000
,
0010
0000
0100
0010
0000
0100
0010
0000
,
0000
0001
0010
0001
0000
1000
0010
0000
,
0100
0000
0001
0100
0000
0001
1000
0000
,
0000
0010
1000
0001
0010
0000
0100
0000
,
1000
0000
0000
0000
;

//---------------dance-single - ----------------
#NOTES:
     dance-single:
     :
     Easy:
     6:
     0.285363,0.286971,0.000000,0.056269,0.000000,213.000000,213.000000,0.000000,6.000000,0.000000,0.000000,0.285363,0.286971,0.000000,0.056269,0.000000,213.000000,213.000000,0.000000,6.000000,0.000000,0.000000:
0000
0000
0000
0000
,
0000
0000
0000
0000
,
0200
0000
0000
0000
,
0300
0000
0000
0000
,
0010
1000
0100
0010
,
0001
0100
0010
0000
,
0100
0001
0010
0100
,
1000
0010
0100
0000
,
0001
1000
0100
1000
,
0001
0100
1000
0000
,
0001
0010
1000
0001
,
0010
0001
1000
0000
,
0010
0100
0001
1000
,
0100
0010
0001
0000
,
0100
0010
1000
0100
,
0001
0100
1000
0000
,
0010
0100
0001
1000
,
0010
0100
0001
0000
,
0010
0001
1000
0010
,
0200
0000
0000
0300
,
0010
0000
0000
0000
,
0100
0000
0000
0100
0000
0000
0100
0000
,
0001
0000
0000
0001
0000
0000
0001
0000
,
1000
0000
0000
1000
0000
0000
1000
0000
,
0001
0000
0000
0010
0000
0000
0100
0000
,
1000
0000
0000
0010
0000
0000
0100
0000
,
0001
0000
0000
0010
0000
0000
0100
0000
,
1000
0000
0000
0001
0000
0000
0100
0000
,
0010
1000
0100
1000
,
0010
1000
0100
0000
,
0010
0001
0100
0001
,
0010
0001
0100
0000
,
0001
1000
0100
1000
,
0001
0100
0001
0000
,
1000
0010
1000
0001
,
0020
0000
0000
0000
,
0130
1000
0010
1000
,
0001
0010
1000
0010
,
0001
0100
0010
0100
,
0001
1000
0100
1000
,
0010
1000
0100
1000
,
0010
1000
0001
0010
,
0001
0100
0010
0100
,
0002
0000
0000
0000
,
0013
0100
1000
0010
,
0100
0001
0010
0100
,
1000
0010
0100
0001
,
1000
0100
0010
0000
,
0100
1000
0001
0100
,
0010
1000
0001
0010
,
0100
1000
0010
0100
,
0002
0000
0000
0000
,
0013
0001
1000
0010
,
1000
0001
0010
0000
,
0100
1000
0010
1000
,
0100
1000
0010
0000
,
1000
0001
0100
0001
,
1000
0100
1000
0000
,
0001
0010
0100
0010
,
0001
0100
0010
0000
,
1000
0000
0000
0100
0000
0000
0010
0000
,
0000
0001
0000
0000
0100
0000
0000
0000
,
0010
0000
0000
1000
0000
0000
0001
0000
,
0000
0010
0000
0000
0100
0000
1000
0000
,
0001
0000
0000
0100
0000
0000
0010
0000
,
0000
1000
0000
0000
0001
0000
0010
0000
,
0100
0000
0000
1000
0000
0000
0010
0000
,
0200
0010
0010
0010
,
0310
0000
0000
0000
;

//---------------dance-single - ----------------
#NOTES:
     dance-single:
     :
     Beginner:
     2:
     0.132634,0.159428,0.000000,0.046891,0.000000,99.000000,99.000000,0.000000,5.000000,0.000000,0.000000,0.132634,0.159428,0.000000,0.046891,0.000000,99.000000,99.000000,0.000000,5.000000,0.000000,0.000000:
0000
0000
0000
0000
,
0000
0000
0000
0000
,
0000
0000
0000
0000
,
0000
0000
0000
0000
,
1000
0000
1000
0000
,
0001
0000
0001
0000
,
0100
0000
0100
0000
,
0010
0000
0010
0000
,
1000
0000
0100
0000
,
1000
0000
0000
0000
,
0001
0000
0100
0000
,
0001
0000
0000
0000
,
1000
0000
1000
0000
,
0001
0000
0001
0000
,
0100
0000
0100
0000
,
0010
0000
0010
0000
,
1000
0000
0010
0000
,
1000
0000
0000
0000
,
0001
0000
0010
0000
,
0002
0000
0003
0000
,
1000
0000
0000
0000
,
0010
0000
0000
0000
,
0100
0000
0000
0000
,
0001
0000
0000
0000
,
0010
0000
0010
0000
,
0100
0000
0000
0000
,
1000
0000
1000
0000
,
0001
0000
0000
0000
,
0100
0000
0100
0000
,
0100
0000
0000
0000
,
0010
0000
0010
0000
,
0010
0000
0000
0000
,
1000
0000
1000
0000
,
1000
0000
0000
0000
,
0001
0000
0001
0000
,
0002
0000
0003
0000
,
0010
0000
0010
0000
,
0010
0000
0000
0000
,
0100
0000
0100
0000
,
0100
0000
0000
0000
,
1000
0000
1000
0000
,
1000
0000
0000
0000
,
0010
0000
0010
0000
,
0020
0000
0030
0000
,
0100
0000
0010
0000
,
0100
0000
0000
0000
,
0001
0000
0010
0000
,
0001
0000
0000
0000
,
1000
0000
0001
0000
,
1000
0000
0000
0000
,
0100
0000
0010
0000
,
0200
0000
0300
0000
,
0100
0000
0010
0000
,
0100
0000
0000
0000
,
1000
0000
0100
0000
,
1000
0000
0000
0000
,
0001
0000
0100
0000
,
0001
0000
0000
0000
,
1000
0000
0010
0000
,
1000
0000
0000
0000
,
0100
0000
0010
0000
,
0100
0000
0000
0000
,
1000
0000
0001
0000
,
1000
0000
0000
0000
,
0010
0000
0100
0000
,
0010
0000
0100
0000
,
0001
0000
1000
0000
,
0002
0000
0000
0000
,
0003
0000
0000
0000
;

//---------------dance-single - ----------------
#NOTES:
     dance-single:
     :
     Challenge:
     16:
     0.849391,1.084113,0.600201,0.140672,0.534554,634.000000,570.000000,64.000000,15.000000,0.000000,0.000000,0.849391,1.084113,0.600201,0.140672,0.534554,634.000000,570.000000,64.000000,15.000000,0.000000,0.000000:
// measure 0
0000
0000
0000
0000
,  // measure 1
0000
0000
0000
0000
,  // measure 2
0000
0000
0000
0000
,  // measure 3
0000
0000
0000
0000
,  // measure 4
0100
0000
0010
0000
0001
0000
0100
0000
0010
0000
1000
0000
0100
1000
0100
1000
,  // measure 5
0100
0000
0010
0000
0011
0000
1000
0000
0010
0000
0100
0000
1000
0100
0001
0000
,  // measure 6
0010
0000
0001
0000
1100
0000
0010
0000
0001
0000
1000
0000
1000
0001
0100
0010
,  // measure 7
0100
0000
1000
0000
0100
0000
0001
0000
0010
0000
0100
0000
1000
0100
1000
0100
,  // measure 8
1000
0000
0100
0000
0001
0000
0100
0000
0010
0000
0001
0000
1000
0010
0100
0010
,  // measure 9
1000
0000
0001
0000
0011
0000
0100
0000
1000
0000
1010
0000
0001
0010
0001
0010
,  // measure 10
0100
0000
0010
0000
1100
0000
1000
0000
0010
0000
0101
0000
0010
0100
1000
0100
,  // measure 11
0010
0000
0000
0000
1010
0000
0000
1000
0100
0000
0011
0000
0001
1000
0001
1000
,  // measure 12
0100
0000
0010
0000
0001
0000
0100
0000
0010
0000
1000
0000
0010
1000
0010
1000
,  // measure 13
0001
0000
0010
0000
0011
0000
0100
0000
1000
0000
0001
0000
1000
0001
0100
0000
,  // measure 14
1000
0000
0100
0000
0001
0000
1000
0000
0100
0000
0010
0000
0001
0100
0001
0100
,  // measure 15
0010
0000
1000
0000
1010
0000
0001
0000
0010
0000
0100
0000
1000
0010
0100
0000
,  // measure 16
0001
0100
0001
0100
0010
1000
0010
1000
,  // measure 17
0100
1000
0100
1000
0001
0010
0001
0010
,  // measure 18
0100
1000
0100
1000
0100
1000
0100
1000
0001
0100
0001
0100
0001
0100
0001
0100
,  // measure 19
0020
0000
0000
0000
,  // measure 20
2030
0000
0000
3002
0000
0000
0023
0000
0000
0230
0000
0000
1000
0000
0310
0000
,  // measure 21
0011
0000
1000
1010
0000
0001
0011
0000
1000
1100
0001
0100
0010
1000
0001
0000
,  // measure 22
0011
1000
0100
1100
0000
0001
0101
0010
1000
0010
0100
0001
2000
0000
3100
0000
,  // measure 23
0021
0000
0000
0130
0000
0000
2100
0000
0000
3001
0000
0000
0012
0000
1000
0000
,  // measure 24
0103
0010
1000
0010
0000
1000
0000
0100
0000
0000
0000
1000
0010
0100
0001
0000
,  // measure 25
0001
0000
0000
0000
0010
0100
1000
0000
0000
0000
0010
0000
0100
0001
0100
0001
,  // measure 26
2000
0010
0100
3001
0020
0100
1000
0031
,  // measure 27
0010
0001
0010
0001
1000
0010
1000
0010
0100
0010
0100
0010
1000
0001
1000
0001
,  // measure 28
0010
0000
0100
0000
1000
0000
0001
0000
0100
0000
0010
0000
1000
0010
1000
0010
,  // measure 29
0100
0000
0001
0000
1000
0000
0100
0000
0010
0000
0001
0000
1000
0100
1000
0100
,  // measure 30
0010
0000
0001
0000
1000
0000
0010
0000
1000
0000
0100
0000
0010
0001
0010
0001
,  // measure 31
1000
0000
0010
0000
0100
0000
1000
0000
0100
0000
0010
0000
1000
0001
1000
0001
,  // measure 32
0010
0000
0100
0000
0001
0000
0100
0000
0010
0000
0001
0000
1000
0010
0100
0010
,  // measure 33
1000
0000
0001
0000
0010
0000
0100
0000
1000
0000
0100
0000
0010
0001
1000
0001
,  // measure 34
0010
0000
0100
0000
0001
0000
0100
0000
0010
0000
0001
0000
0100
0010
1000
0010
,  // measure 35
0200
0000
0010
0310
,  // measure 36
1010
0001
0010
0011
0000
1000
1100
0001
,  // measure 37
0100
0101
0000
1000
1001
0000
0110
0000
,  // measure 38
0011
1000
0010
1010
0000
0100
0101
0001
,  // measure 39
1000
1100
0000
0001
1001
0000
0110
0000
,  // measure 40
1010
0100
0001
0011
0000
0100
1100
0010
,  // measure 41
0001
0100
0010
0110
0000
0001
1100
0000
,  // measure 42
0011
1000
0010
0101
0000
0100
1010
0001
,  // measure 43
0020
0100
0130
0010
0000
0001
1001
0000
,  // measure 44
0101
0000
0010
0000
1000
0000
0100
0000
0001
0000
0100
0000
1000
0001
1000
0010
,  // measure 45
0200
0010
0301
0101
0000
1000
1100
0000
,  // measure 46
0100
0000
1000
0000
0001
0000
0100
0000
1000
0000
0100
0000
0010
1000
0010
1000
,  // measure 47
0200
0010
0010
1300
0000
0001
0101
0000
,  // measure 48
0001
0100
0001
0100
0001
1000
0001
1000
,  // measure 49
0100
1000
0100
1000
0001
1000
0001
1000
,  // measure 50
0001
0100
0001
0100
0001
0100
0001
0100
0010
1000
0010
1000
0010
1000
0010
1000
,  // measure 51
0001
0010
0001
1000
0001
0010
0001
1000
0010
0100
0010
1000
0001
0100
0010
1000
,  // measure 52
0001
0000
0010
0000
0100
0000
0010
0000
0001
0000
1000
0000
1000
0010
0100
0001
,  // measure 53
1000
0000
0100
0000
0011
0000
1000
0000
0001
0000
0100
0000
1000
0100
0001
0000
,  // measure 54
1000
0000
0100
0000
0001
0000
0100
0000
0010
0000
0001
0000
1000
0001
0100
0010
,  // measure 55
1000
0000
0001
0000
0011
0000
0100
0000
1000
0000
0001
0000
0100
0010
1000
0000
,  // measure 56
0001
0000
0100
0000
1010
0000
0001
0000
0010
0000
0011
0000
0100
1000
0001
1000
,  // measure 57
0100
0010
0001
0101
0000
1000
1100
0000
,  // measure 58
0001
0000
0100
0000
1000
0000
0100
0000
0001
0000
0010
0000
0100
1000
0001
0100
,  // measure 59
0010
1000
1000
0010
0000
0100
0101
0000
,  // measure 60
1001
0100
0010
0110
0100
0010
1001
1000
,  // measure 61
0100
0011
0000
1000
1001
0000
0101
0000
,  // measure 62
1010
0100
0001
0011
0100
1000
1001
0001
,  // measure 63
0100
0110
0000
0010
1001
0000
0011
0010
,  // measure 64
0100
1000
0100
1000
0001
0100
0001
0100
,  // measure 65
0010
1000
0010
1000
0001
0010
0001
0010
,  // measure 66
0100
1000
0010
0100
0001
0010
0001
0100
,  // measure 67
0100
0010
1000
0001
0100
0010
1000
0001
0010
0100
1000
0001
0100
0010
1000
0100
,  // measure 68
0010
0000
0000
0000
;
