#TITLE:5.1.1.;
#SUBTITLE:AIR Special;
#ARTIST:dj nagureo;
#TITLETRANSLIT:;
#SUBTITLETRANSLIT:;
#ARTISTTRANSLIT:;
#CREDIT:dominator;
#BANNER:5.1.1..png;
#BACKGROUND:5.1.1.-bg.png;
#LYRICSPATH:;
#CDTITLE:./CDTITLES/Dance Dance Revolution CLUB VERSION.PNG;
#MUSIC:5.1.1..mp3;
#OFFSET:-0.046;
#SAMPLESTART:47.540;
#SAMPLELENGTH:15.000;
#SELECTABLE:YES;
#DISPLAYBPM:101.000;
#BPMS:0.000=101.010;
#STOPS:;
#BGCHANGES:;

//---------------dance-double - ----------------
#NOTES:
     dance-double:
     :
     Easy:
     2:
     0.096,0.164,0.000,0.000,0.000:
00000000
00000000
00000000
00000000
,
00000000
00000000
00000000
00000000
,
00000000
00000000
00000000
00000000
,
00000000
00000000
00000000
00000000
,
00000010
00000000
00000000
00000000
,
01000000
00000000
00000000
00100000
,
00001000
00000000
00000000
00010000
,
01000000
00000000
00000000
00010000
,
10000000
00010000
00001000
00000001
,
00001000
00010000
10000000
00010000
,
00001000
00000000
00000000
00000000
,
00000001
00000000
00000000
00000000
,
00000100
00000000
00000000
00000000
,
00010000
00000000
00000000
00000000
,
01000000
00000000
00000000
00000000
,
00010000
00000000
00000000
00000000
,
00001000
00000001
00001000
00010000
,
10000000
00010000
00001000
00000001
,
00001000
00000000
00000000
00000000
,
00010000
00000000
00000000
00100000
,
00100000
00000000
00000000
00010000
,
00000100
00000000
00000000
00000010
,
00000010
00000000
00000000
00001000
,
01000000
00000000
00000000
00100000
,
00010000
00000000
00001000
00000000
,
00000010
00000000
00010000
00000000
,
00100000
00001000
00000100
00010000
,
01000000
00010000
00001000
00000000
;

//---------------dance-double - ----------------
#NOTES:
     dance-double:
     :
     Medium:
     5:
     0.183,0.310,0.172,0.000,0.106:
00000000
00000000
00000000
00000000
,
00000000
00000000
00000000
00000000
,
00000000
00000000
00000000
00000000
,
00000000
00000000
00000000
00000000
,
00000011
00000000
00000000
00000000
,
11000000
00000000
00000000
00000000
00000000
00000000
00100000
00010000
,
00001000
00000000
00000000
00000101
00000000
00000000
00001000
00000000
,
00010000
00000000
00000000
01010000
00000000
00000000
01000000
00000000
,
10000000
00100000
00000000
00000000
01000000
00010000
00000000
00000000
00010000
00001000
00000000
00000000
00001000
00000100
00000000
00000000
,
00000001
00000010
00000000
00000000
00000100
00001000
00000000
00000000
00001000
00010000
00000000
00000000
00010000
01000000
00000000
00000000
,
01000000
00000000
00000000
00010000
00000000
00000000
00000000
00000000
,
00001000
00000000
00000000
00000100
00000000
00000000
00000000
00000000
,
00001100
00000000
00000000
00000000
00000000
00000000
00000000
00001000
,
00010000
00000000
00000000
00000000
00000000
00000000
00000000
00010000
,
00001000
00000000
00000000
00000000
00000000
00000000
00000000
00000100
,
00000001
00000000
00000000
00000000
00000000
00000000
00000000
00000001
,
00000001
00000010
00000000
00000000
00000100
00001000
00000000
00000000
00001000
00010000
00000000
00000000
00010000
01000000
00000000
00000000
,
10000000
00100000
00000000
00000000
01000000
00010000
00000000
00000000
00010000
00001000
00000000
00000000
00001000
00000100
00000000
00000000
,
00000100
00000000
00000000
00001000
00000000
00000000
00000000
00000000
,
00010000
00000000
00000000
00100000
00000000
00000000
00100000
00000000
,
00100000
00000000
00000000
00100000
00000000
00000000
00010000
00001000
,
00000100
00000000
00000000
00000010
00000000
00000000
00000010
00000000
,
00000010
00000000
00000000
00000010
00000000
00000000
00001000
00010000
,
01000000
00000000
00000000
00100000
00000000
00000000
00100000
00000000
,
00110000
00000000
00001100
00000000
,
00001010
00000000
01010000
00000000
,
00110000
00001000
00000101
00001000
,
01010000
00001000
00000011
00000000
;

//---------------dance-double - ----------------
#NOTES:
     dance-double:
     :
     Hard:
     8:
     0.344,0.572,0.106,0.106,0.099:
00000000
00000000
00000000
00000000
,
00000000
00000000
00000000
00000000
,
00000000
00000000
00000000
00000000
,
00000000
00000000
00000000
00000000
,
00000010
00000001
00000010
00000001
00000100
00000001
00000100
00000001
,
00000100
00001000
00010000
00001000
00000100
00001000
00010000
00001000
,
00000100
00001000
00000100
00001000
00010000
00001000
00010000
00001000
,
00010000
01000000
10000000
01000000
00010000
01000000
10000000
01000000
,
10000000
01000000
10000000
01000000
00010000
00001000
00010000
00001000
,
00000100
00000001
00000100
00000001
00000010
00001000
00010000
00100000
,
20000000
00000000
00000000
02000000
00000000
00000000
33000000
00000000
,
00200000
00000000
00000000
00020000
00000000
00000000
00330000
00000000
,
00100000
01000000
00100000
01000000
00010000
01000000
00010000
01000000
,
00010000
00001000
00000100
00001000
00010000
00001000
00000100
00001000
,
00010000
00001000
00010000
00001000
00000100
00001000
00000100
00001000
,
00000100
00000010
00000001
00000010
00000100
00000010
00000001
00000010
,
00000001
00000010
00000001
00000010
00000100
00001000
00000100
00001000
,
00010000
00100000
00010000
00100000
01000000
10000000
01000000
10000000
,
02000000
00000000
00000000
00020000
00000000
00000000
03030000
00000000
,
00200000
00000000
00000000
00020000
00300000
00000000
00130000
00000000
,
01100000
00000000
00000000
11000000
00000000
00000000
00010000
00001000
,
00000100
00000000
00000000
00000110
00000000
00000000
00001100
00000000
,
00000110
00000000
00000000
00000101
00000000
00000000
00001000
00010000
,
01000000
00000000
00000000
01100000
00000000
00000000
01010000
00000000
,
10000000
01000000
00010000
01000000
00010000
00001000
00010000
00001000
,
00000100
00001000
00000100
00000001
00000100
00000001
00000010
00000001
,
00000010
00000001
00000010
00000001
00000100
00000001
00000100
00000001
00000100
00001000
00010000
00001000
00000100
00001000
00010000
00001000
,
00000100
00001000
00000100
00001000
00010000
00001000
00010000
00001000
00010000
01000000
10000000
01000000
00010000
01000000
10000000
00000000
;

//---------------dance-single - the easiest edit i'v----------------
#NOTES:
     dance-single:
     the easiest edit i'v:
     Challenge:
     8:
     0.486,0.480,0.861,0.000,0.000: // measure 1
0000
0000
0000
0000
,  // measure 2
0000
0000
0000
0000
,  // measure 3
0000
0000
0000
0000
,  // measure 4
0000
0000
0000
0000
,  // measure 5
1001
1000
0100
0100
0010
0001
0100
0010
,  // measure 6
1010
0100
0001
0001
0010
0100
1100
0110
,  // measure 7
0011
1000
0001
0101
0001
1000
1100
0010
,  // measure 8
0011
0001
0100
0110
1000
0001
0011
0100
,  // measure 9
1100
0100
0110
0010
0011
0001
0101
0100
,  // measure 10
0110
0010
1010
1000
1100
0100
0110
0010
,  // measure 11
0011
0001
0100
1010
0001
0100
0010
0010
,  // measure 12
1010
0001
1000
1100
0010
0001
1000
0010
,  // measure 13
0110
0100
0001
0001
1000
0100
0010
0011
,  // measure 14
1100
0001
0100
0100
0010
1000
0100
0110
,  // measure 15
0011
0001
0100
0100
0010
1000
0001
1001
,  // measure 16
0110
0100
0001
0001
0010
0100
1000
0101
,  // measure 17
0110
0010
1010
1000
1001
0001
0011
0010
,  // measure 18
0110
0100
1100
1000
1001
0001
0101
0100
,  // measure 19
0110
0010
1000
1001
0100
0001
0010
0100
,  // measure 20
1100
0010
0001
0101
0100
0001
1001
1000
,  // measure 21
1100
0010
0001
0101
1000
0010
0110
1001
,  // measure 22
1100
0010
0001
0101
0010
1000
1100
0010
,  // measure 23
0011
0010
0100
1100
0001
0100
0101
1001
,  // measure 24
0110
1000
0001
1100
0010
0001
0101
1000
,  // measure 25
1100
0010
0001
0100
1010
0001
1000
0100
,  // measure 26
0011
0001
0010
0100
1100
0010
0001
0100
,  // measure 27
0110
0100
0010
0010
1010
1000
0001
0001
,  // measure 28
0011
0010
0100
0100
1100
1000
0001
0010
;
