#TITLE:Year of Summer;
#SUBTITLE:;
#ARTIST:Wildstylez ft. Niels Geusebroek;
#TITLETRANSLIT:;
#SUBTITLETRANSLIT:;
#ARTISTTRANSLIT:;
#GENRE:;
#CREDIT:Remix by DiscoStu;
#BANNER:;
#BACKGROUND:;
#LYRICSPATH:;
#CDTITLE:;
#MUSIC:Year of Summer.mp3;
#OFFSET:0.100000;
#SAMPLESTART:44.373451;
#SAMPLELENGTH:11.939999;
#SELECTABLE:YES;
#BPMS:0.000000=150.000000
;
#STOPS:
;
#BGCHANGES:;
#KEYSOUNDS:;
#ATTACKS:;

//---------------dance-single - ----------------
#NOTES:
     dance-single:
     :
     Hard:
     8:
     0.326237,0.426550,0.145456,0.116365,0.389095,314.000000,294.000000,20.000000,16.000000,0.000000,0.000000,0.326237,0.426550,0.145456,0.116365,0.389095,314.000000,294.000000,20.000000,16.000000,0.000000,0.000000:
0000
0000
0000
0000
,
0000
0000
0000
0000
,
0000
0000
0000
0000
,
0000
0000
0000
0000
,
1001
0000
0000
0000
0000
0000
0000
0000
0000
0000
0000
0001
,
1000
0000
0010
0100
0000
0000
0001
0002
,
0000
0000
0000
0000
0000
0003
0000
0000
,
0100
0000
0000
0000
0000
0010
0000
0000
0000
1000
0000
0000
0000
0000
0000
0000
0000
0000
1000
0000
0000
2000
0000
0000
,
0000
0000
3000
0000
0010
0001
0000
1000
,
0000
0001
0000
1000
0000
0000
0002
2000
,
0000
0000
0000
0000
,
0000
0000
0000
0000
,
0000
0000
0000
0000
0000
0000
3003
0000
0000
0000
0000
0001
,
1000
0000
0001
1000
0000
0000
0001
2000
,
0000
0000
0000
0000
0000
0000
3000
0000
0000
0000
0000
0001
,
0100
0000
0000
0000
0000
0000
0000
0000
0000
0000
0000
0000
0010
0000
0000
0000
0000
0000
0000
0000
0000
1000
0000
0000
0000
0000
0000
0000
0000
0000
0000
0000
0000
0000
0000
0000
0001
0000
0000
0000
0000
0000
0000
0000
1000
0000
0000
0000
,
0000
0000
0000
0000
0000
0001
1000
0000
0000
0000
0000
0001
,
0000
0000
0000
0000
0000
0000
0001
0000
0000
1000
0000
0000
0000
0000
0000
0000
0000
0000
2000
0000
0000
0000
0002
0000
,
0000
0000
0000
0000
,
0000
0000
0000
0000
0000
0000
3003
0000
0000
0000
0000
0001
,
1000
0000
0010
0001
0000
0100
0000
0000
0000
1000
0000
0001
,
0000
0000
0000
1000
0000
0001
0000
0000
0000
1000
0000
0001
,
0000
0000
1000
0000
0000
0002
0000
0000
0000
0000
0000
0000
,
0000
0000
0000
0003
0000
0000
0000
0000
0000
0000
0000
0010
,
0100
0000
1000
0001
0000
0100
0000
0000
0000
0100
0000
0010
,
0000
0000
0001
0000
0000
1000
0000
0000
0000
0001
0000
0000
,
0000
0020
0000
0000
,
0030
0000
0000
0000
0000
0000
0000
0000
0000
0010
0000
0001
,
1000
0000
0000
1000
0000
0001
0100
0000
0000
0001
0000
0010
,
0100
0000
0000
1000
0000
0100
0010
0000
0000
0001
0000
0010
,
0100
0000
0000
1000
0000
0001
0010
0000
0000
1000
0000
0100
,
0010
0000
0000
0100
0000
0010
0001
0000
0000
0100
0000
0010
,
1000
0000
0000
0100
0000
0010
0001
0000
0000
0001
0000
0010
,
0100
0000
0000
1000
0000
0001
0010
0000
0000
0001
0000
0010
,
1000
0000
0000
1000
0000
0010
0001
0000
0000
0001
0000
0100
,
1000
0000
0000
1000
0000
0100
0010
0000
0000
0001
0000
0010
,
0100
0000
0000
1000
0000
0001
0100
0000
0000
0001
0000
0010
,
0100
0000
0000
1000
0000
0100
0010
0000
0000
0001
0000
0100
,
0001
0000
0000
1000
0000
0100
1000
0000
0000
0001
0000
0010
,
0001
0000
0000
0010
0000
1000
0100
0000
0000
0010
0000
0001
,
0010
0000
0000
0100
0000
1000
0100
0000
0000
0100
0000
0010
,
0001
0000
0000
0010
0000
1000
0100
0000
0000
0010
0000
0001
,
0010
1000
1000
1000
,
2002
0000
0000
0000
0000
0000
3003
0000
0000
0000
0000
1000
,
0001
0000
0001
0010
0000
0010
0100
0000
0100
1000
0000
1000
,
0010
0000
0010
0100
0000
0100
0001
0000
0001
0010
0000
0010
,
0100
0000
0100
1000
0000
1000
0001
0000
0001
1000
0000
0100
,
0001
0000
0010
1000
0000
0100
0001
0000
0100
1000
0000
1000
,
0001
0000
0100
0010
0000
0010
1000
0000
1000
0100
0000
0100
,
0010
0000
0010
0001
0000
0001
0100
0000
0100
0010
0000
0010
,
1000
0000
0000
0001
0000
0000
1000
0000
0100
0000
0000
0020
,
0000
0000
0000
0000
0000
0000
0030
0000
0000
0000
0000
0001
,
1000
0000
0100
0010
0000
0001
1000
0000
0010
0100
0000
0001
,
1000
0000
0100
0010
0000
0001
0010
0000
0100
1000
0000
0010
,
0001
0000
0100
1000
0000
0001
1000
0000
1000
0001
0000
0100
,
0010
0000
1000
0100
0000
0010
0001
0000
0100
1000
0000
1000
,
0001
0000
0001
1000
0000
1000
0001
0000
0001
0010
0000
0010
,
0100
0000
0100
1000
0000
1000
0100
0000
0100
0010
0000
0010
,
0001
0000
0000
0001
0000
0000
1000
0000
1000
0000
0000
2002
,
0000
0000
3003
0000
,
1001
1001
1000
1000
,
1001
1001
0001
0001
,
1001
1001
0010
0010
,
1001
1001
0100
0100
,
1001
1001
1000
0001
,
1001
1001
0010
0100
,
1001
1001
0001
1000
,
1001
0000
0000
1001
0000
0000
0100
0000
0000
0100
0000
2002
,
0000
0000
0000
0000
,
3003
0000
0000
0000
;

//---------------dance-single - ----------------
#NOTES:
     dance-single:
     :
     Beginner:
     2:
     0.085196,0.148365,0.036364,0.000000,0.000000,82.000000,77.000000,5.000000,0.000000,0.000000,0.000000,0.085196,0.148365,0.036364,0.000000,0.000000,82.000000,77.000000,5.000000,0.000000,0.000000,0.000000:
0000
0000
0000
0000
,
0000
0000
0000
0000
,
0000
0000
0000
0000
,
0000
0000
0000
0000
,
0010
0000
0000
0000
,
0010
0000
0000
0000
,
0001
0000
0000
0000
,
1000
0000
0000
0000
,
0100
0000
0000
0000
,
0010
0000
0000
0000
,
0001
0000
0000
0000
,
0000
0000
0000
0000
,
0000
0000
0000
0000
,
1000
0000
0000
0000
,
0100
0000
0000
0000
,
0001
0000
0000
0000
,
1000
0000
0000
0000
,
0010
0000
0000
0000
,
0001
0000
0000
0000
,
0000
0000
0000
0000
,
1001
0000
0000
0000
,
0100
0000
0000
0000
,
0010
0000
0000
0000
,
0100
0000
0000
0000
,
1000
0000
0000
0000
,
1000
0000
0000
0000
,
0001
0000
0000
0000
,
0001
0000
0000
0000
,
0110
0000
0000
0000
,
1000
0000
0001
0000
,
1000
0000
0000
0000
,
0000
0000
0000
0000
,
0001
0000
1000
0000
,
0001
0000
1000
0000
,
0001
0000
0000
0000
,
0000
0000
0000
0000
,
1001
0000
0000
0000
,
0010
0000
0100
0000
,
0010
0000
0000
0000
,
0000
0000
0000
0000
,
1000
0000
0000
0000
,
0001
0000
0000
0000
,
0100
0000
0000
0000
,
0000
0000
0000
0000
,
0010
0010
0000
0000
,
0100
0100
0000
0000
,
1000
1000
0000
0000
,
0001
0001
0000
0000
,
1000
1000
0000
0000
,
0010
0010
0000
0000
,
0100
0100
0000
0000
,
1001
0000
0000
0000
,
1000
0000
0000
0000
,
0001
0000
0000
0000
,
0010
0000
0100
0000
,
0010
0000
0000
0000
,
1000
0000
0000
0000
,
0001
0000
1000
0000
,
0001
0000
0000
0000
,
1001
0000
0000
0000
,
1000
1000
0000
0000
,
1000
1000
0000
0000
,
0001
0001
0000
0000
,
0001
0001
0000
0000
,
0010
0010
0000
0000
,
0010
0010
0000
0000
,
0100
0100
0000
0000
,
0000
0000
0000
0000
,
0100
0000
0000
0000
;

//---------------dance-single - ----------------
#NOTES:
     dance-single:
     :
     Medium:
     6:
     0.258704,0.351277,0.247276,0.087274,0.029091,249.000000,215.000000,34.000000,12.000000,0.000000,0.000000,0.258704,0.351277,0.247276,0.087274,0.029091,249.000000,215.000000,34.000000,12.000000,0.000000,0.000000:
0000
0000
0000
0000
,
0000
0000
0000
0000
,
0000
0000
0000
0000
,
0000
0000
0000
0000
,
0110
0000
0000
0000
,
1000
0000
0010
0000
0100
0000
0001
0001
,
0000
0000
0000
0000
,
0100
0000
1000
0000
0010
0000
0001
1000
,
0000
0000
0000
0000
1000
0100
0000
0001
,
0000
0010
0000
1000
0000
0000
2000
0020
,
0000
0000
0000
0000
,
0000
0000
0000
0000
,
0000
0000
3030
0000
,
1000
0000
0001
0010
0000
0000
0010
0200
,
0000
0000
0300
0000
,
0100
0000
0010
0000
0001
0000
1000
1000
,
0000
0000
1000
1000
,
0001
0000
0001
0000
0000
0000
2000
0020
,
0000
0000
0000
0000
,
0000
3030
0000
0000
,
1000
1000
0001
0100
,
1000
0010
0001
0100
,
1000
1000
2000
0000
,
3000
0000
0000
0000
,
0100
0001
1000
0100
,
0010
0010
0001
0100
,
0000
0002
0000
0000
,
0003
0000
0000
0000
0000
0000
0000
0000
0000
1000
0000
0001
,
1000
0001
0010
0100
,
0010
0000
0000
0001
0000
0000
0100
0000
0000
0001
0000
0010
,
1000
0100
0010
0001
,
1000
0000
0000
1000
0000
0000
0010
0000
0000
0001
0000
0010
,
0100
0001
0100
1000
,
0100
0000
0000
1000
0000
0000
0010
0000
0000
0001
0000
0010
,
1000
1000
0001
0001
,
1000
0000
0000
1000
0000
0000
0010
0000
0000
0001
0000
0010
,
0100
0100
0010
1000
,
0010
0000
0000
0100
0000
0000
0001
0000
0000
1000
0000
0100
,
0001
0010
0010
0001
,
0001
0000
0000
1000
0000
0000
0100
0000
0000
1000
0000
0001
,
1000
1000
0010
0001
,
0010
0000
0000
1000
0000
0000
1000
0000
0000
0100
0000
0001
,
0010
1000
0001
0100
,
0220
0000
0330
0000
,
1001
1001
1000
1000
,
1001
1001
0001
0001
,
1001
1001
0100
0100
,
1001
1001
0001
1000
,
1001
1001
0100
0100
,
1001
1001
0010
0010
,
1001
1001
0001
1000
,
0220
0000
0330
0000
,
1000
0010
1000
0100
,
1000
0010
0010
1000
,
0001
1000
1000
0001
,
0010
0100
0001
1000
,
0001
1000
0001
0010
,
0100
1000
0100
0010
,
0001
0001
1000
0100
,
1001
0000
0000
0000
,
1001
1100
1000
1000
,
1001
0101
0001
0001
,
1001
1010
0010
0010
,
1001
0011
0100
0100
,
1001
0101
1000
0001
,
1001
1100
0010
0100
,
1001
1010
0001
1000
,
1001
0011
1000
0010
,
0200
0000
0000
0000
,
0300
0000
0000
0000
;

//---------------dance-single - ----------------
#NOTES:
     dance-single:
     :
     Easy:
     3:
     0.137144,0.250912,0.174547,0.036364,0.000000,132.000000,108.000000,24.000000,5.000000,0.000000,0.000000,0.137144,0.250912,0.174547,0.036364,0.000000,132.000000,108.000000,24.000000,5.000000,0.000000,0.000000:
// measure 0
0000
0000
0000
0000
,  // measure 1
0000
0000
0000
0000
,  // measure 2
0000
0000
0000
0000
,  // measure 3
0000
0000
0000
0000
,  // measure 4
0001
0000
0010
0000
,  // measure 5
0001
0000
1000
0000
,  // measure 6
0100
0000
0010
0000
,  // measure 7
0100
0000
0010
0000
,  // measure 8
0001
0000
0100
0000
,  // measure 9
0001
0000
1000
0000
,  // measure 10
0100
0000
0001
0000
,  // measure 11
0001
0000
1000
0000
,  // measure 12
1000
0000
0000
0000
,  // measure 13
0100
0000
0001
0000
,  // measure 14
0001
0000
1000
0000
,  // measure 15
0001
0000
0100
0000
,  // measure 16
1000
0000
0010
0000
,  // measure 17
0010
0000
1000
0000
,  // measure 18
0001
0000
0000
0000
,  // measure 19
0000
0000
0000
0000
,  // measure 20
0011
0000
0100
0000
,  // measure 21
0001
0000
0100
0000
,  // measure 22
0100
0000
1000
0000
,  // measure 23
0010
0000
0000
0000
,  // measure 24
1010
0000
0001
0000
,  // measure 25
0010
0000
1000
0000
,  // measure 26
0100
0000
0001
0000
,  // measure 27
0001
0000
0000
0000
,  // measure 28
0101
0000
0001
0000
,  // measure 29
1000
0000
0001
0000
,  // measure 30
2000
0000
0000
0000
,  // measure 31
3000
0000
0000
0000
,  // measure 32
0001
0000
1000
0000
,  // measure 33
0010
0000
0100
0000
,  // measure 34
0002
0000
0000
0000
,  // measure 35
0003
0000
0000
0000
,  // measure 36
1100
0000
0010
0000
,  // measure 37
0100
0000
1000
0000
,  // measure 38
0020
0000
0000
0000
,  // measure 39
0030
0000
0000
0000
,  // measure 40
1000
0000
0010
0000
,  // measure 41
0001
0000
0100
0000
,  // measure 42
2000
0000
0000
0000
,  // measure 43
3000
0000
0000
0000
,  // measure 44
1100
1100
0000
0000
,  // measure 45
1100
1100
0000
0000
,  // measure 46
0011
0011
0000
0000
,  // measure 47
0011
0011
0000
0000
,  // measure 48
0100
0100
0000
0000
,  // measure 49
1000
1000
0000
0000
,  // measure 50
0001
0001
0000
0000
,  // measure 51
1001
0000
0000
0000
,  // measure 52
1010
1010
0000
0000
,  // measure 53
1010
1010
0000
0000
,  // measure 54
0010
0000
0100
0000
,  // measure 55
0010
0000
0000
0000
,  // measure 56
0011
0011
0000
0000
,  // measure 57
0011
0011
0000
0000
,  // measure 58
0110
0110
0000
0000
,  // measure 59
1001
0000
0000
0000
,  // measure 60
0100
0010
0000
0000
,  // measure 61
0100
0010
0000
0000
,  // measure 62
0001
1000
0000
0000
,  // measure 63
0001
1000
0000
0000
,  // measure 64
1000
0100
0000
0000
,  // measure 65
0010
0001
0000
0000
,  // measure 66
0100
1000
0000
0000
,  // measure 67
1000
0100
0000
0000
,  // measure 68
0002
0000
0000
0000
,  // measure 69
0003
0000
0000
0000
;
