#TITLE:Ready For You Love;
#SUBTITLE:;
#ARTIST:Gorgon City feat. MNEK;
#TITLETRANSLIT:;
#SUBTITLETRANSLIT:;
#ARTISTTRANSLIT:;
#GENRE:;
#CREDIT:Jose_Varela;
#BANNER:Ready For Your Love.png;
#BACKGROUND:Ready For Your Love-bg.png;
#LYRICSPATH:;
#CDTITLE:;
#MUSIC:Ready For Your Love.mp3;
#OFFSET:0.040000;
#SAMPLESTART:47.000000;
#SAMPLELENGTH:12.000000;
#SELECTABLE:YES;
#BPMS:0.000000=122.000000
;
#STOPS:
;
#BGCHANGES:;
#KEYSOUNDS:;
#ATTACKS:;

//---------------dance-single - Jose_Varela----------------
#NOTES:
     dance-single:
     :
     Easy:
     4:
     0.137878,0.171204,0.000000,0.000000,0.000000,110.000000,0.000000,0.000000,0.000000,0.000000,0.000000,0.137878,0.171204,0.000000,0.000000,0.000000,110.000000,0.000000,0.000000,0.000000,0.000000,0.000000:
// measure 0
0000
0000
0000
0000
,  // measure 1
0000
0000
0000
0000
,  // measure 2
0000
0000
0000
0000
,  // measure 3
0000
0000
0000
0000
,  // measure 4
0000
0000
1000
0000
,  // measure 5
0001
0000
0100
0000
,  // measure 6
0010
0000
1000
0000
,  // measure 7
0010
0000
0001
0000
,  // measure 8
0100
0000
0010
0000
,  // measure 9
1000
0000
0001
0100
,  // measure 10
0001
0000
1000
0000
,  // measure 11
0100
0000
0010
0001
,  // measure 12
0010
0000
1000
0000
,  // measure 13
0010
0000
1000
0001
,  // measure 14
1000
0000
0100
0000
,  // measure 15
0010
0000
0100
1000
,  // measure 16
0100
0000
0001
0000
,  // measure 17
1000
0000
0010
0000
,  // measure 18
0100
0000
0001
0000
,  // measure 19
0010
0000
0100
0000
,  // measure 20
1000
0000
0010
0000
,  // measure 21
0100
0000
0001
0000
,  // measure 22
1000
0000
0100
0000
,  // measure 23
0010
0000
0001
0000
,  // measure 24
0000
0000
0000
1000
,  // measure 25
0000
0100
0000
1000
,  // measure 26
0000
0000
0000
0001
,  // measure 27
0000
0100
0000
0010
,  // measure 28
0010
0010
0000
1000
,  // measure 29
0000
0100
0000
0010
,  // measure 30
0001
0100
0000
0010
,  // measure 31
0000
1000
0000
0001
,  // measure 32
0010
0100
1000
0000
,  // measure 33
0000
0000
0001
0000
,  // measure 34
0000
0000
1000
0000
,  // measure 35
0000
0000
0010
0000
,  // measure 36
0000
0000
0100
0000
,  // measure 37
0000
0000
1000
0000
,  // measure 38
0000
0000
0001
0000
,  // measure 39
0010
0000
0100
0000
,  // measure 40
1000
0100
0010
0001
,  // measure 41
1000
0000
0001
0010
,  // measure 42
0100
0000
1000
0000
,  // measure 43
0001
0000
1000
0010
,  // measure 44
1000
0000
0100
0010
,  // measure 45
0100
0000
0001
1000
,  // measure 46
0001
0000
1000
0000
,  // measure 47
0010
0000
0100
0000
,  // measure 48
0000
0000
0000
0001
,  // measure 49
0000
0010
0000
0100
,  // measure 50
1000
0100
0000
0010
,  // measure 51
0000
0100
0000
0001
,  // measure 52
0000
1000
0010
1000
,  // measure 53
0000
0001
0000
0100
,  // measure 54
0010
0100
0000
0001
,  // measure 55
0000
1000
0000
0010
;

//---------------dance-single - Jose_Varela----------------
#NOTES:
     dance-single:
     :
     Medium:
     5:
     0.174228,0.196539,0.008774,0.000000,0.000000,138.000000,1.000000,0.000000,0.000000,0.000000,0.000000,0.174228,0.196539,0.008774,0.000000,0.000000,138.000000,1.000000,0.000000,0.000000,0.000000,0.000000:
// measure 0
0000
0000
0000
0000
,  // measure 1
0000
0000
0000
0000
,  // measure 2
0000
0000
0000
0000
,  // measure 3
0000
0000
0000
0000
,  // measure 4
0000
0000
1000
0000
,  // measure 5
0000
0000
1000
0000
,  // measure 6
0000
0000
0001
0000
,  // measure 7
0001
0000
0010
0000
,  // measure 8
0010
0000
1000
0010
,  // measure 9
1000
0000
0010
0100
,  // measure 10
0010
0000
1000
0100
,  // measure 11
0010
0000
0001
0010
,  // measure 12
0100
0000
1000
0010
,  // measure 13
1000
0000
0001
0100
,  // measure 14
0001
0000
0010
0100
,  // measure 15
0010
0000
1000
0000
,  // measure 16
0001
0000
1001
0000
,  // measure 17
0010
0000
0100
0000
,  // measure 18
0010
0010
0010
0000
,  // measure 19
1000
0000
0100
0010
,  // measure 20
0001
0010
0100
0000
,  // measure 21
1000
0000
0001
0000
,  // measure 22
0100
0010
0100
0000
,  // measure 23
0000
0000
0000
0000
,  // measure 24
0000
0000
0000
0001
,  // measure 25
0001
0001
0000
1000
,  // measure 26
1000
1000
0000
0100
,  // measure 27
0100
0100
0010
0001
,  // measure 28
0010
0100
0010
1000
,  // measure 29
0001
1000
0010
0100
,  // measure 30
0001
0010
0100
1000
,  // measure 31
0100
0010
0001
1000
,  // measure 32
0100
0010
0001
0000
,  // measure 33
0001
0000
1000
0000
,  // measure 34
1000
0000
0010
0000
,  // measure 35
0010
0000
0100
0000
,  // measure 36
0100
0010
0010
0000
,  // measure 37
1000
0000
0010
0000
,  // measure 38
0100
0001
0010
0000
,  // measure 39
1000
0000
1000
0000
,  // measure 40
0010
0100
0010
1000
,  // measure 41
0010
0000
0100
0010
,  // measure 42
0100
0000
0001
0100
,  // measure 43
0001
0000
0010
0000
,  // measure 44
0010
0000
1000
0100
,  // measure 45
0010
0000
1000
0001
,  // measure 46
1000
0000
0010
0000
,  // measure 47
0000
0000
0000
0000
,  // measure 48
0000
0000
0000
0010
,  // measure 49
1000
0010
0100
0010
,  // measure 50
1000
0001
0000
0001
,  // measure 51
0010
0100
1000
0100
,  // measure 52
0010
0001
0000
1000
,  // measure 53
0001
1000
0001
1000
,  // measure 54
0001
0000
0000
0100
,  // measure 55
0010
1000
0010
0100
,  // measure 56
0001
0000
0000
0000
;

//---------------dance-single - Jose_Varela----------------
#NOTES:
     dance-single:
     :
     Hard:
     7:
     0.323388,0.344712,0.061419,0.017548,0.043870,249.000000,7.000000,2.000000,0.000000,0.000000,0.000000,0.323388,0.344712,0.061419,0.017548,0.043870,249.000000,7.000000,2.000000,0.000000,0.000000,0.000000:
// measure 0
0000
0000
0000
0000
,  // measure 1
0000
0000
0000
0000
,  // measure 2
0000
0000
0000
0000
,  // measure 3
0000
0000
0000
0000
,  // measure 4
0000
0000
1000
0100
,  // measure 5
1000
0100
0010
0001
,  // measure 6
1000
0001
1000
0100
,  // measure 7
0010
0001
0100
0010
,  // measure 8
1000
0001
1000
0010
,  // measure 9
1000
0100
0010
0001
0100
0000
0010
0000
,  // measure 10
1000
0010
0100
0001
,  // measure 11
0010
0100
1000
0001
0010
0000
0001
0000
,  // measure 12
0100
0010
1000
0100
,  // measure 13
1000
0100
1000
0010
0100
0000
0001
0000
,  // measure 14
0010
0000
0000
0000
0100
0000
0000
0000
1000
0000
0000
0000
0010
0000
0000
0100
,  // measure 15
0000
0000
0000
0000
0001
0000
0000
1000
0000
0000
0000
0000
0010
0000
0000
0000
,  // measure 16
1000
0010
1010
0100
,  // measure 17
0001
0010
0100
1000
0001
0000
1000
0100
,  // measure 18
0010
0001
1000
0100
0010
0000
0100
0000
,  // measure 19
1000
0001
0010
0100
1000
0000
0010
0000
,  // measure 20
0100
0001
0010
0001
,  // measure 21
1000
0100
0010
0001
1000
0000
0010
0000
,  // measure 22
0100
0001
2000
0000
,  // measure 23
0000
0000
0000
0000
,  // measure 24
0000
0000
3000
0000
0000
0000
1000
0001
,  // measure 25
1000
0000
0010
0000
0100
0001
0010
0100
,  // measure 26
1000
0000
0100
0000
0010
0000
0001
1000
,  // measure 27
0001
0000
0010
0000
0001
0010
1000
0100
,  // measure 28
0010
0000
0010
0000
1000
0000
0100
0010
,  // measure 29
0001
0000
1000
0000
0001
0000
1000
0100
,  // measure 30
0010
0000
0001
0000
1000
0000
0001
0010
,  // measure 31
0100
0000
0000
1000
0000
0000
0010
0000
0000
0100
0000
0000
0001
0000
0000
1000
,  // measure 32
0000
0010
0000
0000
0000
0000
0000
0000
,  // measure 33
1000
0100
0010
0001
1000
0000
0010
0000
,  // measure 34
0100
0001
0010
0100
1000
0000
0010
0000
,  // measure 35
0100
0001
0010
0001
0100
0000
0100
0000
,  // measure 36
0001
1000
0001
0100
0010
0000
1000
0000
,  // measure 37
0100
0010
0001
0010
0100
0000
1000
0000
,  // measure 38
0001
0100
0001
0010
0100
0000
0010
0000
,  // measure 39
1000
0010
0001
0110
,  // measure 40
1001
0110
1001
0010
,  // measure 41
0100
0010
0110
0000
0010
0000
0001
1000
,  // measure 42
0010
0100
0000
0000
0001
0000
0000
0000
0010
0000
0000
0000
0100
0000
0000
0000
,  // measure 43
0010
0000
0001
0000
0100
0000
0010
0000
1000
0000
0100
0000
0010
0100
0010
0000
,  // measure 44
0100
0010
0110
0000
1000
0000
0010
0000
,  // measure 45
0100
0001
0010
0100
1000
0000
0001
0000
,  // measure 46
0100
0010
1000
0000
0002
0000
0000
0000
,  // measure 47
0000
0000
0000
0000
,  // measure 48
0000
0000
0000
0000
0003
0000
1000
0001
,  // measure 49
1000
0000
0010
0000
0100
0001
0010
0100
,  // measure 50
1000
0000
0100
0000
0010
0000
0001
1000
,  // measure 51
0001
0000
0010
0000
0001
0010
1000
0100
,  // measure 52
0010
0000
0010
0000
1000
0000
0100
0010
,  // measure 53
0001
0000
1000
0000
0001
0000
1000
0100
,  // measure 54
0010
0000
1000
0000
0010
0000
1000
0100
,  // measure 55
0010
0000
0000
0001
0000
0000
1000
0000
0000
0100
0000
0000
1000
0000
0000
0010
,  // measure 56
0000
0100
0000
0000
0000
0000
0000
0000
;

//---------------dance-single - Jose_Varela----------------
#NOTES:
     dance-single:
     :
     Challenge:
     9:
     0.416142,0.393956,0.114063,0.070193,0.684379,311.000000,13.000000,8.000000,1.000000,0.000000,0.000000,0.416142,0.393956,0.114063,0.070193,0.684379,311.000000,13.000000,8.000000,1.000000,0.000000,0.000000:
// measure 0
0000
0000
0000
0000
,  // measure 1
0000
0000
0000
0000
,  // measure 2
0000
0000
0000
0000
,  // measure 3
0000
0000
0000
0000
,  // measure 4
0000
0000
2001
0001
,  // measure 5
0001
3001
1002
1000
,  // measure 6
1000
1003
2010
0010
,  // measure 7
0010
3010
1020
1000
,  // measure 8
1000
0000
0000
0000
1030
0000
0000
0000
0100
0000
0000
0000
1000
0000
0000
0001
,  // measure 9
1000
0100
0000
0010
0000
0001
0000
0100
0000
0000
0000
0000
1000
0000
0010
1000
,  // measure 10
0000
0010
0000
0000
0100
0000
0000
0000
0110
0000
0000
0000
0100
0000
0000
0010
,  // measure 11
1000
0100
0000
0010
0000
0001
0000
0020
0000
0000
0000
0030
0001
0100
0000
0010
,  // measure 12
0000
1000
0000
0000
0100
0000
0000
0000
0010
0000
0000
0000
0001
0000
0000
1000
,  // measure 13
0100
0010
0000
0001
0000
0010
0000
0001
0000
0000
0000
0000
1000
0000
0001
0100
,  // measure 14
0000
0010
0000
0000
1000
0000
0000
0000
0010
0000
0000
0010
0100
0000
0100
0010
,  // measure 15
0000
0000
0000
0000
0001
0000
1000
0001
0000
0000
0000
0000
0001
0000
0000
0000
,  // measure 16
1000
0000
0100
0000
0010
0000
0001
0000
0100
0000
0000
0000
0001
0000
0000
1000
,  // measure 17
0100
0010
0000
0001
0000
0100
0000
0010
0000
0000
0000
0001
1000
0001
0000
0100
,  // measure 18
0000
0010
0000
0000
1000
0000
0000
0000
0001
0000
0000
0000
1001
0000
0000
0100
,  // measure 19
1000
0100
0000
0010
0000
0001
0000
1000
0000
0000
0000
1000
0010
0100
0000
0010
,  // measure 20
0000
1000
0000
0000
0001
0000
0000
0000
0010
0000
0000
0000
0011
0000
0000
0001
,  // measure 21
0010
0100
0000
1000
0000
0010
0000
1000
0000
0000
0000
0010
1000
0010
0000
1000
,  // measure 22
0000
0100
0000
0000
1000
0000
0000
0000
0200
0000
0000
0000
0000
0000
0000
0000
,  // measure 23
0000
0000
0000
0000
,  // measure 24
0000
0000
0000
0000
0300
0000
0110
0010
,  // measure 25
0100
0000
0000
0010
0000
0000
0100
0000
0000
0010
0000
0000
0100
0000
0000
0010
,  // measure 26
0100
0010
0000
1000
0000
0001
0000
1000
0000
0000
0000
0000
0010
0000
0100
0000
,  // measure 27
1000
0000
0000
0010
0000
0000
0100
0000
0000
0001
0000
0000
0010
0000
0000
0100
,  // measure 28
0010
0001
0000
1000
0000
0010
0000
1000
0000
0000
0000
0000
0001
0000
1000
0010
,  // measure 29
0100
0010
0000
1000
0000
0001
0000
1000
0000
0000
0000
0000
0001
0000
0010
0100
,  // measure 30
0010
0100
0000
1000
0000
0010
0000
0100
0000
0000
0000
0000
0001
0000
1000
0000
,  // measure 31
0001
0000
0000
1000
0000
0000
0010
0000
0000
0100
0000
0000
0001
0000
0000
0010
,  // measure 32
0000
0000
0100
0000
0000
0000
0000
0000
0000
0000
0000
0000
0000
0000
0000
1000
,  // measure 33
0001
0010
0000
0100
0000
1000
0000
0010
0000
0000
0000
0000
0001
0000
0100
0001
,  // measure 34
0000
0100
0000
0000
0010
0000
0000
0000
0110
0000
0000
0000
0010
0000
0000
0100
,  // measure 35
0001
0010
0000
0100
0000
1000
0000
0200
0000
0000
0000
0300
1000
0010
0000
0100
,  // measure 36
0000
0001
0000
0000
0010
0000
0000
0000
0100
0000
0000
0000
0001
0000
0000
0001
,  // measure 37
0010
0100
0000
1000
0000
0100
0000
1000
0000
0000
0000
0000
0001
0000
1000
0010
,  // measure 38
0000
0100
0000
0000
0001
0000
0000
0000
0100
0000
0000
0100
0010
0000
0010
0100
,  // measure 39
0000
0000
0000
0000
1000
0000
0001
1000
0000
0000
0000
0000
1000
0000
0000
0000
,  // measure 40
0001
0000
0010
0000
1000
0000
0100
0000
0010
0000
0000
0000
1001
0000
0000
0001
,  // measure 41
1000
0100
0000
0010
0000
0001
0000
0100
0000
0000
0000
0000
0000
0001
0000
0100
,  // measure 42
0000
0010
0000
0000
0100
0000
0000
0000
0110
0000
0000
0000
0100
0000
0000
0010
,  // measure 43
1000
0100
0000
0010
0000
0001
0000
0020
0000
0000
0000
0030
0001
0010
0100
1000
,  // measure 44
0100
0000
0010
0000
0100
0000
0000
0000
0110
0000
0000
0000
1000
0000
0000
1000
,  // measure 45
0100
0010
0000
0001
0000
0010
0000
0001
0000
0000
0000
0000
1000
0000
0001
0100
,  // measure 46
0000
0010
0000
0000
1000
0000
0000
0000
0010
0000
0000
0010
0100
0000
0100
0010
,  // measure 47
0000
0000
0000
0000
0001
0000
1000
0001
0000
0000
0000
0000
0000
0000
0000
0000
,  // measure 48
0000
0000
0000
0000
0000
0000
0110
0100
,  // measure 49
0010
0000
0000
0100
0000
0000
0001
0000
0000
0100
0000
0000
0010
0000
0000
0100
,  // measure 50
0010
0100
0000
0001
0000
1000
0000
0001
0000
0000
0000
0000
0100
0000
0010
0000
,  // measure 51
0001
0000
0000
0100
0000
0000
0010
0000
0000
1000
0000
0000
0100
0000
0000
0010
,  // measure 52
0100
1000
0000
0001
0000
0100
0000
0001
0000
0000
0000
0000
1000
0000
0001
0100
,  // measure 53
0010
0100
0000
0001
0000
1000
0000
0001
0000
0000
0000
0000
1000
0000
0100
0010
,  // measure 54
0100
0010
0000
0001
0000
0100
0000
0010
0000
0000
0000
0000
1000
0000
0010
0000
,  // measure 55
1000
0000
0000
0001
0000
0000
0100
0000
0000
0010
0000
0000
1000
0000
0000
0010
,  // measure 56
0000
001M
0000
0000
0000
0000
0000
0000
;
