#VERSION:0.83;
#TITLE:Perfect Strangers;
#SUBTITLE:;
#ARTIST:Jonas Blue ft. JP Cooper;
#TITLETRANSLIT:;
#SUBTITLETRANSLIT:;
#ARTISTTRANSLIT:;
#GENRE:;
#ORIGIN:;
#CREDIT:DiscoStu;
#BANNER:banner.png;
#BACKGROUND:bg.jpg;
#PREVIEWVID:;
#JACKET:jacket.jpg;
#CDIMAGE:;
#DISCIMAGE:;
#LYRICSPATH:;
#CDTITLE:;
#MUSIC:Perfect Strangers.mp3;
#OFFSET:-1.500000;
#SAMPLESTART:74.719994;
#SAMPLELENGTH:11.980000;
#SELECTABLE:YES;
#BPMS:0.000=118.000;
#STOPS:;
#DELAYS:;
#WARPS:;
#TIMESIGNATURES:0.000=4=4;
#TICKCOUNTS:0.000=4;
#COMBOS:0.000=1;
#SPEEDS:0.000=1.000=0.000=0;
#SCROLLS:0.000=1.000;
#FAKES:;
#LABELS:0.000=Song Start;
#BGCHANGES:;
#KEYSOUNDS:;
#ATTACKS:
;

//---------------dance-single - ----------------
#NOTEDATA:;
#CHARTNAME:;
#STEPSTYPE:dance-single;
#DESCRIPTION:;
#CHARTSTYLE:Pad;
#DIFFICULTY:Hard;
#METER:7;
#RADARVALUES:0.354430,0.406434,0.063153,0.090219,0.054131,275.000000,268.000000,7.000000,10.000000,0.000000,0.000000,0.000000,0.000000,0.000000,0.354430,0.406434,0.063153,0.090219,0.054131,275.000000,268.000000,7.000000,10.000000,0.000000,0.000000,0.000000,0.000000,0.000000;
#CREDIT:DiscoStu;
#NOTES:
0000
0000
0000
0000
,
0000
0000
0000
0000
,
0000
0000
0000
0000
,
0000
0000
0000
0000
,
1000
0100
0100
0000
0001
0100
0100
0000
,
1000
0010
0010
0000
0001
0010
0010
0000
,
1000
0010
0100
0100
0001
0010
0100
1000
,
0000
0000
0000
0000
,
0010
0001
0001
0000
1000
0100
0100
0000
,
0001
0100
0100
0000
0010
1000
1000
0000
,
0001
1000
0010
0100
0100
0001
0010
0100
,
0000
0000
0000
0000
,
1000
0100
0001
0000
1000
0010
0001
0000
,
0010
0001
0010
0000
0100
1000
0100
0000
,
0100
0010
1000
0001
0001
0010
0100
1000
,
0000
0000
0000
0000
,
0010
0001
0100
0000
0100
0001
0010
0000
,
0010
1000
0100
0000
0100
1000
0010
0000
,
0001
0010
0100
1000
1000
0001
0100
0010
,
0000
0000
0000
0000
,
0110
0000
1000
0001
0001
1000
0001
0001
,
0000
0100
0100
1000
0001
0100
1000
0000
,
0001
1000
1000
0001
1000
1000
0100
0010
,
0000
0000
0100
0001
1000
0100
0010
0000
,
0100
0001
0010
0100
1000
0001
0001
0000
,
1000
0001
0010
0100
0001
0001
0001
0000
,
0000
0000
0001
0001
1000
1000
0100
0010
,
0001
1000
0010
0100
,
0110
0000
0001
1000
1000
0001
1000
1000
,
0000
0010
0010
0001
1000
0010
0001
0000
,
1000
0001
0001
1000
0001
0001
0010
0100
,
0000
0000
0010
1000
0001
0010
0100
0000
,
0010
1000
0100
0010
0001
1000
1000
0000
,
0001
1000
0100
0010
1000
1000
1000
0000
,
0000
0000
1000
1000
0001
0001
0010
0100
,
1000
0001
0100
0010
,
2002
0000
0000
0000
0000
0000
0000
0000
3003
0000
0000
0000
0000
0000
0000
1000
,
0001
0000
0000
0001
1000
0000
0000
1000
0001
0000
0000
0000
0000
0000
0001
0000
,
0100
0000
0000
0001
0100
0000
1000
0100
,
0001
0100
1000
0010
0010
0100
0001
0001
,
2002
0000
0000
0000
0000
0000
0000
0000
3003
0000
0000
0000
0000
0000
0000
0001
,
1000
0000
0000
1000
0001
0000
0000
0001
1000
0000
0000
0000
0000
0000
1000
0000
,
0010
0000
0000
1000
0010
0000
0001
0010
,
1000
0010
0001
0100
0100
0010
1000
1000
,
2002
0000
0000
0000
0000
0000
0000
0000
3003
0000
0000
0000
0000
0000
0000
0010
,
0100
0000
0000
0010
0100
0000
0000
0010
0100
0000
0000
0000
0001
0000
0001
0000
,
1000
0000
0001
1000
0001
0010
0100
1000
,
0100
0001
1000
0010
0001
1000
0100
0100
,
2002
0000
0000
0000
0000
0000
0000
0000
3003
0000
0000
0000
0000
0000
0000
1000
,
0001
0000
0000
0001
1000
0000
0000
1000
0001
0000
0000
0000
0000
0000
0001
0000
,
0100
0000
0000
0001
0100
0000
1000
0100
,
0001
0100
1000
0010
0010
0100
0001
0001
,
2002
0000
0000
0000
,
3003
0000
0000
0000
;

//---------------dance-single - ----------------
#NOTEDATA:;
#CHARTNAME:;
#STEPSTYPE:dance-single;
#DESCRIPTION:;
#CHARTSTYLE:;
#DIFFICULTY:Beginner;
#METER:1;
#RADARVALUES:0.072175,0.140741,0.027066,0.000000,0.000000,56.000000,53.000000,3.000000,0.000000,0.000000,0.000000,0.000000,0.000000,0.000000,0.072175,0.140741,0.027066,0.000000,0.000000,56.000000,53.000000,3.000000,0.000000,0.000000,0.000000,0.000000,0.000000,0.000000;
#CREDIT:;
#NOTES:
// measure 0
0000
0000
0000
0000
,  // measure 1
0000
0000
0000
0000
,  // measure 2
0000
0000
0000
0000
,  // measure 3
0000
0000
0000
0000
,  // measure 4
0001
0000
0000
0000
,  // measure 5
1000
0000
0000
0000
,  // measure 6
1000
0000
0000
0000
,  // measure 7
0001
0000
0000
0000
,  // measure 8
0010
0000
0000
0000
,  // measure 9
0100
0000
0000
0000
,  // measure 10
0010
0000
0000
0000
,  // measure 11
0010
0000
0000
0000
,  // measure 12
0100
0000
0000
0000
,  // measure 13
0001
0000
0000
0000
,  // measure 14
0100
0000
0000
0000
,  // measure 15
1000
0000
0000
0000
,  // measure 16
0100
0000
0000
0000
,  // measure 17
0010
0000
0000
0000
,  // measure 18
0010
0000
0000
0000
,  // measure 19
1000
0000
0000
0000
,  // measure 20
1001
0000
0000
0000
,  // measure 21
0100
0000
0000
0000
,  // measure 22
0001
0000
0000
0000
,  // measure 23
0100
0000
0000
0000
,  // measure 24
1000
0000
0000
0000
,  // measure 25
0010
0000
0000
0000
,  // measure 26
1000
0000
0000
0000
,  // measure 27
0001
0000
0000
0000
,  // measure 28
1000
0000
0000
0000
,  // measure 29
0001
0000
0000
0000
,  // measure 30
0100
0000
0000
0000
,  // measure 31
0100
0000
0000
0000
,  // measure 32
0010
0000
0000
0000
,  // measure 33
1000
0000
0000
0000
,  // measure 34
0001
0000
0000
0000
,  // measure 35
0100
0000
0000
0000
,  // measure 36
1001
0000
0000
0000
,  // measure 37
0100
0100
0100
0000
,  // measure 38
1000
0000
0000
0000
,  // measure 39
0001
0000
0000
0000
,  // measure 40
0100
0000
0000
0000
,  // measure 41
0010
0010
0010
0000
,  // measure 42
0100
0000
0000
0000
,  // measure 43
0100
0000
0000
0000
,  // measure 44
0001
0000
0000
0000
,  // measure 45
0010
0000
0000
0000
,  // measure 46
0100
0000
0000
0000
,  // measure 47
0010
0000
0000
0000
,  // measure 48
0001
0000
0000
0000
,  // measure 49
1000
0000
0000
0000
,  // measure 50
0010
0000
0000
0000
,  // measure 51
0010
0000
0000
0000
,  // measure 52
1001
0000
0000
0000
;

//---------------dance-single - ----------------
#NOTEDATA:;
#CHARTNAME:;
#STEPSTYPE:dance-single;
#DESCRIPTION:;
#CHARTSTYLE:;
#DIFFICULTY:Medium;
#METER:5;
#RADARVALUES:0.231990,0.262987,0.054131,0.090219,0.000000,180.000000,174.000000,6.000000,10.000000,0.000000,0.000000,0.000000,0.000000,0.000000,0.231990,0.262987,0.054131,0.090219,0.000000,180.000000,174.000000,6.000000,10.000000,0.000000,0.000000,0.000000,0.000000,0.000000;
#CREDIT:;
#NOTES:
0000
0000
0000
0000
,
0000
0000
0000
0000
,
0000
0000
0000
0000
,
0000
0000
0000
0000
,
0100
0010
1000
0001
,
0001
0100
0001
0010
,
1000
0000
0100
0000
0001
0010
0010
0001
,
0000
0000
0000
0000
,
0100
0010
0001
1000
,
1000
0010
1000
0100
,
0001
0000
0010
0000
1000
0100
0100
1000
,
0000
0000
0000
0000
,
0001
1000
0100
0100
,
0100
0001
1000
0010
,
1000
0000
0100
0000
0100
0001
0001
1000
,
0000
0000
0000
0000
,
1000
0001
0010
0010
,
0010
1000
0001
0100
,
0001
0000
0010
0000
0010
1000
1000
0001
,
0000
0000
0000
0000
,
0001
0000
1000
0000
0001
0000
0001
0001
,
0000
0000
0000
0000
0001
0100
1000
0000
,
0001
0000
1000
0000
1000
0000
0100
0010
,
0000
0000
0100
0000
1000
0000
0010
0010
,
0000
0010
1000
0001
,
1000
0000
0010
0000
0001
0001
0001
0000
,
0000
0001
1000
0100
,
0001
1000
0010
0100
,
0011
0000
0001
0000
1000
0000
1000
1000
,
0000
0000
0010
0000
1000
0000
0001
0001
,
1000
0000
0001
0000
0001
0000
0010
0100
,
0000
0000
0010
0000
0001
0000
0100
0100
,
0000
0100
0001
1000
,
0001
0000
0100
0000
0000
1000
1000
0000
,
0000
1000
0001
0010
,
1000
0010
1000
0100
,
2020
0000
3030
0000
,
0001
0000
1000
0000
0001
0000
0000
0001
,
0100
0000
0000
0001
0100
0000
1000
0000
,
1000
0001
0100
1000
,
0022
0000
0033
0000
,
1000
0000
0001
0000
1000
0000
0000
1000
,
0010
0000
0000
1000
0010
0000
0001
0000
,
0001
1000
0100
0010
,
2200
0000
3300
0000
,
0100
0000
0100
0000
0100
0000
0001
1000
,
1000
0000
0000
0001
0001
0000
0100
0000
,
0100
0010
0100
0001
,
0202
0000
0303
0000
,
0001
0000
1000
0000
0001
0000
0000
0001
,
0100
0000
0000
0100
0100
0000
1000
0000
,
0001
1000
0010
0001
,
0220
0000
0000
0000
,
0330
0000
0000
0000
;

//---------------dance-single - ----------------
#NOTEDATA:;
#CHARTNAME:;
#STEPSTYPE:dance-single;
#DESCRIPTION:;
#CHARTSTYLE:;
#DIFFICULTY:Easy;
#METER:3;
#RADARVALUES:0.153371,0.191263,0.045109,0.054131,0.000000,119.000000,114.000000,5.000000,6.000000,0.000000,0.000000,0.000000,0.000000,0.000000,0.153371,0.191263,0.045109,0.054131,0.000000,119.000000,114.000000,5.000000,6.000000,0.000000,0.000000,0.000000,0.000000,0.000000;
#CREDIT:;
#NOTES:
0000
0000
0000
0000
,
0000
0000
0000
0000
,
0000
0000
0000
0000
,
0000
0000
0000
0000
,
0100
0001
0100
0001
,
0100
0000
0000
0000
,
0010
1000
0010
1000
,
0010
0000
0000
0000
,
0100
1000
0100
1000
,
0100
0000
0000
0000
,
0010
0001
0010
0001
,
0010
0000
0000
0000
,
1000
1000
0001
0001
,
0010
0000
0000
0000
,
0010
0010
0100
0100
,
0100
0000
0000
0000
,
0001
0001
1000
1000
,
0100
0000
0000
0000
,
0100
0100
0010
0010
,
0010
0000
0000
0000
,
1100
0000
0100
0100
,
0000
0000
0100
0100
,
0000
0000
0010
0010
,
0000
0000
0010
0010
,
0000
0000
1000
1000
,
0000
0000
1000
1000
,
0000
0000
0001
0001
,
1000
0000
0001
0000
,
0101
0000
0100
0100
,
0000
0000
0100
0100
,
0000
0000
0010
0010
,
0000
0000
0010
0010
,
0000
0000
0001
0001
,
0000
0000
0001
0001
,
0000
0000
1000
1000
,
0001
0000
1000
0000
,
2002
0000
3003
0000
,
0100
0010
0100
0000
,
0001
0000
0010
1000
,
1000
0000
0000
0000
,
0220
0000
0330
0000
,
0010
0010
0010
0000
,
0100
0100
0001
0001
,
0100
0000
1000
0000
,
0100
0000
0010
0000
,
1000
1000
0001
0000
,
0100
0100
0010
0010
,
0100
0000
0100
0000
,
0001
0000
0010
0000
,
1000
1000
1000
0000
,
0010
0000
0001
0000
,
0010
0000
1000
0001
,
2200
0000
0000
0000
,
3300
0000
0000
0000
;
