#VERSION:0.83;
#TITLE:Kiss Kiss Kiss;
#SUBTITLE:;
#ARTIST:Vengaboys;
#TITLETRANSLIT:;
#SUBTITLETRANSLIT:;
#ARTISTTRANSLIT:;
#GENRE:;
#ORIGIN:;
#CREDIT:Remixed by DiscoStu;
#BANNER:;
#BACKGROUND:bg.jpg;
#PREVIEWVID:;
#JACKET:cover.jpg;
#CDIMAGE:;
#DISCIMAGE:;
#LYRICSPATH:;
#CDTITLE:;
#MUSIC:Kiss Kiss Kiss.mp3;
#OFFSET:-0.114921;
#SAMPLESTART:48.150002;
#SAMPLELENGTH:12.000000;
#SELECTABLE:YES;
#BPMS:0.000=137.978;
#STOPS:12.000=1.304,
105.000=1.304,
134.000=1.304;
#DELAYS:;
#WARPS:;
#TIMESIGNATURES:0.000=4=4;
#TICKCOUNTS:0.000=4;
#COMBOS:0.000=1;
#SPEEDS:0.000=1.000=0.000=0;
#SCROLLS:0.000=1.000;
#FAKES:;
#LABELS:0.000=Song Start;
#BGCHANGES:;
#KEYSOUNDS:;
#ATTACKS:
;

//---------------dance-single - ----------------
#NOTEDATA:;
#CHARTNAME:;
#STEPSTYPE:dance-single;
#DESCRIPTION:;
#CHARTSTYLE:;
#DIFFICULTY:Beginner;
#METER:1;
#RADARVALUES:0.075824,0.080681,0.000000,0.000000,0.000000,56.000000,56.000000,0.000000,0.000000,0.000000,0.000000,0.000000,0.000000,0.000000,0.075824,0.080681,0.000000,0.000000,0.000000,56.000000,56.000000,0.000000,0.000000,0.000000,0.000000,0.000000,0.000000,0.000000;
#CREDIT:;
#NOTES:
// measure 0
0000
0000
0000
0000
,  // measure 1
0000
0000
0000
0000
,  // measure 2
0000
0000
0000
0000
,  // measure 3
0000
1000
0000
0000
,  // measure 4
0000
1000
0000
0000
,  // measure 5
0000
0100
0000
0000
,  // measure 6
0000
0100
0000
0000
,  // measure 7
0000
0010
0000
0000
,  // measure 8
0000
0010
0000
0000
,  // measure 9
0000
0001
0000
0000
,  // measure 10
0000
0001
0000
0000
,  // measure 11
0000
0010
0000
0000
,  // measure 12
0000
1000
0000
0000
,  // measure 13
0000
0001
0000
0000
,  // measure 14
0000
0100
0000
0000
,  // measure 15
0000
0010
0000
0000
,  // measure 16
0000
0100
0000
0000
,  // measure 17
0000
1000
0000
0000
,  // measure 18
0000
0010
0000
0000
,  // measure 19
0000
0001
0000
0000
,  // measure 20
0000
0100
0000
0000
,  // measure 21
0000
0010
0000
0000
,  // measure 22
0000
1000
0000
0000
,  // measure 23
0000
0001
0000
0000
,  // measure 24
0000
1000
0000
0000
,  // measure 25
0000
0001
0000
0000
,  // measure 26
0000
1000
0100
0000
,  // measure 27
0000
0000
0001
0000
,  // measure 28
0000
0000
0001
0000
,  // measure 29
0000
0000
1000
0000
,  // measure 30
0000
0000
0100
0000
,  // measure 31
0000
0000
0100
0000
,  // measure 32
0000
0000
0010
0000
,  // measure 33
0000
0000
0010
1000
,  // measure 34
0000
0000
0000
0001
,  // measure 35
0000
0000
0000
1000
,  // measure 36
0000
0000
0000
0001
,  // measure 37
0000
0000
0000
0010
,  // measure 38
0000
0000
0000
0100
,  // measure 39
0000
0000
0000
1000
,  // measure 40
0000
0000
0000
0010
,  // measure 41
0000
0000
0000
0001
,  // measure 42
0000
0000
0000
1000
,  // measure 43
0000
0000
0000
0001
,  // measure 44
0000
0000
0000
0100
,  // measure 45
0000
0000
0000
0010
,  // measure 46
0000
0000
0000
0100
,  // measure 47
0000
0000
0000
0010
,  // measure 48
0000
0000
0000
0001
,  // measure 49
0000
0000
0000
1000
,  // measure 50
0000
0000
0000
0100
,  // measure 51
0000
0000
0000
0010
,  // measure 52
0000
0000
0000
1000
,  // measure 53
0000
0000
0000
0001
,  // measure 54
0000
0000
0000
1000
,  // measure 55
0000
0000
0000
0001
,  // measure 56
0000
0000
0000
0100
;

//---------------dance-single - ----------------
#NOTEDATA:;
#CHARTNAME:;
#STEPSTYPE:dance-single;
#DESCRIPTION:;
#CHARTSTYLE:;
#DIFFICULTY:Hard;
#METER:7;
#RADARVALUES:0.430570,0.467263,0.236949,0.104257,0.000000,318.000000,293.000000,25.000000,11.000000,0.000000,0.000000,0.000000,0.000000,0.000000,0.430570,0.467263,0.236949,0.104257,0.000000,318.000000,293.000000,25.000000,11.000000,0.000000,0.000000,0.000000,0.000000,0.000000;
#CREDIT:DiscoStu;
#NOTES:
0000
0000
0000
0000
,
0000
0000
0000
0000
,
0000
0000
0000
0000
,
0000
0000
1000
0000
1000
0100
1000
0100
,
1000
0100
1000
0001
1000
0100
1000
0100
,
1000
0010
1000
0100
1000
0100
1000
0100
,
1000
0001
1000
0100
1000
0100
1000
0010
,
1000
0000
0010
0000
0001
0100
0001
0100
,
0001
0100
0001
0100
0001
1000
0001
0100
,
0001
0100
0001
0010
0001
0100
0001
0100
,
0001
0100
0001
0000
0100
0000
1000
0000
,
0010
0000
1100
0000
0001
0000
0010
0001
,
0100
0000
0010
0000
0001
0000
0010
1000
,
0100
0000
0010
0000
0001
0000
1000
0100
,
0001
0000
0100
0000
0001
0000
1000
0100
,
0010
0000
0010
0000
0001
0000
1000
0010
,
0001
0000
0100
0000
0001
0000
1000
0001
,
0100
0000
1000
0000
1000
0000
0010
1000
,
0100
0000
0010
0000
0100
0000
0001
1000
,
2000
3000
0001
0010
0001
0000
1000
0000
,
1000
0000
0001
1000
0001
0000
0100
0000
,
0001
0000
0010
1000
0010
0000
0100
0000
,
1000
0000
1000
0010
1000
0000
1000
0000
,
0010
0000
0001
1000
0100
0000
1000
0010
,
0100
0000
0100
0001
1000
0000
1000
0010
,
0001
0000
0001
1000
1000
0000
1000
0001
,
0001
1000
1100
0101
,
1100
0000
0001
0001
0001
0000
0010
0000
,
0010
0100
0100
0001
,
1000
1000
1000
0000
0001
0000
0001
0000
,
0220
0330
1010
0011
,
1010
0000
1000
1000
1000
0000
0010
0000
,
0010
0100
0100
1000
,
0001
0001
0001
0000
0110
0000
1000
0100
,
1000
0100
1000
0100
1000
0001
1000
0100
,
1000
0100
1000
0010
1000
0100
1000
0100
,
1000
0100
1000
0001
1000
0100
1000
0100
,
1000
0010
1000
0000
0010
0000
0001
0100
,
0001
0100
0001
0100
0001
0100
0001
1000
,
0001
0100
0001
0100
0001
0010
0001
0100
,
0001
0100
0001
0100
0001
0000
0100
0000
,
1000
0010
0100
1100
,
0101
0000
1100
0000
0001
0001
0001
0000
,
0010
0010
0100
0100
,
0001
0000
1000
1000
1000
0000
0001
0000
,
0001
0220
0330
1010
,
0011
0000
1010
0000
1000
1000
1000
0000
,
0010
0010
0100
0100
,
1000
0000
0001
0001
0001
0000
0001
0000
,
0001
0220
0330
1100
,
0101
0000
1100
0000
0001
0001
0001
0000
,
0010
0010
0100
0100
,
0001
0000
1000
1000
1000
0000
0001
0000
,
0001
0220
0330
1010
,
0011
0000
1010
0000
1000
1000
1000
0000
,
0010
0010
0100
0100
,
1000
0000
0001
0001
0001
0000
0001
0000
,
0001
0220
0000
0000
,
0330
0000
0000
0000
;

//---------------dance-single - ----------------
#NOTEDATA:;
#CHARTNAME:;
#STEPSTYPE:dance-single;
#DESCRIPTION:;
#CHARTSTYLE:;
#DIFFICULTY:Medium;
#METER:6;
#RADARVALUES:0.370994,0.384805,0.208515,0.170603,0.000000,274.000000,252.000000,22.000000,18.000000,0.000000,0.000000,0.000000,0.000000,0.000000,0.370994,0.384805,0.208515,0.170603,0.000000,274.000000,252.000000,22.000000,18.000000,0.000000,0.000000,0.000000,0.000000,0.000000;
#CREDIT:;
#NOTES:
0000
0000
0000
0000
,
0000
0000
0000
0000
,
0000
0000
0000
0000
,
0000
0200
0010
0010
,
0310
0000
0010
1000
0020
0000
1000
0000
,
1030
0000
1000
0001
2000
0000
0001
0000
,
3001
0000
0100
0001
0200
0000
0001
0000
,
0301
2000
0001
0001
,
0001
0000
3010
0100
0020
0000
0100
0000
,
0130
0000
0100
0010
0200
0000
0010
0000
,
0310
0002
1003
1000
,
0100
0000
0011
0000
0011
0000
0100
1000
,
0100
0000
1000
0000
1000
0000
1000
0010
,
0001
0000
0001
0000
0001
0000
0010
0100
,
0010
0000
0100
0000
0100
0000
0100
0001
,
0100
0000
1000
0000
0001
0000
0001
0010
,
0100
0000
0100
0000
1000
0000
1000
0010
,
0001
0000
0001
0000
0100
0000
0100
1000
,
0010
0000
0010
0000
1000
0000
0001
0100
,
0010
0000
1010
0000
0001
0000
0001
0100
,
1000
0000
0100
0000
1000
0000
0100
0010
,
0001
0000
0001
0000
1000
0000
0100
1000
,
0010
0000
1000
0000
0001
0000
0100
1000
,
0010
0001
0001
1000
,
1000
0010
0001
1000
,
1000
0000
0001
0000
0010
0000
0100
0100
,
0100
1000
1001
0110
,
1001
0000
1000
0001
0001
0000
0010
0000
,
0100
0100
1000
0000
0001
0000
1000
0000
,
0010
1000
1000
0000
0001
0000
0100
0000
,
0100
0000
0110
1001
,
0110
0000
0001
1000
1000
0000
0010
0000
,
0100
0100
0001
0000
1000
0000
0001
0000
,
0010
0001
0001
0000
1000
0000
0200
0000
,
0010
0000
0010
0000
0310
0000
0010
1000
,
0020
0000
1000
0000
1030
0000
1000
0001
,
2000
0000
0001
0000
3001
0000
0100
0001
,
0200
0001
0300
2000
,
0001
0000
0001
0000
0001
0000
3010
0100
,
0020
0000
0100
0000
0130
0000
0100
0010
,
0200
0010
0310
0002
,
1003
1000
0000
1001
,
0110
0000
1001
0000
1000
0001
0001
0000
,
0010
0000
0100
0100
1000
0000
0001
0000
,
1000
0000
0010
1000
1000
0000
0001
0000
,
0100
0100
0000
0110
,
1001
0000
0110
0000
0001
1000
1000
0000
,
0010
0000
0100
0100
0001
0000
1000
0000
,
0001
0000
0010
0001
0001
0000
0001
0000
,
1000
0100
0000
1001
,
0110
0000
1001
0000
1000
0001
0001
0000
,
0010
0000
0100
0100
1000
0000
0001
0000
,
1000
0000
0010
1000
1000
0000
0001
0000
,
0100
0100
0000
0110
,
1001
0000
0110
0000
0001
1000
1000
0000
,
0010
0000
0100
0100
0001
0000
1000
0000
,
0001
0000
0010
0001
0001
0000
0100
0000
,
1000
0220
0000
0000
,
0330
0000
0000
0000
;

//---------------dance-single - ----------------
#NOTEDATA:;
#CHARTNAME:;
#STEPSTYPE:dance-single;
#DESCRIPTION:;
#CHARTSTYLE:;
#DIFFICULTY:Easy;
#METER:4;
#RADARVALUES:0.289755,0.325568,0.180081,0.056868,0.000000,214.000000,195.000000,19.000000,6.000000,0.000000,0.000000,0.000000,0.000000,0.000000,0.289755,0.325568,0.180081,0.056868,0.000000,214.000000,195.000000,19.000000,6.000000,0.000000,0.000000,0.000000,0.000000,0.000000;
#CREDIT:;
#NOTES:
0000
0000
0000
0000
,
0000
0000
0000
0000
,
0000
0000
0000
0000
,
0000
0100
0100
0010
,
0010
0100
0100
0010
,
0010
0100
0100
0010
,
0010
0100
0100
0200
,
0300
0001
0001
1000
,
1000
0001
0001
1000
,
1000
0001
0001
1000
,
1000
0001
0001
0002
,
0003
0010
1000
0010
,
1000
0001
0100
0001
,
0100
0001
1000
0100
,
1000
0100
1000
0002
,
0003
0010
0001
0010
,
0001
1000
0100
1000
,
0100
1000
0001
0100
,
0001
0100
0001
2000
,
3001
0100
1000
0010
,
0001
0100
0000
1000
,
0000
0001
0010
1000
,
0100
0001
0000
1000
,
0000
0001
0010
0001
,
0010
0001
1000
0100
,
1000
0100
1000
0100
,
0001
0010
1001
1001
,
1001
0000
0001
0001
,
1000
1000
0010
0010
,
0001
0001
0100
0100
,
1000
0000
1001
1001
,
1001
0000
1000
1000
,
0001
0001
0100
0100
,
1000
1000
0010
0100
,
0100
0010
0010
0100
,
0100
0010
0010
0100
,
0100
0010
0010
0100
,
0100
0200
0300
0001
,
0001
1000
1000
0001
,
0001
1000
1000
0001
,
0001
1000
1000
0001
,
0001
0002
0003
1001
,
1001
1001
0000
0001
,
0001
1000
1000
0010
,
0010
0001
0001
0100
,
0100
1000
0000
1001
,
1001
1001
0000
1000
,
1000
0001
0001
0100
,
0100
1000
0000
0001
,
1000
0001
0000
1001
,
1001
1001
0000
0001
,
0001
1000
1000
0010
,
0010
0001
0001
0100
,
0100
1000
0000
1001
,
1001
1001
0000
1000
,
1000
0001
0001
0100
,
0100
1000
0000
0100
,
0000
1001
0000
0000
;
