#VERSION:0.83;
#TITLE:Is This Love;
#SUBTITLE:;
#ARTIST:Bob Marley feat. LVNDSCAPE & Bolier;
#TITLETRANSLIT:;
#SUBTITLETRANSLIT:;
#ARTISTTRANSLIT:;
#GENRE:;
#ORIGIN:;
#CREDIT:DiscoStu;
#BANNER:Is This Love.png;
#BACKGROUND:Is This Love-bg.png;
#PREVIEWVID:;
#JACKET:Is This Love-jacket.png;
#CDIMAGE:;
#DISCIMAGE:;
#LYRICSPATH:;
#CDTITLE:;
#MUSIC:Is This Love.mp3;
#OFFSET:0.000000;
#SAMPLESTART:23.650000;
#SAMPLELENGTH:12.000000;
#SELECTABLE:YES;
#BPMS:0.000=122.000,
114.000=61.000,
142.000=122.000;
#STOPS:;
#DELAYS:;
#WARPS:;
#TIMESIGNATURES:0.000=4=4;
#TICKCOUNTS:0.000=4;
#COMBOS:0.000=1;
#SPEEDS:0.000=1.000=0.000=0;
#SCROLLS:0.000=1.000;
#FAKES:;
#LABELS:0.000=Song Start;
#BGCHANGES:;
#KEYSOUNDS:;
#ATTACKS:
;

//---------------dance-single - Braeden47----------------
#NOTEDATA:;
#CHARTNAME:;
#STEPSTYPE:dance-single;
#DESCRIPTION:Braeden47;
#CHARTSTYLE:;
#DIFFICULTY:Hard;
#METER:9;
#RADARVALUES:0.457342,0.514419,0.084469,0.033788,0.561722,379.000000,369.000000,10.000000,4.000000,0.000000,0.000000,0.000000,0.000000,0.000000,0.457342,0.514419,0.084469,0.033788,0.561722,379.000000,369.000000,10.000000,4.000000,0.000000,0.000000,0.000000,0.000000,0.000000;
#CREDIT:Braeden47;
#NOTES:
0000
0000
0000
0000
,
0000
0000
0000
0000
,
0000
0000
0000
0000
,
0000
0000
0000
0000
,
1000
0000
0100
0000
0010
0000
0001
0000
0100
0000
0000
0100
0000
0000
0100
0000
,
0010
0000
1000
0000
0010
0000
0000
0000
1000
0000
0000
1000
0000
0000
1000
0000
,
0010
0000
0100
0000
0010
0000
0100
0000
0010
0000
0000
0010
0000
0000
0010
0000
,
1000
0000
0001
0000
0010
0000
0000
0000
0001
0000
0000
0001
0000
0000
0100
0000
,
0010
0000
1000
0000
0010
0000
0100
0000
0001
0000
0000
0001
0000
0000
0001
0000
,
0010
0000
0100
0000
1000
0000
0000
0000
0001
0000
0000
0001
0000
0000
0001
0000
,
0100
0000
0010
0000
1000
0000
0010
0000
0100
0000
0000
0100
0000
0000
0100
0000
,
0001
0000
0010
0000
0100
0000
0000
0000
1000
0000
0000
0001
0000
0000
0100
0000
,
0010
0000
1000
0000
0010
0000
0000
0000
1010
0000
0000
0000
0010
0000
0100
0010
,
0000
0000
1000
0000
0000
0001
0000
0000
0100
0010
0000
0000
1000
0000
0001
0010
,
0001
0000
0100
0000
0000
0010
0000
1000
0010
0000
0000
0000
0101
0000
0001
0100
,
0000
0000
0010
0000
0000
1000
0000
0000
0001
0100
0000
0000
0010
0000
1000
0001
,
0000
0001
0100
0000
0010
0000
1000
0000
0100
0000
0000
0000
0011
0000
0001
0100
,
0000
0000
0010
0000
1000
0001
1000
0000
0010
0000
0000
0000
0100
0000
0100
0010
,
0000
0000
0010
0000
0000
1000
0000
0000
0010
0000
0000
0000
0100
0000
0001
1000
,
0000
0000
0010
0000
0000
0010
0000
0000
0010
1000
0000
0000
0001
0000
0100
0010
,
0000
0000
0000
0000
1000
0000
0000
0000
0001
0100
0001
1000
0100
0000
0010
0001
,
0010
0000
0100
0000
1000
0001
0000
0000
1000
0010
0100
0001
0100
0000
0010
1000
,
0100
0000
0010
0000
0001
0000
0000
0000
1000
0000
0000
0000
0001
0000
0100
0010
,
0100
0000
0010
0000
1000
0010
0000
0000
0100
0001
0000
0000
0100
0000
0010
1000
,
0100
0000
0010
0000
0001
0000
0100
0000
0010
1000
0000
1000
0010
0000
0100
0001
,
1000
0000
0010
0000
0100
0000
0000
0000
0001
1000
0000
0010
0100
0000
0001
0100
,
0001
0000
0100
0000
0000
0010
0000
1000
0010
0000
0000
0000
0101
0000
0001
0100
,
0000
0000
0020
0000
0000
2030
0000
0000
3001
0000
0000
0000
0101
0000
0010
1000
,
0010
0000
0000
0000
0100
0000
0000
0000
0001
0000
0000
0000
0100
0000
0000
0000
0000
0000
0000
0000
0000
0000
0000
0000
0000
0000
0000
0000
0000
0000
1000
0001
,
1000
0000
0000
0000
0010
0000
0000
0000
0100
0010
0000
0000
0000
0000
0000
0000
0000
0000
0000
0000
0000
0000
0000
0000
0000
0000
0000
0000
0000
0000
0001
1000
,
0001
0000
0000
0000
0000
0000
0000
0000
0000
0000
0000
0000
0000
0000
0000
0000
0000
0000
0000
0000
0000
0000
0000
0000
0100
0000
0000
0000
0000
0000
0000
0000
0000
0000
0000
0000
0000
0000
0000
0000
0000
0000
0000
0000
0000
0000
0000
0000
0010
0000
0000
0000
0000
0000
1000
0000
0000
0000
0000
0000
0000
0000
0000
0000
0001
0000
0000
0000
0000
0000
0000
0000
0000
0000
0000
0000
0000
0000
0000
0000
0001
0000
0000
0000
0000
0000
0000
0000
0000
0000
0000
0000
0000
0000
0000
0000
0001
0000
0000
0000
0000
0000
0000
0000
0000
0000
0000
0000
0000
0000
0000
0000
0100
0000
0000
0000
0000
0000
0000
0000
0000
0000
0000
0000
0000
0000
0000
0000
0100
0000
0000
0000
0000
0000
0000
0000
0000
0000
0000
0000
0000
0000
0000
0000
0100
0000
0000
0000
0000
0000
0000
0000
0000
0000
0000
0000
0000
0000
0000
0000
0010
0000
0000
0000
0000
0000
0000
0000
0000
0000
0000
0000
0000
0000
0000
0000
0010
0000
0000
0000
0000
0000
0000
0000
0000
0000
0000
0000
0000
0000
0000
0000
,
0010
0000
0000
0000
0000
0000
0000
0000
0000
0000
0000
0000
0000
0000
0000
0000
1000
0000
0000
0000
0000
0000
0000
0000
0000
0000
0000
0000
0000
0000
0000
0000
1000
0000
0000
0000
0000
0000
0000
0000
0000
0000
0000
0000
0000
0000
0000
0000
1000
0000
0000
0000
0000
0000
0000
0000
0000
0000
0000
0000
0000
0000
0000
0000
0010
0000
0000
0000
0000
0000
0000
0000
0000
0000
0000
0000
0000
0000
0000
0000
0100
0000
0000
0000
0000
0000
0000
0000
0000
0000
0000
0000
0000
0000
0000
0000
0002
0000
0000
0000
0000
0000
0000
0000
0000
0000
0000
0000
0000
0000
0000
0000
0000
0000
0000
0000
0000
0000
0000
0000
0000
0000
0000
0000
0000
0000
0000
0000
0000
0000
0000
0000
0000
0000
0000
0000
0000
0000
0000
0000
0000
0000
0000
0000
0003
0000
0000
0000
0000
0000
0000
0000
0000
0000
0000
0000
0000
0000
0000
0000
0000
0000
0000
0000
0000
0000
0000
0000
0000
0000
0000
0000
0000
0000
0000
0000
0000
0000
0000
0000
1000
0000
0000
0000
0000
0000
0010
0000
0000
0000
0000
0000
,
0100
0000
0000
0000
0000
0000
0000
0000
0000
0000
0000
0000
0000
0000
0000
0000
0000
0000
0000
0000
0000
0000
0000
0000
0001
0000
0000
0000
0000
0000
0000
0000
0000
0000
0000
0000
0000
0000
0000
0000
0000
0000
0000
0000
0000
0000
0000
0000
0100
0000
0000
0000
0000
0000
0010
0000
0000
0000
0000
0000
0000
0000
0000
0000
0000
0000
0000
0000
0000
0000
0000
0000
0000
0000
0000
0000
0000
0000
0000
0000
0100
0000
0000
0000
0000
0000
0000
0000
0000
0000
0000
0000
0000
0000
0000
0000
1000
0000
0000
0000
0000
0000
0000
0000
0000
0000
0000
0000
0000
0000
0000
0000
0001
0000
0000
0000
0000
0000
0000
0000
0000
0000
0000
0000
0000
0000
0000
0000
0010
0000
0000
0000
0000
0000
0000
0000
0000
0000
0000
0000
0000
0000
0000
0000
1000
0000
0000
0000
0000
0000
0000
0000
0000
0000
0000
0000
0000
0000
0000
0000
0001
0000
0000
0000
0000
0000
0000
0000
0000
0000
0000
0000
0000
0000
0000
0000
0100
0000
0000
0000
0000
0000
0000
0000
0000
0000
0000
0000
0000
0000
0000
0000
,
0010
0000
0000
0000
0000
0000
0000
0000
0000
0000
0000
0000
0000
0000
0000
0000
1000
0000
0000
0000
0000
0000
0000
0000
0000
0000
0000
0000
0000
0000
0000
0000
0001
0000
0000
0000
0000
0000
0000
0000
0000
0000
0000
0000
0000
0000
0000
0000
0100
0000
0000
0000
0000
0000
0000
0000
0000
0000
0000
0000
0000
0000
0000
0000
0010
0000
0000
0000
0000
0000
0000
0000
0000
0000
0000
0000
0000
0000
0000
0000
1000
0000
0000
0000
0000
0000
0000
0000
0000
0000
0000
0000
0000
0000
0000
0000
0200
0000
0000
0000
0000
0000
0000
0000
0000
0000
0000
0000
0000
0000
0000
0000
0000
0000
0000
0000
0000
0000
0000
0000
0000
0000
0000
0000
0000
0000
0000
0000
0000
0000
0000
0000
0000
0000
0000
0000
0000
0000
0000
0000
0000
0000
0000
0000
0300
0000
0000
0000
0000
0000
0000
0000
0000
0000
0000
0000
0000
0000
0000
0000
0000
0000
0000
0000
0000
0000
0000
0000
0000
0000
0000
0000
0000
0000
0000
0000
0000
0000
0000
0000
0010
0000
0000
0000
0000
0000
0001
0000
0000
0000
0000
0000
,
1000
0000
0000
0010
0000
0000
0100
0000
0001
0000
0100
0000
0010
0000
1000
0000
0100
0000
0010
0000
0100
0000
1000
0000
,
0001
0000
0000
0000
0000
0000
0000
0000
1000
0000
0001
0000
0101
0000
0010
1000
,
0100
0000
0010
0000
0001
0100
0000
0100
0010
1000
0000
1000
0010
0000
0100
0001
,
0100
0000
0010
0000
1000
0100
0000
0010
0001
1000
0000
0010
0100
0000
0001
0100
,
0010
0000
1000
0000
0100
0010
0000
0000
0001
1000
0000
0000
1010
0000
1000
0001
,
0100
0000
0010
0000
0100
0000
0010
0000
0011
0000
0000
0001
0100
0000
0010
1000
,
0100
0000
0010
0000
0001
1000
0100
0000
0010
0000
0000
0001
1000
0000
0010
1000
,
0100
0000
0010
0000
0001
0000
0000
0000
1010
0000
0000
0100
0001
0000
1000
0100
,
0010
0000
0001
0000
0100
0010
0000
0000
1000
0000
0000
1000
0001
0000
0100
0010
,
1000
0000
0000
0000
0000
0000
0001
0000
0000
0000
0000
0000
1000
0000
0000
0010
0000
0000
0000
0000
0000
0000
0000
0000
1000
0000
0000
0000
0000
0000
0000
0000
0010
0000
0000
0000
0000
0000
0000
0000
0010
0000
0000
0000
0000
0000
0000
0000
,
0010
0000
0001
0000
0001
0000
0001
0000
0010
0000
0010
0000
,
0010
0000
0000
0000
0000
0000
0000
0000
1000
0000
0000
0000
0000
0000
0000
0000
1000
0000
0000
0000
0000
0000
0000
0000
1000
0000
0000
0000
0000
0000
0000
0000
0000
0001
0000
0000
0100
0000
0000
0000
0000
0000
0010
0000
0000
1000
0000
0000
,
0010
0000
0100
0000
0001
0100
0000
0000
0010
1000
0000
0001
0100
0000
0010
1000
,
0100
0000
0000
0000
0000
0000
0010
0000
0000
0000
0000
0000
0001
0000
0000
1000
0000
0000
0000
0000
0000
0000
0000
0000
0010
0000
0000
0000
0000
0000
0000
0000
0010
0000
0000
0000
0000
0000
0000
0000
0010
0000
0000
0000
0000
0000
0000
0000
,
0100
0000
0100
0000
0100
0000
0010
0000
0010
0000
0010
0000
,
1000
0000
0001
0000
0000
0100
0010
0000
0000
1001
0000
0000
,
0001
0100
0010
0000
1000
0000
0010
0000
;

//---------------dance-single - Braeden47----------------
#NOTEDATA:;
#CHARTNAME:;
#STEPSTYPE:dance-single;
#DESCRIPTION:Braeden47;
#CHARTSTYLE:;
#DIFFICULTY:Medium;
#METER:7;
#RADARVALUES:0.336671,0.428682,0.101363,0.016894,0.266079,279.000000,267.000000,12.000000,2.000000,0.000000,0.000000,0.000000,0.000000,0.000000,0.336671,0.428682,0.101363,0.016894,0.266079,279.000000,267.000000,12.000000,2.000000,0.000000,0.000000,0.000000,0.000000,0.000000;
#CREDIT:Braeden47;
#NOTES:
0000
0000
0000
0000
,
0000
0000
0000
0000
,
0000
0000
0000
0000
,
0000
0000
0000
0000
,
1000
0000
0000
0000
0010
0000
0000
0000
0100
0000
0000
0100
0000
0000
0100
0000
,
0010
0000
0000
0000
1000
0000
0000
0000
0010
0000
0000
1000
0000
0000
0010
0000
,
0100
0000
0000
0000
0001
0000
0000
0000
0010
0000
0000
0010
0000
0000
0010
0000
,
0100
0000
0000
0000
0010
0000
0000
0000
0001
0000
0000
0001
0000
0000
0100
0000
,
0010
0000
0000
0000
0100
0000
0000
0000
0001
0000
0000
0001
0000
0000
0001
0000
,
0010
0000
0000
0000
0100
0000
0000
0000
1000
0000
0000
0001
0000
0000
1000
0000
,
0100
0000
0000
0000
0010
0000
0000
0000
0001
0000
0000
0100
0000
0000
0001
0000
,
0010
0000
0000
0000
0100
0000
0000
0000
1000
0000
0000
0001
0000
0000
0100
0000
,
0010
1000
1010
1010
,
0000
0000
1000
0000
0000
0001
0000
0000
0100
0000
0000
0000
1000
0000
0001
0000
,
0100
0000
0010
0000
0000
1000
0000
0000
0010
0000
0000
0000
0100
0000
0000
0100
,
0000
0000
0010
0000
0000
1000
0000
0000
0001
0000
0000
0000
0001
0000
1000
0000
,
0000
0000
0100
0000
0010
0000
0001
0000
0010
0000
0000
0000
0001
0000
0000
0100
,
0000
0000
0001
0000
1000
0000
0010
0000
1000
0000
0000
0000
0100
0000
0000
0010
,
0000
0000
1000
0000
0000
0001
0000
0000
0010
0000
0000
0000
0100
0000
0000
1000
,
0000
0000
0010
0000
0000
0100
0000
0000
1000
0000
0000
0000
0100
0000
0000
0010
,
0000
0000
1000
0000
0001
0000
0100
0010
,
1000
0010
0100
0000
0001
0000
0011
0001
,
1000
0001
0100
0000
0010
0000
1000
0010
,
0100
0001
0010
0000
0100
0000
1000
0001
,
0100
0100
0100
0000
0010
0000
1010
1000
,
0010
0100
0001
0000
0010
0000
0110
0100
,
0001
1000
0100
0000
0001
0000
0100
0010
,
1000
0010
0100
0000
0001
0001
0001
0000
,
1000
0000
0001
0000
0100
0000
0000
0000
0000
0000
0000
0000
0000
0000
0000
1000
,
0010
0000
0100
0000
0010
0000
0000
0000
0000
0000
0000
0000
0000
0000
0000
0001
,
0100
0000
0000
0100
0000
0000
0010
0000
1000
0000
0010
0000
1000
0000
0100
0000
0010
0000
0001
0000
0010
0000
0100
0000
,
1000
0000
0000
0000
0010
0000
0000
0000
1000
0000
0000
0000
0010
0000
0000
0000
0100
0000
0000
0000
0001
0000
0000
0000
2000
0000
0000
0000
0000
0000
0000
0000
0000
0000
0000
0000
3000
0000
0000
0000
0000
0000
0000
0000
0000
1000
0000
0000
,
0001
0000
0000
0001
0000
0000
0100
0000
0000
0000
0010
0000
1000
0000
0001
0000
0010
0000
0100
0000
1000
0000
0100
0000
,
0010
0000
0000
0000
0001
0000
0000
0000
1000
0000
0000
0000
0100
0000
0000
0000
0010
0000
0000
0000
0100
0000
0000
0000
0020
0000
0000
0000
0000
0000
0000
0000
0000
0000
0000
0000
0030
0000
0000
0000
0000
0000
0000
0000
0000
0010
0000
0000
,
0100
0000
0000
1000
0000
0000
0100
0000
0010
0000
0001
0000
0010
0000
0100
0000
1000
0000
0010
0000
0100
0000
0001
0000
,
0100
0000
0000
0000
1001
0000
0001
0100
,
0010
1000
0010
0000
0100
0000
0001
0010
,
0001
0100
0001
0000
1000
0000
0010
0100
,
0010
1000
0010
0000
0100
0000
0001
0010
,
0001
1000
1000
0000
1000
0000
1001
0000
,
0010
0100
0010
0000
0010
0000
0011
0000
,
0001
1000
0010
0000
0100
0000
0110
0000
,
0100
0001
0010
0000
0001
0000
1001
0000
,
1000
0000
0000
0001
0000
0000
1000
0000
0000
0000
0000
0000
1000
0000
0000
0000
0010
0000
0000
0000
0010
0000
0000
0000
,
0010
0000
0001
0000
0001
0000
0001
0000
0010
0000
0010
0000
,
0010
0000
1000
0000
1000
0000
1001
0000
0000
0010
0000
0000
,
0100
0010
1000
0001
,
1000
0000
0000
0000
0000
0000
0010
0000
0010
0000
0010
0000
,
0100
0000
0100
0000
0100
0000
0010
0000
0010
0000
0010
0000
,
1000
0000
0001
0000
0000
0100
0010
0000
0000
1001
0000
0000
,
0001
0100
0010
0000
1000
0000
0010
0000
;

//---------------dance-single - Braeden47----------------
#NOTEDATA:;
#CHARTNAME:;
#STEPSTYPE:dance-single;
#DESCRIPTION:Braeden47;
#CHARTSTYLE:;
#DIFFICULTY:Beginner;
#METER:1;
#RADARVALUES:0.096537,0.129238,0.016894,0.000000,0.000000,80.000000,78.000000,2.000000,0.000000,0.000000,0.000000,0.000000,0.000000,0.000000,0.096537,0.129238,0.016894,0.000000,0.000000,80.000000,78.000000,2.000000,0.000000,0.000000,0.000000,0.000000,0.000000,0.000000;
#CREDIT:Braeden47;
#NOTES:
0000
0000
0000
0000
,
0000
0000
0000
0000
,
1000
0000
0000
0000
,
0001
0000
0000
0000
,
0100
0000
0000
0000
,
0010
0000
0000
0000
,
1000
0000
0000
0000
,
0010
0000
0000
0000
,
0100
0000
0000
0000
,
0001
0000
0000
0000
,
0100
0000
0000
0000
,
0010
0000
0000
0000
,
1000
0000
0001
0000
,
0001
0000
0100
0000
,
0100
0000
0010
0000
,
0010
0000
1000
0000
,
0001
0000
0100
0000
,
0010
0000
1000
0000
,
0001
0000
1000
0000
,
0001
0000
0100
0000
,
0010
0000
1001
0000
,
0001
0000
0010
0000
,
0010
0000
0100
0000
,
0100
0000
1000
0000
,
1000
0000
0001
0000
,
0000
0000
0001
0000
,
0000
0000
0100
0000
,
0000
0000
0010
0000
,
0000
0000
0000
0000
,
0000
0000
0000
0000
,
0001
0000
1000
1000
,
1000
1000
1000
0000
,
0000
0000
0001
0000
,
1000
0000
0100
0000
,
0000
0000
0010
0000
,
0100
0000
0001
0000
,
0100
0000
0010
0000
,
1000
0000
0010
0000
,
0100
0000
0001
0000
,
1000
0000
0010
0000
,
0000
0000
0100
0000
,
0000
0000
1000
0000
,
0000
0000
0100
0000
,
0000
0000
0001
0000
,
0100
0000
0010
0000
,
1000
0000
0001
0000
,
0100
0000
0010
0000
,
1000
0000
0010
0000
,
0100
0000
0001
0000
,
0100
0000
0010
0000
,
1000
0000
0001
0000
,
1001
0000
0000
0000
;

//---------------dance-single - Braeden47----------------
#NOTEDATA:;
#CHARTNAME:;
#STEPSTYPE:dance-single;
#DESCRIPTION:Braeden47;
#CHARTSTYLE:;
#DIFFICULTY:Easy;
#METER:4;
#RADARVALUES:0.171352,0.213285,0.033788,0.033788,0.000000,142.000000,138.000000,4.000000,4.000000,0.000000,0.000000,0.000000,0.000000,0.000000,0.171352,0.213285,0.033788,0.033788,0.000000,142.000000,138.000000,4.000000,4.000000,0.000000,0.000000,0.000000,0.000000,0.000000;
#CREDIT:Braeden47;
#NOTES:
0000
0000
0001
0000
,
0000
0000
0100
0000
,
0000
0000
0010
0000
,
0000
0000
1000
0000
,
0000
0000
0001
0000
,
1000
0000
0001
0000
,
0200
0000
0320
0000
,
2030
0000
3002
0000
,
0013
0000
0100
0000
,
1000
0000
0001
0000
,
0100
0000
0010
0000
,
1000
0000
0001
0000
,
1000
0000
0001
0100
,
0001
0100
0010
1000
,
0100
0010
0001
0100
,
0010
1000
0100
1000
,
0010
0100
0001
0010
,
0100
0000
0000
0000
,
0001
0100
0010
1000
,
0001
0100
0010
1000
,
0100
0010
1001
0010
,
0100
0010
1000
0100
,
0010
0001
0100
0100
,
0010
0010
1000
1000
,
0001
1000
0100
0100
,
0010
0010
0001
1000
,
0100
0010
0001
1000
,
0100
0010
1000
0001
,
1000
0100
0010
0000
,
0100
0000
1000
0000
,
0001
0000
0010
0100
,
1000
0001
0001
0000
,
1000
0000
0010
0100
,
0001
0100
1000
0000
,
0001
0000
1000
0010
,
0001
0000
1001
0001
,
0100
0100
0010
1000
,
0100
0010
0100
1000
,
0001
0100
0010
1000
,
0100
0010
0010
0010
,
0001
0001
0100
0100
,
0010
0010
1000
0000
,
0001
0000
0100
0000
,
0010
0000
1001
0000
,
0010
0000
0100
0000
,
0001
0000
0010
0000
,
0000
0000
0100
0000
,
0000
0000
1001
0000
,
0000
0000
0001
0000
,
0000
0000
0100
0000
,
0000
0000
0010
0000
;

//---------------dance-double - NewbStepper----------------
#NOTEDATA:;
#CHARTNAME:;
#STEPSTYPE:dance-double;
#DESCRIPTION:NewbStepper;
#CHARTSTYLE:;
#DIFFICULTY:Hard;
#METER:9;
#RADARVALUES:0.453722,0.502699,0.042235,0.177386,0.570169,376.000000,371.000000,5.000000,21.000000,0.000000,0.000000,0.000000,0.000000,0.000000,0.453722,0.502699,0.042235,0.177386,0.570169,376.000000,371.000000,5.000000,21.000000,0.000000,0.000000,0.000000,0.000000,0.000000;
#CREDIT:NewbStepper;
#NOTES:
00000000
00000000
00000000
00000000
,
00000000
00000000
00000000
00000000
,
00000000
00000000
00000000
00000000
,
00000000
00000000
00000000
00000000
,
10000000
00000000
01000000
00000000
00100000
00000000
00010000
00000000
01000000
00000000
00000000
01000000
00000000
00000000
01000000
00000000
,
00001000
00000000
00010000
00000000
00001000
00000000
00000000
00000000
00000100
00000000
00000000
00000100
00000000
00000000
00000100
00000000
,
00000001
00000000
00001000
00000000
00000100
00000000
00000010
00000000
00000100
00000000
00000000
00000100
00000000
00000000
00000100
00000000
,
00010000
00000000
00001000
00000000
00010000
00000000
00000000
00000000
00100000
00000000
00000000
00100000
00000000
00000000
00100000
00000000
,
10000000
00000000
01000000
00000000
00010000
00000000
00001000
00000000
00000100
00000000
00000000
00000100
00000000
00000000
00000100
00000000
,
00000001
00000000
00000000
00000010
00000000
00000000
00001000
00000000
00010000
00000000
01000000
00000000
00100000
00000000
00000000
00000000
00000000
00000000
00010000
00000000
00000000
00000000
00000000
00000000
,
10000000
00000000
01000000
00000000
00010000
00000000
01000000
00000000
00100000
00000000
00000000
00100000
00000000
00000000
00001000
00000000
,
00010000
00000000
00001000
00000000
00000010
00000000
00000000
00000000
00000001
00000000
00000000
00000001
00000000
00000000
00001000
00000000
,
00000100
00000000
00000010
00000000
00001000
00000000
00010000
00000000
00011000
00000000
00000000
00001000
00100000
00000000
00010000
00000000
,
10000000
00000000
01000000
00000000
00010000
00000000
00000000
00000000
00011000
00000000
00000000
00010000
00000010
00000000
00001000
00000000
,
00000001
00000000
00000100
00000000
00000000
00001000
00000000
00001000
00010000
00000000
00000000
00000000
00100000
00000000
00100000
10000000
,
00000000
00000000
10000000
01000000
00000000
00100000
00000000
00000000
00001000
00000000
00000000
00001000
00010000
00000000
00000100
00000000
,
00000010
00000000
00000001
00000000
00000100
00000000
00001000
00000000
00011000
00000000
00000000
00010000
00000010
00000000
00001000
00000100
,
00000000
00000000
00000000
00010000
00000000
00000000
00001000
00000000
01000000
00000000
00010000
00000000
00100000
00000000
00000000
00000000
00000000
00000000
00010000
00000000
00000000
00000000
00000000
00000000
,
10000000
00000000
00000000
00000000
00000000
00000000
00000000
00000000
01000000
00000000
00000000
00000000
00010000
00000000
00000000
00000000
00000000
00000000
00000000
00000000
00001000
00000000
00000000
00000000
00000100
00000000
00000000
00000000
00000000
00000000
00000000
00000000
00000000
00000000
00000000
00000000
00000001
00000000
00000000
00000000
00000000
00000000
00000010
00000000
00000000
00000001
00000000
00000000
,
00000000
00000000
00000100
00000000
00000000
00000100
00000000
00000000
00001000
00010000
00000000
00000000
00100000
00000000
01000000
00010000
,
00000000
00000000
10000000
00000000
01000000
00000000
00010000
00000000
00011000
00000000
00000000
00001000
00100000
00000000
00010000
01000000
,
00000000
00000000
00001000
00100000
00000000
00010000
00000000
00000000
00001000
00000100
00000000
00000010
00000001
00000000
00000100
00000010
,
00000100
00000000
00000001
00000000
00000010
00000000
00001000
00010000
00000100
00001000
00000000
00010000
00100000
00000000
01000000
10000000
,
01000000
00000000
00100000
00000000
00010000
00000000
10000000
00000000
00100000
01000000
00000000
00010000
00100000
00000000
00001000
00010000
,
00000100
00000000
00000010
00000000
00000001
00000000
00000100
00000000
00001000
00010000
00000000
00000010
00001000
00000000
00000100
00010000
,
00001000
00000000
00100000
00010000
00000000
01000000
00000000
00000000
00100000
10000000
00000000
10000000
01000000
00000000
01000000
00010000
,
00001000
00000000
00000100
00000000
00000010
00001000
00000010
00001000
00000001
00000000
00000000
00000000
00000100
00000000
00001000
00010000
,
00000000
00000000
00200000
00000000
00000000
20300000
00000000
00000000
30010000
01000000
00000000
01000000
00100000
00000000
00100000
10000000
,
00000000
00000000
00010000
02000000
00000000
00000000
00000000
03000000
,
00002000
00000000
00000000
00003000
,
00020000
00000000
00000000
00000000
00030200
00000000
00000000
00002300
00000000
00000000
00003020
00000000
,
00000000
00000230
00000000
00000000
00000302
00000000
00000023
00000000
00000000
00000030
00000000
00000000
,
00002000
00000000
00000000
00003000
02000000
00000000
00000000
03020000
00000000
00000000
00230000
00000000
,
00000000
02300000
00000000
00000000
23000000
00000000
30200000
00000000
00000000
00300000
00000000
00000000
,
00020000
00000000
00000000
00031000
00000100
00000001
00001000
00000010
00010000
00001000
00000010
00001000
,
00010000
00000000
00000000
00000000
02000000
00000000
00000000
00000000
00000000
00000000
00000000
00000000
00000000
00000000
00000000
00000000
03000000
00000000
00000000
00000000
00000000
00000000
00000000
00000000
10000000
00000000
00000000
00010000
00000000
00000000
00000000
00000000
00000000
10000000
00000000
00000000
00010000
00000000
00000000
00000000
00000000
00000000
01000000
00000000
00000000
00100000
00000000
00000000
,
00010000
00000000
00001000
00000000
00000100
00000000
00000001
00000000
00001000
00000001
00000000
00001000
00000001
00000000
00000100
00000010
,
00000100
00000000
00001000
00000000
00010000
00100000
00000000
00100000
10000000
00010000
00000000
10000000
00010000
00000000
01000000
00100000
,
00010000
00000000
00001000
00000000
00000100
00000001
00000000
00000000
00001000
00000010
00000000
00000100
00000000
00000000
00001000
00010000
,
00100000
00000000
00010000
00000000
00001000
00000000
00000100
00000000
00000001
00001000
00000000
00000001
00001000
00000000
00000100
00000010
,
00001000
00000000
00010000
00000000
01000000
00000000
10000000
00000000
00010000
10000000
00000000
00010000
10000000
00000000
01000000
00100000
,
01000000
00000000
00010000
00000000
00001000
00000010
00000000
00000010
00000001
00001000
00000000
00000001
00001000
00000000
00000100
00000010
,
00001000
00000000
00010000
00000000
01000000
10000000
00000000
00000000
00010000
00100000
00000000
01000000
00000000
00000000
00010000
00001000
,
00000010
00000000
00001000
00000000
00010000
00000000
01000000
00000000
10000000
00100000
00000000
00100000
01000000
00000000
01000000
00001000
,
00000000
00000000
00010000
00000100
00000000
00001000
00000000
00000000
00000001
00000010
00000000
00000010
00000100
00000000
00000100
00010000
,
00000000
00000000
00001000
01000000
00000000
00010000
00000000
10000000
00100000
00000000
00000000
00100000
01000000
00000000
00010000
00100000
,
00001000
00000000
00010000
00000000
00000100
00000010
00000000
00000000
00000001
00000100
00000000
00000100
00000010
00000000
00001000
00000010
,
00010000
00000000
00000100
00000000
00010000
00000000
01000000
00000000
00100000
00010000
00000000
00010000
10000000
00000000
10000000
01000000
,
00000000
00000000
00010000
00001000
00000000
00010000
00000100
00000000
00000010
00000001
00000000
00000001
00000100
00000000
00000100
00000010
,
00010000
00000000
00001000
00000000
00010000
01000000
00000000
01000000
10000000
00000000
00000000
00100000
01000000
00000000
00010000
00100000
,
00001000
00000000
00010000
00000000
00000000
00011000
00000000
00000000
00001000
00000100
00000000
00000100
00000001
00000000
00000010
00000000
,
00000200
00000000
00000000
00000300
;

//---------------dance-double - NewbStepper----------------
#NOTEDATA:;
#CHARTNAME:;
#STEPSTYPE:dance-double;
#DESCRIPTION:NewbStepper;
#CHARTSTYLE:;
#DIFFICULTY:Medium;
#METER:6;
#RADARVALUES:0.283576,0.327847,0.025341,0.076022,0.050682,235.000000,232.000000,3.000000,9.000000,0.000000,0.000000,0.000000,0.000000,0.000000,0.283576,0.327847,0.025341,0.076022,0.050682,235.000000,232.000000,3.000000,9.000000,0.000000,0.000000,0.000000,0.000000,0.000000;
#CREDIT:NewbStepper;
#NOTES:
// measure 0
00000000
00000000
00000000
00000000
,  // measure 1
00000000
00000000
00000000
00000000
,  // measure 2
00000000
00000000
00000000
00000000
,  // measure 3
00000000
00000000
00000000
00000000
,  // measure 4
00000001
00000000
00000000
00000000
00001000
00000000
00000000
00000000
00000100
00000000
00000000
00000100
00000000
00000000
00000100
00000000
,  // measure 5
00010000
00000000
00000000
00000000
00001000
00000000
00000000
00000000
01000000
00000000
00000000
01000000
00000000
00000000
00010000
00000000
,  // measure 6
10000000
00000000
00000000
00000000
00010000
00000000
00000000
00000000
00100000
00000000
00000000
00100000
00000000
00000000
00100000
00000000
,  // measure 7
00001000
00000000
00000000
00000000
00010000
00000000
00000000
00000000
00000010
00000000
00000000
00000010
00000000
00000000
00001000
00000000
,  // measure 8
00000001
00000000
00000000
00000000
00000100
00000000
00000000
00000000
00001000
00000000
00000000
00010000
00000000
00000000
00001000
00000000
,  // measure 9
00000010
00000000
00000000
00000000
00000100
00000000
00000000
00000000
00010000
00000000
00000000
00001000
00000000
00000000
00010000
00000000
,  // measure 10
00100000
00000000
00000000
00000000
10000000
00000000
00000000
00000000
00010000
00000000
00000000
00010000
00000000
00000000
00100000
00000000
,  // measure 11
00001000
00000000
00000000
00000000
00010000
00000000
00000000
00000000
00000010
00000000
00000000
00000010
00000000
00000000
00001000
00000000
,  // measure 12
00000001
00000100
00000010
00010000
00001000
00000000
00011000
00000000
,  // measure 13
00000000
00000000
00010000
00000000
00000000
01000000
00000000
00000000
10000000
00000000
00000000
00000000
00100000
00000000
01000000
00000000
,  // measure 14
00001000
00000000
00000000
00000000
00010000
00000000
00000100
00000000
00000010
00000000
00000000
00000001
00000000
00000000
00001000
00000000
,  // measure 15
00000100
00000010
00001000
00000000
00010000
00000000
01000000
00000000
,  // measure 16
10000000
01000000
00100000
00001000
00010000
00000000
00011000
00000000
,  // measure 17
00000000
00000000
00001000
00000000
00000000
00000100
00000000
00000000
00000001
00000000
00000000
00000000
00000010
00000000
00000100
00000000
,  // measure 18
00010000
00000000
00000000
00000000
00001000
00000000
01000000
00000000
00100000
00000000
00000000
10000000
00000000
00000000
00010000
00000000
,  // measure 19
01000000
00100000
00010000
00000000
00022000
00000000
00000000
00000000
,  // measure 20
00033000
00000000
00000010
00000000
00000001
00000000
00000100
00000010
,  // measure 21
00000100
00001000
00010000
00000000
00100000
00000000
10000000
01000000
,  // measure 22
00100000
00010000
01000000
00000000
00001000
00000000
00010000
00001000
,  // measure 23
00000100
00000001
00000010
00000000
00000100
00000000
00010000
00001000
,  // measure 24
00010000
00001000
00100000
00000000
00010000
00000000
10000000
00100000
,  // measure 25
01000000
00010000
00100000
00000000
01000000
00000000
00010000
00001000
,  // measure 26
00010000
00000100
00000010
00000000
00000001
00000000
00000100
00000010
,  // measure 27
00001000
00000100
00010000
00000000
00100000
00000000
10000000
00000000
,  // measure 28
00010000
01000000
00100000
00000000
00000000
00000000
00000000
00000000
,  // measure 29
00020000
00000000
00000000
00030000
,  // measure 30
00002000
00000000
00000000
00000000
,  // measure 31
00000000
00003000
00000020
00000030
,  // measure 32
00000200
00000000
00000000
00000000
,  // measure 33
00000000
00000300
00020000
00030000
,  // measure 34
00002000
00000000
00000000
00000000
,  // measure 35
00000000
00000000
00003000
00000000
01000000
00000000
00010000
00100000
,  // measure 36
01000000
10000000
01000000
00000000
00010000
00000000
00001000
00100000
,  // measure 37
00010000
00100000
00001000
00000000
00000100
00000000
00000001
00000010
,  // measure 38
00000001
00000100
00000001
00000000
00001000
00000000
00000010
00010000
,  // measure 39
00001000
00010000
00001000
00100000
00010000
00000000
10000000
01000000
,  // measure 40
00100000
00001000
00010000
00000000
01000000
00000000
00010000
00001000
,  // measure 41
00010000
00000010
00000100
00000001
00001000
00000000
00000010
00000001
,  // measure 42
00000100
00000001
00000010
00000000
00000100
00000000
00010000
00001000
,  // measure 43
01000000
00010000
10000000
01000000
00100000
00000000
00001000
00010000
,  // measure 44
00100000
00000000
00010000
00000100
00000010
00000000
00000001
00000100
,  // measure 45
00000010
00001000
00000100
00000000
00010000
00000000
00001000
00000000
,  // measure 46
01000000
00010000
10000000
00010000
,  // measure 47
01000000
00010000
10000000
00010000
01000000
00000000
00001000
00010000
,  // measure 48
00000010
00000000
00000100
00001000
00010000
00000000
01000000
10000000
,  // measure 49
00100000
10000000
00010000
01000000
00010000
00000000
00100000
00001000
,  // measure 50
00010000
00000100
00001000
00000000
00000001
00000000
00000010
00000000
,  // measure 51
00002000
00000000
00000000
00003000
;

//---------------dance-double - NewbStepper----------------
#NOTEDATA:;
#CHARTNAME:;
#STEPSTYPE:dance-double;
#DESCRIPTION:NewbStepper;
#CHARTSTYLE:;
#DIFFICULTY:Easy;
#METER:4;
#RADARVALUES:0.178593,0.218565,0.042235,0.042235,0.000000,148.000000,143.000000,5.000000,5.000000,0.000000,0.000000,0.000000,0.000000,0.000000,0.178593,0.218565,0.042235,0.042235,0.000000,148.000000,143.000000,5.000000,5.000000,0.000000,0.000000,0.000000,0.000000,0.000000;
#CREDIT:NewbStepper;
#NOTES:
// measure 0
00000000
00000000
10000000
00000000
,  // measure 1
00000000
00000000
00100000
00000000
,  // measure 2
00000000
00000000
01000000
00000000
,  // measure 3
00000000
00000000
00001000
00000000
,  // measure 4
00000000
00000000
00010000
00000000
,  // measure 5
00001000
00000000
00010000
00000000
,  // measure 6
00000020
00000000
00000230
00000000
,  // measure 7
00000302
00000000
00002003
00000000
,  // measure 8
00003100
00000000
00000010
00000000
,  // measure 9
00001000
00000000
00010000
00000000
,  // measure 10
01000000
00000000
00100000
00000000
,  // measure 11
00010000
00000000
10000000
00000000
,  // measure 12
00010000
00000000
10000000
01000000
,  // measure 13
10000000
00010000
00100000
00001000
,  // measure 14
00100000
00001000
00010000
00000100
,  // measure 15
00010000
00000100
00000010
00000001
,  // measure 16
00001000
00000010
00000100
00000001
,  // measure 17
00000010
00000000
00000000
00000000
,  // measure 18
00001000
00010000
00001000
01000000
,  // measure 19
00010000
00100000
01000000
10000000
,  // measure 20
00100000
01000000
00001000
00010000
,  // measure 21
00000100
00000010
00000001
00000100
,  // measure 22
00001000
00010000
01000000
10000000
,  // measure 23
00100000
00100000
01000000
01000000
,  // measure 24
00001000
00010000
00000100
00000100
,  // measure 25
00000010
00000010
00000001
00000100
,  // measure 26
00000010
00010000
00001000
01000000
,  // measure 27
00010000
10000000
01000000
00010000
,  // measure 28
00001000
00000100
00000001
00000000
,  // measure 29
00001000
00000000
00000010
00000000
,  // measure 30
00010000
00000000
00001000
00010000
,  // measure 31
00001000
00010000
00011000
00000000
,  // measure 32
00100000
00000000
10000000
00010000
,  // measure 33
10000000
00010000
10010000
00000000
,  // measure 34
01000000
00000000
00001000
00010000
,  // measure 35
00001000
00000000
00011000
00010000
,  // measure 36
00000010
00000010
00001000
00000001
,  // measure 37
00000100
00000010
00000100
00001000
,  // measure 38
00010000
01000000
00100000
01000000
,  // measure 39
10000000
00010000
00100000
00100000
,  // measure 40
00001000
00001000
00010000
00000100
,  // measure 41
00000010
00000001
00000000
00000000
,  // measure 42
00001000
00000000
00010000
00000000
,  // measure 43
10000000
00000000
10010000
00000000
,  // measure 44
00100000
00000000
01000000
00000000
,  // measure 45
00001000
00000000
00010000
00000000
,  // measure 46
00000100
00000000
00000010
00000000
,  // measure 47
00000001
00000000
00001001
00000000
,  // measure 48
00000010
00000000
00000100
00000000
,  // measure 49
00010000
00000000
00001000
00000000
,  // measure 50
01000000
00000000
00100000
00000000
,  // measure 51
20000000
00000000
00000000
30000000
;
