#TITLE:Intoxicated;
#SUBTITLE:;
#ARTIST:Martin Solveig & GTA;
#TITLETRANSLIT:;
#SUBTITLETRANSLIT:;
#ARTISTTRANSLIT:;
#GENRE:;
#CREDIT:DiscoStu & KevinRocker10;
#BANNER:Intoxicated.png;
#BACKGROUND:Intoxicated-bg.png;
#LYRICSPATH:;
#CDTITLE:;
#MUSIC:Intoxicated.mp3;
#OFFSET:-0.052000;
#SAMPLESTART:23.049999;
#SAMPLELENGTH:12.000000;
#SELECTABLE:YES;
#BPMS:0.000000=124.999992
;
#STOPS:75.750000=1.440000,
115.750000=0.480000
;
#BGCHANGES:;
#KEYSOUNDS:;
#ATTACKS:;

//---------------dance-single - KevinRocker10----------------
#NOTES:
     dance-single:
     KevinRocker10:
     Hard:
     8:
     0.357687,0.392086,0.117200,0.532725,0.292999,235.000000,224.000000,11.000000,50.000000,2.000000,0.000000,0.357687,0.392086,0.117200,0.532725,0.292999,235.000000,224.000000,11.000000,50.000000,2.000000,0.000000:
0000
0000
0000
0000
,
0000
0000
0000
0000
,
0001
1000
0001
1000
,
0010
0100
0010
0100
,
0002
0000
0000
0000
1000
0000
0000
0000
1003
0000
0000
0000
2000
0000
0000
3010
,
0000
0000
0100
0000
0200
0000
0000
0310
0000
0000
1000
0000
2000
0000
0000
3001
,
0000
0000
0010
0000
0010
0000
0000
0000
0001
0000
1000
0000
0002
0000
0000
0103
,
0000
0000
0010
0000
0020
0000
0000
0130
0000
0000
0001
0000
0001
0000
0000
0000
,
2000
0000
0000
0000
0001
0000
0000
0000
3001
0000
0000
0000
0002
0000
0000
0013
,
0000
0000
0100
0000
0200
0000
0000
0310
0000
0000
0001
0000
0002
0000
0000
1003
,
0000
0010
0010
0000
1000
0001
2000
0000
,
0100
0100
0100
3001
,
1000
0000
0000
0000
0101
0000
0000
0000
1000
0000
0000
0000
0101
0000
0000
0001
,
0000
0000
0010
0000
0010
0000
0000
0001
0000
0000
1000
0000
1000
0000
0000
0010
,
0000
0000
1000
0000
1100
0000
0000
0000
0001
0000
1000
0000
1100
0000
0000
1000
,
0000
0000
0010
0000
0010
0000
0000
1000
0000
0000
0001
0000
0001
0000
0000
0010
,
0200
0000
0300
0000
0200
0000
0300
0000
2000
0000
3000
0000
2000
0000
0000
3001
,
0000
0000
0100
0000
0200
0000
0000
0310
0000
0000
1000
0000
2000
0000
0000
3010
,
0000
0000
0100
0000
0200
0000
0000
0000
0301
0000
0001
0000
1000
0000
0000
01M0
,
0000
0000
0000
0000
1000
0000
0000
0001
0000
0000
0100
0000
0200
0000
0000
0000
,
0010
0000
0000
0020
0330
0000
0000
1000
0000
0000
0001
0000
0200
0000
0000
0000
,
0010
0000
0000
0020
0330
0000
0000
1000
0000
0000
0001
0000
0200
0000
0000
0000
,
0010
0000
0000
0020
0330
0000
0000
1000
0000
0000
0010
0000
0001
0000
0000
0010
,
0000
0000
1000
0000
0001
0000
0000
1000
0000
0000
0010
0000
0020
0000
0000
0000
,
0100
0000
0000
0200
0330
0000
0000
0001
0000
0000
1000
0000
0020
0000
0000
0000
,
0100
0000
0000
0200
0330
0000
0000
0001
0000
0000
1000
0000
0020
0000
0000
0000
,
0100
0000
0000
0200
0330
0000
0000
0001
0000
0000
0100
0000
1000
0000
0000
0100
,
0000
0001
0000
0000
1000
0000
1000
0000
,
0001
0000
0000
0000
0001
0000
0000
0000
1000
0000
0000
0000
1000
0000
0000
00M0
,
0001
0000
0000
0000
1010
0000
0000
0000
0001
0000
0000
0000
1010
0000
0000
1000
,
0000
0000
0100
0000
0100
0000
0000
1000
0000
0000
0001
0000
0001
0000
0000
0100
,
0000
0000
0001
0000
0011
0000
0000
0000
1000
0000
0001
0000
0011
0000
0000
0001
,
0000
0000
0100
0000
0100
0000
0000
0001
0000
0000
1000
0000
1000
0000
0000
0100
,
0020
0000
0030
0000
0020
0000
0030
0000
0002
0000
0003
0000
0002
0000
0000
1003
,
0000
0000
0010
0000
0020
0000
0000
0130
0000
0000
0001
0000
0002
0000
0000
0103
,
0000
0000
0010
0000
0020
0000
0000
0000
1030
0000
1000
0000
0001
0000
0000
0010
,
0000
0000
0100
0000
0100
0000
0000
1000
0000
0000
0010
0000
0010
0000
0000
0000
,
2001
0000
0000
0000
0100
0000
0000
0000
3001
0000
0000
0000
0002
0000
0000
0013
,
0000
0000
0100
0000
0200
0000
0000
0310
0000
0000
0001
0000
0002
0000
0000
1003
,
0000
0000
0010
0000
0010
0000
0000
0000
1000
0000
0001
0000
2000
0000
0000
3100
,
0000
0000
0010
0000
0020
0000
0000
0130
0000
0000
1000
0000
1000
0000
0000
0000
,
1002
0000
0000
0000
0100
0000
0000
0000
1003
0000
0000
0000
0002
0000
0000
0103
,
0000
0000
1000
0000
0200
0000
0000
0301
0000
0000
1000
0000
0020
0000
0000
0130
,
0000
0000
0001
0000
0010
0000
0000
0000
0001
0000
0100
0000
0002
0000
0000
0013
,
0000
0000
0000
0001
,
2200
0000
0000
0000
,
3300
0000
0000
0000
;

//---------------dance-single - KevinRocker10----------------
#NOTES:
     dance-single:
     KevinRocker10:
     Medium:
     7:
     0.328768,0.392086,0.287672,0.170472,0.031964,216.000000,189.000000,27.000000,16.000000,2.000000,0.000000,0.328768,0.392086,0.287672,0.170472,0.031964,216.000000,189.000000,27.000000,16.000000,2.000000,0.000000:
0000
0000
0000
0000
,
0000
0000
0000
0000
,
1000
1000
0001
0001
,
1000
1000
0001
0001
,
2000
0001
0001
0001
,
3001
0000
0000
0000
1000
0000
0100
0000
0010
0000
0000
0010
0000
0000
0020
0000
,
0000
0100
0100
0100
,
0130
1000
0001
1000
,
0002
1000
1000
1000
,
1003
0000
0000
0000
0001
0000
0100
0000
0010
0000
0000
0010
0000
0000
0020
0000
,
0000
0100
0100
0100
,
1030
0100
0010
0001
,
0100
1001
0010
1001
,
0001
0000
1000
0010
0100
0000
0101
0000
,
0010
1010
0100
0101
,
0010
0000
1000
0100
0010
0000
0110
0000
,
0011
0011
1010
1010
,
2001
3100
1002
0103
,
1000
0000
0001
0000
0010
0000
0000
0000
0010
0000
0001
0000
1000
0000
0000
0M01
,
0000
0000
1000
0000
1000
0001
1000
0000
,
1000
0000
1000
0000
1000
0010
1000
0000
,
1000
0000
1000
0000
1000
0001
1000
0000
,
1000
1000
0020
0100
,
1000
0000
0130
0000
0001
1000
0001
0000
,
0001
0000
0001
0000
0001
0010
0001
0000
,
0001
0000
0001
0000
0001
1000
0001
0000
,
0001
0001
0020
0100
,
0001
0130
1000
1000
,
1000
0000
0000
0000
1000
0000
0000
0000
1000
0000
0000
0000
1000
0000
0000
0M00
,
0010
1001
0100
1001
,
0001
0000
1000
0100
0010
0000
0011
0000
,
0100
1100
0010
0011
,
0100
0000
1000
0010
0100
0000
0110
0000
,
0101
0101
1100
1100
,
2001
3010
1002
0013
,
1000
0001
0100
0000
0100
0001
1000
0000
,
0001
0001
1000
1000
,
2001
0010
0010
0010
,
3010
0000
0000
0000
1000
0000
0100
0000
0010
0000
0000
0100
0000
0000
2000
0000
,
0000
0100
0100
0100
,
3100
1000
0001
1000
,
1002
0010
0010
0010
,
0013
0000
0000
0000
0001
0000
0010
0000
0100
0000
0000
0010
0000
0000
0002
0000
,
0000
0100
0100
0100
,
0103
0000
0000
0001
,
2002
0000
0000
0000
,
3003
0000
0000
0000
;

//---------------dance-single - KevinRocker10----------------
#NOTES:
     dance-single:
     KevinRocker10:
     Easy:
     4:
     0.248098,0.318570,0.149163,0.245054,0.010655,163.000000,149.000000,14.000000,23.000000,2.000000,0.000000,0.248098,0.318570,0.149163,0.245054,0.010655,163.000000,149.000000,14.000000,23.000000,2.000000,0.000000:
0000
0000
0000
0000
,
0000
0000
0000
0000
,
0100
0100
0100
0100
,
0100
0100
0100
0100
,
2001
0000
3002
0000
,
0023
0000
0230
0000
,
2300
0000
3020
0000
,
0230
0000
0302
0000
,
2003
0000
3200
0000
,
0320
0000
0032
0000
,
0203
0000
0320
0000
,
2030
0000
0001
3000
,
0001
0001
1000
1000
,
0010
0010
0100
0100
,
0001
0001
1000
1000
,
0010
0010
0100
0100
,
0001
0100
1000
0100
,
0001
0100
1000
0100
,
0001
0000
0000
0000
0010
0000
0000
0000
0001
0000
0000
0000
0100
0000
0000
M000
,
0000
0001
0001
0001
,
2000
3100
1000
1000
,
0002
0103
0001
0001
,
2000
3100
0010
0010
,
0100
1000
1000
1000
,
0002
0013
0001
0001
,
2000
3010
1000
1000
,
0002
0013
0100
0100
,
0010
0000
0010
0010
,
0010
0000
0000
0000
0010
0000
0000
0000
0010
0000
0000
0000
0010
0000
0000
M000
,
0001
0001
1000
1000
,
0100
0100
0010
0010
,
0001
0001
1000
1000
,
0100
0100
0010
0010
,
0001
0010
1000
0010
,
0001
0010
1000
0010
,
0001
0100
0001
0010
,
0000
0010
0000
0000
,
1001
1001
1001
1000
,
0010
1000
0100
0010
,
0110
0110
0110
0100
,
1000
0010
1000
0100
,
1100
1100
1100
0100
,
0010
0001
0010
0100
,
0110
0110
0110
0100
,
1000
0000
0000
0000
,
2002
0000
0000
0000
,
3003
0000
0000
0000
;

//---------------dance-single - KevinRocker10----------------
#NOTES:
     dance-single:
     :
     Beginner:
     2:
     0.144597,0.191781,0.127854,0.000000,0.000000,95.000000,83.000000,12.000000,0.000000,0.000000,0.000000,0.144597,0.191781,0.127854,0.000000,0.000000,95.000000,83.000000,12.000000,0.000000,0.000000,0.000000:
0000
0000
0000
0000
,
0000
0000
0000
0000
,
0010
0000
0010
0000
,
0010
0000
0010
0000
,
0110
0000
0000
0000
,
1000
0000
0001
0000
,
1000
0000
0000
0000
,
1000
0000
0100
0000
,
0110
0000
0000
0000
,
0010
0000
0001
0000
,
0010
0000
0000
0000
,
0001
0001
0001
0000
,
1001
0000
0010
0000
,
1001
0000
1000
0000
,
0110
0000
0001
0000
,
0110
0000
0100
0000
,
1000
1000
1000
0000
,
0001
0001
0001
0000
,
0100
0100
0100
0000
,
0000
0010
0000
0010
,
0000
0100
0000
0100
,
0000
0010
0000
0010
,
0000
0100
0000
0100
,
0000
0001
0000
0001
,
0000
1000
0000
1000
,
0000
0001
0000
0001
,
0000
1000
0000
1000
,
0000
0000
0001
0000
,
0001
0000
0001
0000
,
1001
0000
0100
0000
,
1001
0000
1000
0000
,
0110
0000
0001
0000
,
0110
0000
0010
0000
,
0001
0001
0001
0000
,
1000
1000
1000
0000
,
0010
0010
0010
0000
,
0000
0000
0000
0000
,
0110
0000
0000
0000
,
0001
0000
1000
0000
,
0001
0000
0000
0000
,
0001
0000
0100
0000
,
0110
0000
0000
0000
,
0010
0000
1000
0000
,
0010
0000
0010
0000
,
0010
0000
0000
0000
,
1000
0000
0000
0000
;

//---------------dance-double - NewbStepper----------------
#NOTES:
     dance-double:
     :
     Hard:
     8:
     0.388128,0.416591,0.063927,0.340944,0.324962,255.000000,249.000000,6.000000,32.000000,2.000000,0.000000,0.388128,0.416591,0.063927,0.340944,0.324962,255.000000,249.000000,6.000000,32.000000,2.000000,0.000000:
// measure 0
00000000
00000000
00000000
00000000
,  // measure 1
00000000
00000000
00000000
00000000
,  // measure 2
10000000
00010000
10000000
00010000
,  // measure 3
00100000
01000000
00100000
01000000
,  // measure 4
00020000
00000000
00000000
00000000
00001000
00000000
00000000
00000000
00130000
00000000
00000000
00000000
00002000
00000000
00000000
00003010
,  // measure 5
00000000
00000000
00000100
00000000
00000200
00000000
00000000
00001300
00000000
00000000
00000001
00000000
00000002
00000000
00000000
00000103
,  // measure 6
00000000
00000000
00001000
00000000
00001000
00000000
00000000
00000000
00010000
00000000
01000000
00000000
10000000
00000000
00000000
00010000
,  // measure 7
00000000
00000000
01000000
00000000
02000000
00000000
00000000
03100000
00000000
00000000
00010000
00000000
00010000
00000000
00000000
00001000
,  // measure 8
00020000
00000000
00000000
00000000
00001000
00000000
00000000
00000000
01030000
00000000
00000000
00000000
00002000
00000000
00000000
00003100
,  // measure 9
00000000
00000000
00000010
00000000
00000020
00000000
00000000
00001030
00000000
00000000
00000001
00000000
00000002
00000000
00000000
00000013
,  // measure 10
00000000
00001000
00001000
00000000
00010000
00100000
10000000
00000000
,  // measure 11
11000000
01010000
00011000
00000110
,  // measure 12
00000001
00000000
00000000
00000000
00000001
00000000
00000000
00000000
00000001
00000000
00000000
00000000
00001000
00000000
00000000
00001000
,  // measure 13
00000100
00000000
00000010
00000000
00000010
00000000
00001000
00000000
00010000
00000000
01000000
00000000
10000000
00000000
00000000
00010000
,  // measure 14
00000000
00000000
01000000
00000000
01000000
00000000
00000000
00000000
00100000
00000000
00010000
00000000
00001000
00000000
00000000
00000010
,  // measure 15
00000000
00000000
00000001
00000000
00000001
00000000
00000100
00000000
00001000
00000000
00010000
00000000
01000000
00000000
00000000
10000000
,  // measure 16
00010000
00000000
00000000
00010000
01000000
00000000
00000000
01000000
00001000
00000000
00000000
00001000
00010000
00000000
00000000
00010000
,  // measure 17
00000010
00000000
00000100
00000000
00000100
00000000
00000000
00000001
00000000
00000000
00000010
00000000
00001000
00000000
00010000
01000000
,  // measure 18
00000000
00000000
10000000
00000000
10000000
00000000
00000000
00000000
00100000
00000000
00100000
00000000
00010000
00000000
00001000
0000010M
,  // measure 19
00000000
00000000
00000000
00000000
00000001
00000000
00000000
00001000
00000000
00000000
00000100
00000000
00000200
00000000
00000000
00000000
,  // measure 20
00000010
00000000
00000000
00000020
00000330
00000000
00000000
00001000
00000000
00000000
00010000
00000000
02000000
00000000
00000000
00000000
,  // measure 21
00100000
00000000
00000000
00200000
03300000
00000000
00000000
00001000
00000000
00000000
00010000
00000000
00000020
00000000
00000000
00000000
,  // measure 22
00000100
00000000
00000000
00000200
00000330
00000000
00000000
00000001
00000000
00000000
00000010
00000000
00001000
00000000
00000000
00010000
,  // measure 23
00000000
00000000
00100000
00000000
10000000
00000000
00000000
00010000
00000000
00000000
01000000
00000000
02000000
00000000
00000000
00000000
,  // measure 24
00100000
00000000
00000000
00200000
03300000
00000000
00000000
00010000
00000000
00000000
00001000
00000000
00000200
00000000
00000000
00000000
,  // measure 25
00000010
00000000
00000000
00000020
00000330
00000000
00000000
00010000
00000000
00000000
00001000
00000000
00200000
00000000
00000000
00000000
,  // measure 26
01000000
00000000
00000000
02000000
03300000
00000000
00000000
10000000
00000000
00000000
00100000
00000000
00010000
00000000
00000000
00001000
,  // measure 27
00000000
00000010
00000000
00000001
00000001
00000000
00000100
00001000
,  // measure 28
00010000
00000000
00000000
00100000
00000000
00000000
10000000
00000000
10000000
00000000
00000000
00010000
00000000
00000000
00010000
00M00000
,  // measure 29
10000000
00000000
00000000
00000000
10000000
00000000
00000000
00000000
10000000
00000000
00000000
00000000
00010000
00000000
00000000
00010000
,  // measure 30
01000000
00000000
00100000
00000000
00100000
00000000
00010000
00000000
00001000
00000000
00000100
00000000
00000001
00000000
00000000
00001000
,  // measure 31
00000000
00000000
00000100
00000000
00000100
00000000
00000000
00000000
00000010
00000000
00001000
00000000
00010000
00000000
00000000
00100000
,  // measure 32
00000000
00000000
10000000
00000000
10000000
00000000
01000000
00000000
00010000
00000000
00001000
00000000
00000100
00000000
00000000
00000001
,  // measure 33
00001000
00000000
00000000
00001000
00000100
00000000
00000000
00000100
00010000
00000000
00000000
00010000
00001000
00000000
00000000
00001000
,  // measure 34
00100000
00000000
01000000
00000000
01000000
00000000
00000000
10000000
00000000
00000000
00100000
00000000
00010000
00000000
00001000
00000100
,  // measure 35
00000000
00000000
00000001
00000000
00000001
00000000
00000000
00000000
00000010
00000000
00000010
00000000
00001000
00000000
00010000
01000000
,  // measure 36
00000000
00000000
10000000
00000000
10000000
00000000
00000000
00010000
00000000
00000000
01000000
00000000
00100000
00000000
00000000
00000000
,  // measure 37
00020000
00000000
00000000
00000000
00001000
00000000
00000000
00000000
01030000
00000000
00000000
00000000
00002000
00000000
00000000
00003100
,  // measure 38
00000000
00000000
00000010
00000000
00000020
00000000
00000000
00001030
00000000
00000000
00000001
00000000
00000002
00000000
00000000
00000013
,  // measure 39
00000000
00000000
00001000
00000000
00001000
00000000
00000000
00000000
00010000
00000000
00100000
00000000
10000000
00000000
00000000
10000000
,  // measure 40
00010000
00000000
00100000
00000000
00200000
00000000
00000000
01300000
00000000
00000000
00010000
00000000
00010000
00000000
00000000
00001000
,  // measure 41
00020000
00000000
00000000
00000000
00001000
00000000
00000000
00000000
00100000
00000000
00000000
00000000
00032000
00000000
00000000
00003010
,  // measure 42
00000000
00000000
00000100
00000000
00000200
00000000
00000000
00001300
00000000
00000000
00000001
00000000
00000002
00000000
00000000
00000103
,  // measure 43
00000000
00000000
00001000
00000000
00001000
00000000
00000000
00000000
00010000
00000000
01000000
00000000
10000000
00000000
00000000
10010000
,  // measure 44
00000000
00000000
00000000
00000100
,  // measure 45
00002002
00000000
00000000
00000000
,  // measure 46
00003003
00000000
00000000
00000000
;

//---------------dance-double - NewbStepper----------------
#NOTES:
     dance-double:
     :
     Medium:
     6:
     0.318113,0.343075,0.095891,0.117200,0.058600,209.000000,200.000000,9.000000,11.000000,2.000000,0.000000,0.318113,0.343075,0.095891,0.117200,0.058600,209.000000,200.000000,9.000000,11.000000,2.000000,0.000000:
// measure 0
00000000
00000000
00000000
00000000
,  // measure 1
00000000
00000000
00000000
00000000
,  // measure 2
00000001
00000001
00001000
00001000
,  // measure 3
00000100
00000100
00010000
00010000
,  // measure 4
00002000
00000000
00000000
00000000
01000000
00000000
00000000
00000000
01000000
00000000
00000000
00000000
01003000
00000000
00000000
00010000
,  // measure 5
00000000
00000000
10000000
00000000
01000000
00000000
00000000
00000000
00010000
00000000
00001000
00000000
00010000
00000000
00000000
00000010
,  // measure 6
00000000
00010000
00020000
00000000
00000100
00000000
00000100
00000000
,  // measure 7
00030100
00001000
00000001
00000000
00000010
00001000
00010000
00000000
,  // measure 8
00002000
00000000
00000000
00000000
00100000
00000000
00000000
00000000
00100000
00000000
00000000
00000000
00103000
00000000
00000000
00010000
,  // measure 9
00000000
00000000
10000000
00000000
00100000
00000000
00000000
00000000
00010000
00000000
00001000
00000000
00010000
00000000
00000000
00000100
,  // measure 10
00000000
00010000
00001000
00000000
00000100
00000000
00000001
00000000
,  // measure 11
00001000
00000100
00010000
00000000
,  // measure 12
00001000
00001000
00001000
01000000
,  // measure 13
00010000
10000000
01000000
00000000
00010000
00000000
00001000
00000000
,  // measure 14
00000100
00000001
00000010
00000001
,  // measure 15
00001000
00000001
00000100
00000000
00001000
00000000
00010000
00000000
,  // measure 16
01000000
10100000
00010000
01001000
,  // measure 17
00011000
00000100
00011000
01000000
,  // measure 18
00010000
00000000
00001000
00000000
00000100
00000000
00000000
00000000
00000001
00000000
00000010
00000000
00000001
00000000
00000000
000010M0
,  // measure 19
00000000
00000000
00000100
00000000
00010000
00001000
00010000
00000000
,  // measure 20
00000100
00000000
00010000
00000000
00001000
00010000
00001000
00000000
,  // measure 21
00100000
00000000
00010000
00000000
10000000
01000000
10000000
00000000
,  // measure 22
00010000
00200000
00001000
00010000
,  // measure 23
00301000
00000000
01000000
00000000
00001000
00010000
00001000
00000000
,  // measure 24
01000000
00000000
00001000
00000000
00010000
00001000
00010000
00000000
,  // measure 25
00000010
00000000
00001000
00000000
00000001
00000100
00000001
00000000
,  // measure 26
00001000
00000020
00010000
00001000
,  // measure 27
00010030
00000100
00010000
00001000
,  // measure 28
00100000
00000000
00000000
00000000
00010000
00000000
00000000
00000000
10000000
00000000
00000000
00000000
01000000
00000000
00000000
00M00000
,  // measure 29
00010000
00010000
00010000
00000100
,  // measure 30
00001000
00000001
00000100
00000000
00001000
00000000
00010000
00000000
,  // measure 31
01000000
10000000
00100000
10000000
,  // measure 32
00010000
10000000
01000000
00000000
00010000
00000000
00001000
00000000
,  // measure 33
00000100
00000011
00001000
00010100
,  // measure 34
00011000
01000000
00011000
00000100
,  // measure 35
00001000
00010000
01000000
00000000
10000000
00100000
20000000
00000000
,  // measure 36
00010000
30010000
01000000
00001000
,  // measure 37
00020000
00000000
00000000
00000000
00000100
00000000
00000000
00000000
00000100
00000000
00000000
00000000
00030100
00000000
00000000
00001000
,  // measure 38
00000000
00000000
00000001
00000000
00000100
00000000
00000000
00000000
00001000
00000000
00010000
00000000
00001000
00000000
00000000
00100000
,  // measure 39
00000000
00001000
00002000
00000000
01000000
00000000
01000000
00000000
,  // measure 40
01003000
00010000
10000000
00000000
00100000
00010000
00001000
00000000
,  // measure 41
00020000
00000000
00000000
00000000
00000010
00000000
00000000
00000000
00000010
00000000
00000000
00000000
00030010
00000000
00000000
00001000
,  // measure 42
00000000
00000000
00000001
00000000
00000010
00000000
00000000
00000000
00001000
00000000
00010000
00000000
00001000
00000000
00000000
01000000
,  // measure 43
00000000
00000000
00001000
00000000
00010000
00000000
00000000
00000000
01000000
00000000
00000000
00000000
10000000
00000000
00000000
00100000
,  // measure 44
00000000
00000000
00000000
10000000
,  // measure 45
20020000
00000000
00000000
00000000
,  // measure 46
30030000
00000000
00000000
00000000
;

//---------------dance-double - NewbStepper----------------
#NOTES:
     dance-double:
     :
     Easy:
     4:
     0.249620,0.318570,0.149163,0.245054,0.010655,164.000000,150.000000,14.000000,23.000000,2.000000,0.000000,0.249620,0.318570,0.149163,0.245054,0.010655,164.000000,150.000000,14.000000,23.000000,2.000000,0.000000:
// measure 0
00000000
00000000
00000000
00000000
,  // measure 1
00000000
00000000
00000000
00000000
,  // measure 2
00001000
00001000
00001000
00001000
,  // measure 3
00010000
00010000
00010000
00010000
,  // measure 4
00022000
00000000
00033000
00100000
,  // measure 5
20000000
00000000
30020000
00000000
,  // measure 6
02030000
00000000
03002000
00000000
,  // measure 7
00023000
00000000
00030020
00000000
,  // measure 8
00002030
00000000
00003002
00000000
,  // measure 9
00000203
00000000
00000320
00000000
,  // measure 10
00020030
00000000
00032000
00000000
,  // measure 11
02003000
00000000
03010000
00000000
,  // measure 12
10000000
10000000
00010000
00010000
,  // measure 13
01000000
01000000
00001000
00001000
,  // measure 14
00010000
00010000
00000010
00000010
,  // measure 15
00001000
00001000
00000001
00000001
,  // measure 16
00001000
00000001
00000100
00001000
,  // measure 17
00010000
01000000
10000000
01000000
,  // measure 18
00010000
00000000
00000000
00000000
00001000
00000000
00000000
00000000
00000010
00000000
00000000
00000000
00000100
00000000
00000000
0000000M
,  // measure 19
00000000
00001000
00001000
00001000
,  // measure 20
00000020
00010030
00001000
00001000
,  // measure 21
00200000
00301000
00010000
00010000
,  // measure 22
00000200
00010300
00001000
00001000
,  // measure 23
01000000
00010000
10000000
00010000
,  // measure 24
00200000
00301000
00010000
00010000
,  // measure 25
00000020
00010030
00001000
00001000
,  // measure 26
02000000
03001000
00010000
00010000
,  // measure 27
00000100
00000000
00000010
00000010
,  // measure 28
00000001
00000000
00000000
00000000
00000001
00000000
00000000
00000000
00001000
00000000
00000000
00000000
00001000
00000000
00000000
00000M00
,  // measure 29
00000010
00000010
00010000
00010000
,  // measure 30
00001000
00001000
01000000
01000000
,  // measure 31
00010000
00010000
10000000
10000000
,  // measure 32
00100000
00100000
01000000
01000000
,  // measure 33
00001000
00010000
01000000
00010000
,  // measure 34
00001000
00000010
00001000
00010000
,  // measure 35
00100000
00010000
00001000
00000100
,  // measure 36
00000001
00000010
00000000
00000000
,  // measure 37
00001001
00001001
00001001
00001000
,  // measure 38
00000001
00000100
00000010
00010000
,  // measure 39
00011000
00011000
00011000
00001000
,  // measure 40
01000000
00100000
10000000
00010000
,  // measure 41
10010000
10010000
10010000
00010000
,  // measure 42
10000000
01000000
00100000
00001000
,  // measure 43
00011000
00011000
00011000
00010000
,  // measure 44
00000100
00000000
00000000
00000000
,  // measure 45
00002002
00000000
00000000
00000000
,  // measure 46
00003003
00000000
00000000
00000000
;
