#TITLE:Here For You;
#SUBTITLE:;
#ARTIST:Gorgon City feat. Laura Welsh;
#TITLETRANSLIT:;
#SUBTITLETRANSLIT:;
#ARTISTTRANSLIT:;
#GENRE:;
#CREDIT:DiscoStu;
#BANNER:Here For You.png;
#BACKGROUND:Here For You-bg.png;
#LYRICSPATH:;
#CDTITLE:;
#MUSIC:Here For You.mp3;
#OFFSET:-0.100000;
#SAMPLESTART:71.903000;
#SAMPLELENGTH:12.000000;
#SELECTABLE:YES;
#BPMS:0.000000=122.000000
;
#STOPS:
;
#BGCHANGES:;
#KEYSOUNDS:;
#ATTACKS:;

//---------------dance-single - ----------------
#NOTES:
     dance-single:
     :
     Hard:
     7:
     0.325828,0.420314,0.066247,0.255525,0.127762,241.000000,234.000000,7.000000,27.000000,0.000000,0.000000,0.325828,0.420314,0.066247,0.255525,0.127762,241.000000,234.000000,7.000000,27.000000,0.000000,0.000000:
0000
0000
0000
0000
,
0000
0000
0000
0000
,
0000
0000
0000
0000
,
0000
0000
0000
0000
,
0000
0000
0000
0000
0000
0100
0001
1000
,
0010
0000
0000
1000
0000
0000
0000
0000
0000
0000
0001
0000
0100
0000
1000
0000
,
0100
0001
0010
0000
0001
0000
0100
0000
,
0010
0000
0000
0000
1000
0000
0000
0000
0001
0000
0000
0000
0110
0000
0000
0001
,
1000
0100
0010
0000
0001
0100
0001
1000
,
0010
0000
0000
0100
0000
0000
0000
0000
0000
0000
0001
0000
1000
0000
0100
0000
,
0001
0100
1000
0000
0010
0000
0100
0000
,
0001
0000
0000
0000
1000
0000
0000
0000
0001
0000
0000
0000
0110
0000
0000
1000
,
0001
0100
0010
0000
0000
1000
0100
0010
,
0001
0000
0000
0100
0000
0000
0000
0000
0000
0000
0010
0000
0001
0000
0010
0000
,
1000
0100
0010
0000
0001
0000
0100
0000
,
1000
0000
0000
0000
0100
0000
0000
0000
0010
0000
0000
0000
1001
0000
0000
0010
,
0100
0001
0010
0000
0000
0001
0100
0010
,
1000
0000
0000
0100
0000
0000
0000
0000
0000
0000
0010
0000
1000
0000
0010
0000
,
0001
0100
0010
0000
1000
0000
0100
0000
,
0001
0000
0000
0000
0100
0000
0000
0000
0010
0000
0000
0000
1001
0000
0000
1000
,
0001
1000
0100
0010
0002
0000
0003
0000
,
1000
0100
0001
0100
2000
0000
3000
0000
,
0001
0100
1000
0100
0000
0010
0000
1000
,
0001
0010
0200
0000
0000
0000
0300
0000
,
1000
0001
0100
0010
2000
0000
3000
0000
,
0001
0100
1000
0100
0002
0000
0003
0000
,
1000
0100
0001
0100
0020
0000
1000
0000
,
0001
0000
0200
0000
0000
0000
0330
2000
,
0000
0000
0000
0000
0020
3000
0000
0200
,
0000
0000
0030
0000
0002
0300
0000
0020
,
0000
0000
0003
0000
0200
0030
0000
2000
,
0000
0300
3001
0010
,
0001
0010
0100
1000
0010
0100
1000
0100
,
0001
0000
0000
0001
0100
0000
0000
0100
0010
0000
0000
0010
1000
0000
0000
1000
,
0100
0000
0000
0100
0001
0000
0000
0001
0100
0000
0000
0100
1000
0000
0000
1000
,
0010
0000
0000
0010
0100
0000
0000
0100
0001
0000
0000
0001
0010
0000
0000
0010
,
0200
0000
0000
0000
0310
0001
0100
1000
,
0100
0010
0100
0001
1000
0001
0010
0100
,
0001
0100
2000
0000
3000
0001
1000
0100
,
0001
0000
0100
0000
0020
0000
0000
0000
0031
0000
0100
0000
1000
0000
0000
1000
,
0100
0001
0010
0000
0220
0000
0330
1000
,
0100
0010
0001
0100
0000
1000
0100
0001
,
0010
0000
0000
0010
0100
0000
0000
0000
0000
0000
0001
0000
0100
0000
1000
0000
,
0010
0000
0000
0010
0100
0000
0000
0000
0001
1000
0000
0200
0000
0000
0010
0000
,
0310
0110
2002
0000
,
0000
0003
0020
0000
,
0000
3000
0200
0000
,
0000
0000
0000
0330
,
0001
0000
1000
0000
0001
1000
0100
0010
,
0001
0000
0000
0100
0000
0000
1000
0000
0100
0000
0000
0000
0001
0000
0020
0000
,
0000
0000
0000
0000
0030
1000
0010
0001
,
0100
0000
0000
0020
0000
0000
0000
0000
0000
0000
2000
0000
0000
0000
0000
0000
,
0000
3030
0000
0000
;

//---------------dance-single - ----------------
#NOTES:
     dance-single:
     :
     Medium:
     5:
     0.270396,0.370865,0.037855,0.151422,0.000000,200.000000,196.000000,4.000000,16.000000,0.000000,0.000000,0.270396,0.370865,0.037855,0.151422,0.000000,200.000000,196.000000,4.000000,16.000000,0.000000,0.000000:
0000
0000
0000
0000
,
0000
0000
0000
0000
,
0000
0000
0000
0000
,
0000
0000
0000
0000
,
0000
0000
0000
0000
0001
0000
0100
0010
,
0100
0000
0001
0000
1000
0000
0010
0100
,
0010
1000
0001
0000
0100
0000
1000
0000
,
0100
0001
0010
0100
,
0001
0100
1000
0000
0001
0000
0010
0100
,
0010
0000
0001
0000
1000
0000
0100
0010
,
0100
1000
0001
0000
0010
0000
0100
0000
,
1000
0000
0010
0000
0001
0000
0010
1000
,
0100
0000
1001
0000
1000
0000
0100
0010
,
0100
0000
1000
0000
0001
0000
0010
0100
,
0010
0001
1000
0000
0100
0000
0001
0000
,
0100
1000
0010
0100
,
1000
0100
0001
0000
1000
0000
0010
0100
,
0010
0000
1000
0000
0001
0000
0100
0010
,
0100
0001
1000
0000
0010
0000
0100
0000
,
0001
0000
0010
0000
1000
0000
0010
0001
,
0100
0000
1000
0100
0001
0000
0010
0000
,
0100
1000
0001
0000
0020
0000
0030
0000
,
0001
0100
0010
1000
0000
0001
0000
1000
,
0100
1000
0002
0000
0000
0000
0003
0000
,
0010
0000
1000
0010
0001
0000
0100
0000
,
0010
1000
0001
0000
0200
0000
0300
0000
,
0010
0000
0010
0000
1000
0000
1000
0002
,
0000
0000
0000
0000
0000
0000
0000
2003
,
0000
0000
0000
0000
0000
0000
0000
3020
,
0000
0000
0000
0000
0000
0000
0000
0230
,
0000
0000
0000
0000
0000
0000
0000
0302
,
0000
0000
0000
0000
0000
0000
0000
0023
,
0000
0030
0100
1000
,
0001
1000
0010
0100
,
0001
0000
0010
0000
0001
1000
0001
1000
,
0010
0100
0010
0100
0001
0000
1001
0000
,
0100
0000
1001
0000
0010
0001
1000
0001
,
0010
0000
0100
1000
0001
0000
0100
0000
,
1000
0100
0001
0000
1000
0000
0100
0000
,
0001
0100
1000
0000
0001
0000
0100
0000
,
0001
0000
0100
0000
0010
1000
0001
1000
,
0010
0000
0100
0001
1000
0000
0100
0000
,
0001
0100
1000
0000
0001
0000
0100
0000
,
1000
0100
0001
0000
0010
0000
0001
0100
,
0010
1001
0002
0000
,
0000
0000
0020
0000
,
0000
0003
0200
0000
,
0000
0000
0000
0330
,
1000
0000
0001
0000
1000
0000
0100
0010
,
0001
0000
0100
0000
0020
0000
0000
1030
,
0000
0001
1000
0010
0200
0000
0000
0000
,
0002
0000
0000
0300
0000
2000
0000
0000
,
0000
3003
0000
0000
;

//---------------dance-single - ----------------
#NOTES:
     dance-single:
     :
     Easy:
     3:
     0.168998,0.247244,0.047319,0.217669,0.000000,125.000000,120.000000,5.000000,23.000000,0.000000,0.000000,0.168998,0.247244,0.047319,0.217669,0.000000,125.000000,120.000000,5.000000,23.000000,0.000000,0.000000:
0000
0000
0000
0000
,
0000
0000
0000
0000
,
0000
0000
0000
0000
,
0000
0000
0000
0000
,
0000
0000
1000
1000
,
0010
0010
0100
0001
,
1000
0001
0020
0000
,
0130
0100
1000
0001
,
1000
1000
0001
0001
,
0010
0010
0100
1000
,
0001
1000
0020
0000
,
0130
0100
0001
1000
,
0001
0001
0010
0001
,
0100
0010
1000
0100
,
0001
0100
2000
0000
,
3001
0001
0100
0010
,
1000
1000
0010
1000
,
0100
0010
0001
0100
,
1000
0100
0002
0000
,
1003
1000
0001
1000
,
0010
0100
0002
0000
,
0000
0000
0203
0000
,
0000
0000
0320
0000
,
0000
0000
0000
0030
,
1001
0000
2000
0000
,
0000
0000
3200
0000
,
0000
0000
0320
0000
,
0000
0000
0000
0030
,
0000
0000
0002
0000
,
0000
0003
2000
0000
,
0000
3000
0020
0000
,
0000
0030
0002
0000
,
0000
0003
0200
0000
,
0000
0300
1000
0001
,
1000
0001
0100
0010
,
0100
0010
2000
3100
,
0002
0103
1000
0001
,
0100
1000
0100
0001
,
0010
0110
0000
1000
,
0010
0110
0001
1000
,
0100
0010
0001
1000
,
0100
0001
0100
1000
,
0010
0110
0000
0001
,
0010
0110
1000
0100
,
0010
0001
2000
0000
,
0000
0000
3200
0000
,
0000
0000
0320
0000
,
0000
0000
0000
0000
,
0000
0000
0032
0000
,
0000
0000
0203
0000
,
0000
0000
0020
0000
,
0000
0000
0000
0000
,
0000
0330
0000
0000
;

//---------------dance-single - ----------------
#NOTES:
     dance-single:
     :
     Beginner:
     1:
     0.109511,0.148346,0.000000,0.094639,0.000000,81.000000,81.000000,0.000000,10.000000,0.000000,0.000000,0.109511,0.148346,0.000000,0.094639,0.000000,81.000000,81.000000,0.000000,10.000000,0.000000,0.000000:
0000
0000
0000
0000
,
0000
0000
0000
0000
,
0000
0000
0000
0000
,
0000
0000
0000
0000
,
0000
0000
1000
0000
,
1000
0000
0001
0000
,
0001
0000
0100
0000
,
0010
0010
0010
0000
,
1000
0000
0001
0000
,
0001
0000
1000
0000
,
1000
0000
0100
0000
,
0010
0010
0010
0000
,
0001
0000
0100
0000
,
0100
0000
0010
0000
,
0010
0000
1000
0000
,
0001
0001
0001
0000
,
1000
0000
0100
0000
,
0100
0000
0010
0000
,
0010
0000
0001
0000
,
1000
0000
0001
0000
,
0100
0000
0010
0000
,
0000
0000
1000
0000
,
0000
0000
0002
0000
,
0000
0000
0003
0000
,
0000
0000
0010
0000
,
0000
0000
0001
0000
,
0000
0000
2000
0000
,
0000
0000
3000
0000
,
0000
0000
0001
0000
,
0001
0000
0100
0000
,
0100
0000
1000
0000
,
1000
0000
0100
0000
,
0100
0000
0001
0000
,
1000
0000
0010
0000
,
0100
0000
0001
0000
,
1000
0000
0100
0000
,
0010
0000
0001
0001
,
0001
0000
1000
0000
,
0010
0010
0000
0000
,
0100
0100
0000
0002
,
0000
0003
1000
1000
,
1000
0000
0001
0000
,
0010
0010
0000
0000
,
0100
0100
0000
2000
,
0000
3000
0002
0000
,
0003
0000
0200
0000
,
0300
0000
0020
0000
,
0000
0000
0000
0000
,
0030
0000
2000
0000
,
3000
0000
0200
0000
,
0300
0000
0020
0000
,
0000
0000
0000
0000
,
0000
0030
0000
0000
;

//---------------dance-double - ----------------
#NOTES:
     dance-double:
     :
     Hard:
     7:
     0.319068,0.419309,0.028392,0.255525,0.104103,236.000000,233.000000,3.000000,27.000000,0.000000,0.000000,0.319068,0.419309,0.028392,0.255525,0.104103,236.000000,233.000000,3.000000,27.000000,0.000000,0.000000:
// measure 0
00000000
00000000
00000000
00000000
,  // measure 1
00000000
00000000
00000000
00000000
,  // measure 2
00000000
00000000
00000000
00000000
,  // measure 3
00000000
00000000
00000000
00000000
,  // measure 4
00000000
00000000
00000000
00000000
00000000
00000010
00000001
00001000
,  // measure 5
00000100
00000000
00000000
00000010
00000000
00000000
00000000
00000000
00000000
00000000
00001000
00000000
00010000
00000000
01000000
00000000
,  // measure 6
10000000
00100000
01000000
00000000
00001000
00000000
00010000
00000000
,  // measure 7
00000100
00000000
00000000
00000000
00000010
00000000
00000000
00000000
00000001
00000000
00000000
00000000
00001010
00000000
00000000
00000010
,  // measure 8
00010000
00001000
01000000
00000000
00000000
00100000
10000000
00010000
,  // measure 9
01000000
00000000
00000000
00100000
00000000
00000000
00000000
00000000
00000000
00000000
00010000
00000000
00001000
00000000
00000100
00000000
,  // measure 10
00000001
00000010
00000100
00000000
00010000
00000000
00001000
00000000
,  // measure 11
01000000
00000000
00000000
00000000
00100000
00000000
00000000
00000000
10000000
00000000
00000000
00000000
00110000
00000000
00000000
00100000
,  // measure 12
00001000
00010000
00000100
00000000
00000000
00000010
00000001
00000100
,  // measure 13
00001000
00000000
00000000
00010000
00000000
00000000
00000000
00000000
00000000
00000000
00100000
00000000
10000000
00000000
00010000
00000000
,  // measure 14
01000000
00100000
00010000
00000000
00001000
00000000
00000100
00000000
,  // measure 15
00000001
00000000
00000000
00000000
00001000
00000000
00000000
00000000
00000010
00000000
00000000
00000000
00000100
00000000
00000000
00001000
,  // measure 16
00010000
01000000
10000000
00000000
00000000
00100000
10000000
01000000
,  // measure 17
00010000
00000000
00000000
00001000
00000000
00000000
00000000
00000000
00000000
00000000
00000010
00000000
00000001
00000000
00001000
00000000
,  // measure 18
00000100
00000010
00001000
00000000
00010000
00000000
01000000
00000000
,  // measure 19
10000000
00000000
00000000
00000000
00010000
00000000
00000000
00000000
00100000
00000000
00000000
00000000
00001000
00000000
00000000
00010000
,  // measure 20
00001000
00000100
00000001
00000010
00000200
00000000
00010300
00000000
,  // measure 21
00001000
00010000
00100000
10000000
02000000
00000000
00000000
00000000
,  // measure 22
03010000
00001000
00000100
00000001
00000020
00000000
00000000
00000000
,  // measure 23
00000200
00000000
00000000
00000330
,  // measure 24
00010000
01000000
10000000
00100000
02000000
00000000
03001000
00000000
,  // measure 25
00010000
00001000
00000010
00000001
00000200
00000000
00000000
00000000
,  // measure 26
00001300
00010000
01000000
10000000
00200000
00000000
00000000
00000000
,  // measure 27
02000000
00000000
00000000
00000000
00000000
00000000
03300000
00020000
,  // measure 28
00000000
00000000
00000000
00000000
02000000
00030000
00000000
00002000
,  // measure 29
03000000
00000000
00000000
00000000
00000200
00003000
00000000
00020000
,  // measure 30
00000300
00000000
00000000
00000000
00200000
00030000
00000000
00002000
,  // measure 31
00300000
00000000
00003010
00000001
,  // measure 32
00000100
00001000
00010000
01000000
00010000
00001000
00000010
00001000
,  // measure 33
00010000
00100000
10000000
00010000
10000000
01000000
00010000
00001000
,  // measure 34
00000010
00000000
00000001
00000000
00001000
00000000
00000001
00000000
00000100
00000000
00000000
00000100
00001000
00000000
00000000
00001000
,  // measure 35
00010000
00000000
00000000
00010000
00100000
00000000
00000000
00100000
10000000
00000000
00000000
10000000
00010000
00000000
00000000
00010000
,  // measure 36
02000000
00000000
03002000
00000000
00013000
00000100
00000010
00000100
,  // measure 37
00000001
00000100
00001000
00000010
00010000
00000100
00010000
00001000
,  // measure 38
00010000
00000000
00000000
00100000
20000000
00000000
00000000
00000000
30000000
00000000
00010000
00000000
10000000
00000000
01000000
00000000
,  // measure 39
00010000
00000000
00000000
00001000
00000100
00000000
00000001
00000000
00000010
00000000
00000000
00000000
00000001
00000000
00000100
00000000
,  // measure 40
00002000
00000000
00013000
00000000
00001000
01000000
00100000
01000000
,  // measure 41
10000000
01000000
00010000
00100000
00001000
01000000
00001000
00010000
,  // measure 42
00001000
00000000
00000000
00000010
00000002
00000000
00000000
00000000
00000003
00000000
00001000
00000000
00000001
00000000
00000100
00000000
,  // measure 43
00001000
00000000
00000000
00010000
01000000
00000000
10000000
00000000
00100000
01000000
00000000
00002000
00000000
00000000
00000000
00000000
,  // measure 44
00000000
00010000
00013000
00000000
00021000
00000000
00000000
00000000
,  // measure 45
00000000
00000000
00000020
00000000
,  // measure 46
00000000
00030000
00000200
00000000
,  // measure 47
00000000
00000000
00000000
00000330
,  // measure 48
00000001
00000000
00001000
00000000
00000001
00000010
00000100
00010000
,  // measure 49
00001000
00000000
00000000
00100000
00000000
00000000
00010000
00000000
01000000
00000000
00000000
00000000
10000000
00000000
02000000
00000000
,  // measure 50
00000000
00000000
00000000
00000000
03000000
00010000
10000000
01000000
,  // measure 51
00100000
00000000
00000000
00002000
00000000
00000000
00000000
00000000
00000000
00000000
00020000
00000000
00000000
00000000
00000000
00000000
,  // measure 52
00000000
00033000
00000000
00000000
00000000
00000000
00000000
00000000
;

//---------------dance-double - ----------------
#NOTES:
     dance-double:
     :
     Medium:
     5:
     0.267692,0.346141,0.028392,0.151422,0.000000,198.000000,195.000000,3.000000,16.000000,0.000000,0.000000,0.267692,0.346141,0.028392,0.151422,0.000000,198.000000,195.000000,3.000000,16.000000,0.000000,0.000000:
00000000
00000000
00000000
00000000
,
00000000
00000000
00000000
00000000
,
00000000
00000000
00000000
00000000
,
00000000
00000000
00000000
00000000
,
00000000
00000000
00000000
00000000
10000000
00000000
01000000
00100000
,
01000000
00000000
10000000
00000000
00010000
00000000
00100000
01000000
,
00100000
00001000
00010000
00000000
00000010
00000000
00000100
00000000
,
00000001
00000010
00001000
00010000
,
00100000
10000000
01000000
00000000
10000000
00000000
00100000
01000000
,
00100000
00000000
10000000
00000000
00010000
00000000
01000000
00100000
,
01000000
00001000
00010000
00000000
00000100
00000000
00000010
00000000
,
00000001
00000100
00001000
00010000
,
01000000
10000000
00100000
00000000
00010000
00000000
00001000
00010000
,
01000000
00000000
00100000
00000000
00001000
00000000
00010000
00001000
,
00000100
00000001
00001000
00000000
00000010
00000000
00010000
00000000
,
00001000
01000000
10000000
01000000
,
00010000
00000000
00100000
00000000
00001000
00000000
00010000
00001000
,
00000100
00000000
00000010
00000000
00010000
00000000
00001000
00010000
,
01000000
10000000
00010000
00000000
00100000
00000000
00001000
00000000
,
00010000
00000000
00000100
00000000
00000001
00000000
00000100
00000010
,
00000100
00010000
00001000
00000000
00200000
00000000
00300000
00000000
,
01000000
00010000
00001000
00000000
00000020
00000000
00000030
00000000
,
00000001
00001000
00000100
00000010
00000000
00001000
00000000
00010000
,
00100000
10000000
00020000
00000000
00000000
00000000
00030000
00000000
,
01000000
00100000
01000000
00001000
00010000
00000000
00000020
00000000
,
00000130
00001000
00010000
00000000
00200000
00000000
00300000
00000000
,
10000000
00010000
01000000
00100000
00000000
00010000
00000000
00001000
,
00000010
00000001
00002000
00000000
00000000
00000000
00000000
00003200
,
00000000
00000000
00000000
00000000
00000000
00000000
00000000
00020300
,
00000000
00000000
00000000
00000000
00000000
00000000
00000000
00032000
,
00000000
00000000
00000000
00000000
00000000
00000000
00000000
02003000
,
00000000
03000000
00010000
10000000
,
01000000
10000000
00010000
00100000
,
00001000
00010000
00000010
00001000
,
00000001
00000100
00000010
00010000
,
00001000
01000000
00100000
10010000
,
01000000
00000000
10010000
00000000
01000000
10000000
00010000
10000000
,
01000000
00000000
00010000
00001000
00000100
00000000
00000001
00000000
,
00000010
00000001
00001000
00000000
00000001
00000000
00000100
00001000
,
00010000
00100000
10000000
01000000
,
00010000
00000000
00001000
00000000
00000100
00000001
00001000
00000001
,
00000100
00000000
00001000
00010000
01000000
00000000
10000000
00000000
,
00100000
10000000
00010000
00000000
10000000
00000000
01000000
00010000
,
00001000
00000000
00000010
00000000
00000001
00000000
00001000
00000100
,
00000010
00010100
00002000
00000000
,
00000000
00000000
00020000
00000000
,
00000000
00003000
02000000
00000000
,
00000000
00000000
00000000
03030000
,
00100000
00000000
00010000
00000000
01000000
00000000
10000000
01000000
,
00010000
00000000
00100000
00000000
00002000
00000000
00000000
00013000
,
00000000
00001000
00000020
00000000
00000000
00000000
00000000
00000000
,
00000200
00000000
00000000
00000000
,
00000000
00000330
00000000
00000000
;

//---------------dance-double - ----------------
#NOTES:
     dance-double:
     :
     Easy:
     3:
     0.166294,0.247244,0.047319,0.236597,0.000000,123.000000,118.000000,5.000000,25.000000,0.000000,0.000000,0.166294,0.247244,0.047319,0.236597,0.000000,123.000000,118.000000,5.000000,25.000000,0.000000,0.000000:
00000000
00000000
00000000
00000000
,
00000000
00000000
00000000
00000000
,
00000000
00000000
00000000
00000000
,
00000000
00000000
00000000
00000000
,
00000000
00000000
10000000
10000000
,
00020000
00030000
01000000
00001000
,
00010000
00000020
00001030
00000001
,
00000100
00000100
00000010
00000010
,
00002000
00000000
00003001
00000001
,
00002000
00003000
00000100
00010000
,
00001000
00200000
00310000
10000000
,
01000000
01000000
00100000
00100000
,
00020000
00000000
10030000
01000000
,
00100000
00001000
00010000
00000100
,
00000010
00000001
00002000
00000000
,
00003010
00000010
00000100
00000100
,
00000001
00001000
00000001
00000100
,
00000010
00010000
00001000
01000000
,
00100000
10000000
00020000
00000000
,
00130000
00100000
01000000
01000000
,
10000000
01000000
00020000
00000000
,
00000000
00000000
00032000
00000000
,
00000000
00000000
00003200
00000000
,
00000000
00000000
00000000
00000300
,
00000110
00000000
00020000
00000000
,
00000000
00000000
00032000
00000000
,
00000000
00000000
02003000
00000000
,
00000000
00000000
00000000
03000000
,
00000000
00000000
00200000
00000000
,
00000000
00300000
20000000
00000000
,
00000000
30000000
02000000
00000000
,
00000000
03000000
00020000
00000000
,
00000000
00030000
00002000
00000000
,
00000000
00003000
00000100
00000001
,
00000100
00000001
00001000
00000010
,
00001000
00000010
00010000
00001000
,
00010000
00001000
00100000
00010000
,
00100000
00010000
10000000
01000000
,
00010000
00011000
00000000
00000100
,
00001000
00011000
00000010
00000100
,
00000001
00000100
00000010
00001000
,
00000010
00001000
00000001
00000100
,
00001000
00011000
00000000
01000000
,
00010000
00011000
00100000
10000000
,
01000000
00100000
00020000
00000000
,
00000000
00000000
00230000
00000000
,
00000000
00000000
00302000
00000000
,
00000000
00000000
00000000
00000000
,
00000000
00000000
00023000
00000000
,
00000000
00000000
00030020
00000000
,
00000000
00000000
00000200
00000000
,
00000000
00000000
00000000
00000000
,
00000000
00000330
00000000
00000000
;
