#TITLE:Carte Blanche;
#SUBTITLE:;
#ARTIST:Veracocha;
#TITLETRANSLIT:;
#SUBTITLETRANSLIT:;
#ARTISTTRANSLIT:;
#GENRE:;
#CREDIT:DiscoStu & NewbStepper;
#BANNER:Carte Blanche.png;
#BACKGROUND:Carte Blanche-bg.png;
#LYRICSPATH:;
#CDTITLE:;
#MUSIC:Carte Blanche.mp3;
#OFFSET:-1.420002;
#SAMPLESTART:71.700996;
#SAMPLELENGTH:12.000000;
#SELECTABLE:YES;
#BPMS:0.000000=140.009995
;
#STOPS:
;
#BGCHANGES:;
#KEYSOUNDS:;
#ATTACKS:;

//---------------dance-single - NewbStepper----------------
#NOTES:
     dance-single:
     :
     Hard:
     9:
     0.489399,0.730235,0.151836,0.085408,0.441273,361.000000,345.000000,16.000000,9.000000,0.000000,0.000000,0.489399,0.730235,0.151836,0.085408,0.441273,361.000000,345.000000,16.000000,9.000000,0.000000,0.000000:
// measure 0
0000
0000
0000
0000
,  // measure 1
1000
0100
0010
0001
0100
1000
0100
0001
,  // measure 2
1000
0010
0100
0001
1000
0100
0001
0100
,  // measure 3
1000
0001
1000
0001
,  // measure 4
0100
0001
0010
0100
1000
0010
0100
0000
,  // measure 5
0001
0100
0010
1000
0100
0001
0100
1000
,  // measure 6
0001
0010
0100
1000
0001
0100
1000
0100
,  // measure 7
0001
0000
0010
0001
0000
0001
0000
0100
0010
0000
1000
0100
0000
0100
0000
1000
,  // measure 8
0001
0100
0001
0100
0001
0100
0001
0100
0010
1000
0010
1000
0010
1000
0010
1000
,  // measure 9
0001
0100
1000
0010
,  // measure 10
0001
0100
1000
0010
,  // measure 11
0002
1000
1000
1003
,  // measure 12
2000
0001
0001
3001
,  // measure 13
1000
0100
0001
0010
,  // measure 14
1000
0100
0001
0010
,  // measure 15
2000
0000
0000
0000
,  // measure 16
0002
0000
0000
3003
,  // measure 17
0010
0001
0100
1000
0100
0000
0001
0000
,  // measure 18
0010
0001
0100
1000
0100
0000
0001
0000
,  // measure 19
0220
0000
0000
0000
,  // measure 20
0000
0330
0000
0000
,  // measure 21
0000
1000
0001
0020
0000
0000
0000
0030
,  // measure 22
0000
0001
1000
0020
0000
0000
0000
0030
,  // measure 23
0000
0000
0000
0000
,  // measure 24
0000
0000
0000
0000
,  // measure 25
1001
0000
0000
0000
1000
0000
0000
0010
0000
0010
0100
0000
0100
0001
0000
0000
,  // measure 26
0001
1000
0000
0000
1010
0000
0000
0110
0000
0000
0101
0000
0001
0000
0010
0000
,  // measure 27
1000
0000
0000
0010
0000
0000
0001
0000
0100
0000
0000
0010
0000
0000
0001
0000
,  // measure 28
0010
0000
0000
1000
0000
0000
0001
0000
0100
0000
0000
0010
0000
0000
1000
0000
,  // measure 29
1001
0000
0000
0000
0010
0000
0000
0100
0000
0100
0001
0000
0001
1000
0000
1000
,  // measure 30
0100
0010
0000
0000
0011
0000
0000
0110
0000
0000
1100
0000
1000
0000
0010
0000
,  // measure 31
0001
0000
0000
0010
0000
0000
1000
0000
0100
0000
0000
0010
0000
0000
1000
0000
,  // measure 32
0010
0000
0000
0001
0000
0000
1000
0000
0100
0000
0000
0010
0000
0000
0001
0000
,  // measure 33
1001
1000
1000
1000
,  // measure 34
0001
0001
0001
0001
,  // measure 35
0100
0010
0000
1000
0000
0000
0001
0000
0100
0000
0000
0110
0000
0000
0010
0000
,  // measure 36
1000
0001
0000
0100
0000
0000
1000
0000
0100
0000
0000
0001
0000
0000
0010
0000
,  // measure 37
0001
0001
0001
0001
,  // measure 38
1000
1000
1000
1000
,  // measure 39
0010
1000
0010
0100
0010
1000
0001
0010
,  // measure 40
0100
1000
0100
1000
0100
1000
0100
1000
0001
0010
0001
0010
0001
0010
0001
0010
,  // measure 41
0100
0000
1000
0000
0001
0000
0010
0001
0000
0000
0100
0000
1000
0100
0000
0001
,  // measure 42
0010
0100
0000
0000
0110
0000
0000
1001
0000
0000
0100
0000
1000
0000
0010
0000
,  // measure 43
0100
0000
0000
0001
0000
0000
0010
0000
0100
0000
0000
1000
0000
0000
0010
0000
,  // measure 44
1000
0100
0000
0001
0000
0000
0100
0000
0001
0100
0000
1000
0000
0000
0100
0000
,  // measure 45
0010
0000
0001
0000
1000
0000
0010
1000
0000
0000
0100
0000
0001
0100
0000
1000
,  // measure 46
0010
0100
0000
0000
0110
0000
0000
1001
0000
0000
0100
0000
0001
0000
0010
0000
,  // measure 47
0100
0000
0000
1000
0000
0000
0010
0000
0100
0000
0000
0001
0000
0000
0010
0000
,  // measure 48
0001
0100
0000
1000
0000
0000
0100
0000
1000
0100
0000
0001
0000
0000
0100
0000
,  // measure 49
0010
0000
1000
0000
0100
0000
0010
0001
0000
0001
0100
0000
0010
1000
0000
0001
,  // measure 50
0010
0001
0000
0000
0100
0010
0000
0001
0000
0000
0010
0000
1000
0000
0010
0000
,  // measure 51
0100
0000
0001
0000
0010
0000
0100
1000
0000
1000
0010
0000
0100
0001
0000
1000
,  // measure 52
0100
1000
0000
0000
0010
0100
0000
1000
0000
0000
0100
0000
0001
0000
0100
0000
,  // measure 53
0010
0000
1000
0000
0100
0000
0001
0100
0000
0000
0010
0000
0001
0100
0000
0010
,  // measure 54
1000
0001
0000
0000
0010
0000
0100
1000
0000
0000
0001
0000
1000
0100
0000
0100
,  // measure 55
0010
0000
0001
0000
0100
0000
1000
0100
0000
0000
0010
0000
1000
0100
0000
0020
,  // measure 56
0000
0000
0000
0030
,  // measure 57
1001
0000
0000
0000
;

//---------------dance-single - NewbStepper----------------
#NOTES:
     dance-single:
     :
     Medium:
     7:
     0.366033,0.459778,0.028469,0.142346,0.037959,270.000000,267.000000,3.000000,15.000000,0.000000,0.000000,0.366033,0.459778,0.028469,0.142346,0.037959,270.000000,267.000000,3.000000,15.000000,0.000000,0.000000:
0000
0000
0000
0000
,
1000
0001
0100
0000
0001
1000
0100
0000
,
0010
0001
1000
0000
0010
1000
0001
0000
,
1000
0100
0010
0000
0001
0100
0010
0000
,
0100
0001
0010
0000
0100
1000
0010
0000
,
1000
0100
0001
0000
0001
0100
1000
0000
,
0001
0100
1000
0000
1000
0100
0001
0000
,
0010
0001
0010
0001
1000
0100
1000
0100
,
0010
0001
1000
0010
0100
0001
0010
0100
,
1000
0100
0001
0010
,
1000
0100
0001
0010
,
2000
0001
0001
3001
,
0002
1000
1000
1003
,
0001
0100
1000
0010
,
0001
0100
1000
0010
,
0002
0000
0000
0000
,
2000
0000
0000
3003
,
0010
1000
0100
0010
0000
0000
0000
0000
,
0000
0001
0100
0010
0000
0000
0000
0000
,
2000
0000
0000
0000
,
0000
0000
0000
3000
,
0000
0001
0100
0010
0000
0000
0000
0000
,
0000
1000
0100
0010
0000
0000
0000
0000
,
0000
0000
0000
0000
,
0000
0000
0000
0000
,
1001
0000
0000
0000
0100
0000
0000
0001
0000
0000
0010
0000
0010
0000
0000
0000
,
0001
0000
0100
0000
1000
0000
0000
0100
0000
0000
0001
0000
0010
0000
0001
0000
,
2000
0010
0001
0010
,
3002
1000
0100
1003
,
1001
0000
0000
0000
0100
0000
0000
1000
0000
0000
0010
0000
0010
0000
0000
0000
,
1000
0000
0100
0000
0001
0000
0000
0100
0000
0000
1000
0000
0010
0000
1000
0000
,
0002
0010
1000
0010
,
2003
0001
0100
3001
,
1000
1000
0010
0010
,
0001
0001
0100
0100
,
1000
0000
0001
1000
0010
0000
1000
0001
,
0020
0000
1000
0000
0001
0000
0130
1000
,
0001
0001
0010
0010
,
1000
1000
0100
0100
,
0001
0000
1000
0001
0010
0000
0001
1000
,
0100
0010
0001
1000
0001
0100
1000
0100
,
0001
0000
1000
0000
0010
0000
0000
0100
0000
0000
0001
0000
0010
0000
0000
0000
,
0100
0000
1000
0000
0001
0000
0000
0010
0000
0000
0001
0000
0100
0000
0010
0000
,
2000
0000
0001
0000
0100
0000
3001
0010
,
0002
0000
1000
0000
0100
0000
1003
0010
,
1000
0000
0001
0000
0010
0000
0000
0100
0000
0000
1000
0000
0010
0000
0000
0000
,
0100
0000
0001
0000
1000
0000
0000
0010
0000
0000
1000
0000
0100
0000
0010
0000
,
0002
0000
1000
0000
0100
0000
1003
0010
,
2000
0000
0001
0000
0100
0000
3001
0010
,
0001
1000
0001
1000
0010
0000
1000
0000
,
0100
0010
0100
0010
0001
0000
1000
0000
,
0100
1000
0001
1000
0010
1000
0001
0000
,
0100
0001
1000
0001
0010
0001
1000
0000
,
0010
1000
0001
0000
0010
0001
1000
0000
,
0001
0100
1000
0000
1000
0100
0001
0000
,
0010
0001
0010
0001
1000
0100
1000
0100
,
0020
0000
0000
0030
,
1001
0000
0000
0000
;

//---------------dance-single - NewbStepper----------------
#NOTES:
     dance-single:
     :
     Beginner:
     2:
     0.136923,0.189320,0.056938,0.028469,0.000000,101.000000,95.000000,6.000000,3.000000,0.000000,0.000000,0.136923,0.189320,0.056938,0.028469,0.000000,101.000000,95.000000,6.000000,3.000000,0.000000,0.000000:
0000
0000
0000
0000
,
1000
0000
0000
0000
,
1000
0000
0000
0000
,
0001
0000
0000
0000
,
0001
0000
0000
0000
,
0100
0000
0000
0000
,
0100
0000
0000
0000
,
0010
0000
0010
0000
,
1000
1000
1000
1000
,
1000
0000
0000
0000
,
0001
0000
0000
0000
,
0200
0000
0000
0000
,
0000
0000
0300
0000
,
0001
0000
0000
0000
,
1000
0000
0000
0000
,
0020
0000
0000
0000
,
0000
0000
0030
0000
,
1001
0000
0000
0000
,
1000
0000
0000
0000
,
0200
0000
0000
0000
,
0000
0000
0300
0000
,
1000
0000
0000
0000
,
0001
0000
0000
0000
,
0000
0000
0000
0000
,
0000
0000
0000
0000
,
1001
0000
0001
0000
,
1000
0000
1000
0000
,
0010
0010
0010
0000
,
0100
0100
0100
0000
,
0001
0000
0001
0000
,
1000
0000
1000
0000
,
0100
0100
0100
0000
,
0010
0010
0010
0000
,
0001
0000
0001
0000
,
0100
0000
0100
0000
,
1000
0000
1000
0000
,
0100
0000
0100
0000
,
0001
0000
0001
0000
,
0010
0000
0010
0000
,
1000
0000
1000
0000
,
0010
0000
0010
0000
,
1001
0000
0001
0000
,
1000
1000
1000
0000
,
0010
0000
0010
0000
,
0100
0000
0100
0000
,
1001
0000
1000
0000
,
0001
0001
0001
0000
,
0010
0000
0010
0000
,
0100
0000
0100
0000
,
1001
0000
1000
0000
,
0010
0010
0010
0000
,
0001
0000
0001
0000
,
0010
0010
0010
0000
,
1000
0000
1000
0000
,
0100
0000
0100
0000
,
0001
0000
0001
0000
,
0010
0000
0000
0000
,
1001
0000
0000
0000
;

//---------------dance-single - NewbStepper----------------
#NOTES:
     dance-single:
     :
     Easy:
     4:
     0.239955,0.270458,0.066428,0.161326,0.000000,177.000000,170.000000,7.000000,17.000000,0.000000,0.000000,0.239955,0.270458,0.066428,0.161326,0.000000,177.000000,170.000000,7.000000,17.000000,0.000000,0.000000:
0000
0000
0000
0000
,
0001
0001
0001
0000
,
1000
1000
1000
0000
,
0010
0010
0100
0100
,
0110
0000
1001
0000
,
1000
1000
1000
0000
,
0001
0001
0001
0000
,
0100
0100
0010
0010
,
0110
0000
1001
0000
,
1000
1000
0001
0001
,
0100
0100
0010
0010
,
2000
0000
0000
0000
,
0000
0000
0000
3000
,
0001
0001
1000
1000
,
0100
0100
0010
0010
,
0002
0000
0000
0000
,
2000
0000
0000
3003
,
0010
0000
0000
0000
,
0100
0000
0000
0000
,
0020
0000
0000
0000
,
0000
0000
0000
0030
,
1000
0000
0000
0000
,
0001
0000
0000
0000
,
0000
0000
0000
0000
,
0000
0000
0000
0000
,
0001
0001
0001
0001
,
1000
1000
1000
1000
,
0010
1000
0010
1000
,
0001
0100
0001
0100
,
0010
0010
0010
0010
,
0100
0100
0100
0100
,
0001
0010
0001
0010
,
0100
1000
0100
1000
,
0001
0001
0100
0100
,
1000
1000
0010
0010
,
0002
0103
2000
3100
,
0002
0013
2000
3010
,
0001
0001
0100
0100
,
1000
1000
0010
0010
,
0002
0103
2000
3100
,
0002
0013
2000
3010
,
0001
0100
0010
1000
,
0001
0010
0100
1000
,
0200
0001
1000
0310
,
0020
0001
1000
0130
,
0001
0010
0100
1000
,
0001
0100
0010
1000
,
0020
0001
1000
0130
,
0200
0001
1000
0310
,
0110
0000
0001
0001
,
1000
0000
0100
0010
,
0001
1000
0001
1000
,
0010
0100
0010
0100
,
0110
0000
1000
1000
,
0001
0000
0100
0010
,
1000
0001
1000
0001
,
0020
0000
0000
0030
,
0110
0000
0000
0000
;

//---------------dance-double - NewbStepper----------------
#NOTES:
     dance-double:
     :
     Hard:
     9:
     0.458219,0.703189,0.066428,0.075918,0.317906,338.000000,331.000000,7.000000,8.000000,0.000000,0.000000,0.458219,0.703189,0.066428,0.075918,0.317906,338.000000,331.000000,7.000000,8.000000,0.000000,0.000000:
00000000
00000000
00000000
00000000
,
00010000
00001000
00000100
00000010
00000100
00000001
00000100
00001000
,
00010000
00100000
01000000
00100000
10000000
00100000
00010000
00001000
,
00000020
00000001
00001000
00000031
,
00000100
00000010
00001000
00000100
00010000
00001000
01000000
00000000
,
00001000
00010000
01000000
00100000
01000000
10000000
01000000
00010000
,
00001000
00000010
00000100
00000010
00000001
00000010
00001000
00010000
,
00100000
10000000
00010000
10000000
01000000
00100000
00001000
00010000
,
00000100
00001000
00000100
00001000
00000100
00001000
00000100
00001000
00000001
00000010
00000001
00000010
00000001
00000010
00000001
00000010
,
00000100
00010000
00001000
00000010
,
00000100
00010000
00001000
00000100
,
00002000
00010000
00010000
00013000
,
00020000
00001000
00001000
00031000
,
00100000
00001000
00010000
01000000
,
00100000
00001000
00010000
00100000
,
00020000
00001000
00001000
00031000
,
00002000
00010000
00010000
00013000
,
00011000
00010000
00000100
00000010
00000000
00000000
00000000
00000000
,
00000000
00001000
01000000
00100000
00000000
00000000
00000000
00000000
,
20020000
00000000
00000000
00000000
,
00000000
00000000
30030000
00000000
,
00000000
00001000
00100000
01000000
00000000
00000000
00000000
00000000
,
00000000
00010000
00000010
00000100
00000000
00000000
00000000
00000000
,
00000000
00000000
00000000
00000000
,
00000000
00000000
00000000
00000000
,
00001001
00000000
00000000
00000000
00000001
00000000
00000000
00000010
00000000
00000010
00001000
00000000
00001000
00010000
00000000
00000000
,
00000100
00000010
00000000
00000000
00000110
00000000
00000000
00010100
00000000
00000000
00011000
00000000
00001000
00000000
01000000
00000000
,
00010000
00000000
00000000
10000000
00000000
00000000
01000000
00000000
00100000
00000000
00000000
00010000
00000000
00000000
10000000
00000000
,
01000000
00000000
00000000
00010000
00000000
00000000
00001000
00000000
00000100
00000000
00000000
00000001
00000000
00000000
00000010
00000000
,
00000001
00001000
00000000
00000000
00000001
00000000
00000000
00000100
00000000
00000000
00000010
00000000
00000010
00010000
00000000
00001000
,
00010000
00100000
00000000
00000000
10000000
00000000
00000000
01000000
00000000
00000000
00010000
00000000
00001000
00000000
00010000
00000000
,
00100000
00000000
00000000
00001000
00000000
00000000
00100000
00000000
01000000
00000000
00000000
00001000
00000000
00000000
00010000
00000000
,
00000100
00000000
00000000
00000010
00000000
00000000
00010000
00000000
00000010
00000000
00000000
00000100
00000000
00000000
00001000
00000000
,
00000001
00000001
00001000
00001000
,
00010000
00010000
10000000
10000000
,
00010000
00000000
00000000
10000000
00000000
00000000
00100000
00000000
01000000
00000000
00000000
00010000
00000000
00000000
10000000
00000000
,
00100000
00000000
00000000
00010000
00000000
00000000
00001000
00000000
00000010
00000000
00000000
00000001
00000000
00000000
00000100
00000000
,
00000001
00000001
00001000
00001000
,
00010000
00010000
10000000
10000000
,
00100000
00000000
00000000
10000000
00000000
00000000
00010000
00000000
01000000
00000000
00000000
00001000
00000000
00000000
00010000
00000000
,
00000010
00001000
00000010
00001000
00000010
00001000
00000010
00001000
00000001
00000100
00000001
00000100
00000001
00000100
00000001
00000100
,
00000010
00000000
00010000
00000000
00001000
00000000
00000010
00000001
00000000
00000000
00000100
00000000
00000010
00010000
00000000
00001000
,
00010000
01000000
00000000
00000000
00100000
00000000
00000000
01000000
00000000
00000000
10000000
00000000
00010000
00000000
10000000
00000000
,
01000000
00000000
00000000
00100000
00000000
00000000
00010000
00000000
10000000
00000000
00000000
01000000
00000000
00000000
00010000
00000000
,
00001000
00000000
00000000
00000100
00000000
00000000
00000001
00000000
00001000
00000000
00000000
00000010
00000000
00000000
00001000
00000000
,
00000100
00000000
00010000
00000000
00001000
00000000
00000100
00000001
00000000
00000000
00000010
00000000
00000100
00010000
00000000
00001000
,
00010000
00100000
00000000
00000000
01000000
00000000
00000000
00100000
00000000
00000000
10000000
00000000
00010000
00000000
10000000
00000000
,
00100000
00000000
00000000
01000000
00000000
00000000
00010000
00000000
10000000
00000000
00000000
00100000
00000000
00000000
00010000
00000000
,
00001000
00000000
00000000
00000010
00000000
00000000
00000001
00000000
00001000
00000000
00000000
00000100
00000000
00000000
00001000
00000000
,
00000010
00010000
00001000
00000100
00001000
00010000
00000010
00001000
,
00010000
00001000
00000010
00000100
00001000
00010000
00100000
10000000
,
00010000
01000000
00001000
00010000
00100000
00010000
00001000
01000000
,
00010000
00001000
00010000
01000000
00100000
00010000
00001000
00000100
,
00000001
00000000
00001000
00000000
00000010
00000000
00001000
00000001
00000000
00000000
00000100
00000000
00000010
00010000
00000000
00001000
,
01000000
00010000
00000000
00000000
10000000
00000000
00000000
00100000
00000000
00000000
10000000
00000000
00010000
00000000
00100000
00000000
,
00010000
00000000
10000000
00000000
01000000
00000000
10000000
00000000
00010000
01000000
00000000
00000000
00100000
00010000
00000000
00010000
,
00002000
00000000
00000000
00003000
,
00011000
00000000
00000000
00000000
;

//---------------dance-double - NewbStepper----------------
#NOTES:
     dance-double:
     :
     Medium:
     7:
     0.361966,0.459778,0.018979,0.180305,0.037959,267.000000,265.000000,2.000000,19.000000,0.000000,0.000000,0.361966,0.459778,0.018979,0.180305,0.037959,267.000000,265.000000,2.000000,19.000000,0.000000,0.000000:
00000000
00000000
00000000
00000000
,
00001000
00010000
00000100
00000000
00010000
00001000
01000000
00000000
,
00010000
00100000
01000000
00000000
10000000
00010000
00100000
00000000
,
00001000
00010000
00000010
00000000
00001000
00000100
00000010
00000000
,
00000001
00001000
00000100
00000000
00010000
00001000
00000010
00000000
,
00001000
00010000
00100000
00000000
10000000
01000000
00010000
00000000
,
00001000
00010000
00000100
00000000
00001000
00000010
00000001
00000000
,
00000010
00001000
00000010
00001000
00000100
00010000
00000100
00010000
,
00001000
00100000
00001000
00100000
00010000
10000000
01000000
00100000
,
01000000
00010000
00001000
00100000
,
01000000
00010000
00001000
00000100
,
00000020
00010000
00010000
00010030
,
00020000
00000100
00000100
00030100
,
00000010
00001000
00010000
00000100
,
00000010
00001000
00010000
00100000
,
02000000
00000000
00000000
00000000
,
00002000
00000000
00000000
03003000
,
00010000
00001000
00000100
00000010
00000000
00000000
00000000
00000000
,
00000000
00000100
00001000
00010000
00000000
00000000
00000000
00000000
,
02000000
00000000
00000000
00000000
,
00000000
00000000
00000000
03000000
,
00000000
00010000
01000000
00100000
00000000
00000000
00000000
00000000
,
00000000
00001000
00000100
00000010
00000000
00000000
00000000
00000000
,
00000000
00000000
00000000
00000000
,
00000000
00000000
00000000
00000000
,
00001001
00000000
00000000
00000000
00000010
00000000
00000000
00010000
00000000
00000000
00001000
00000000
00001000
00000000
00000000
00000000
,
00100000
00000000
00010000
00000000
01000000
00000000
00000000
10000000
00000000
00000000
01000000
00000000
00010000
00000000
00100000
00000000
,
00002000
01000000
00010000
01000000
,
00023000
00000010
00001000
00000010
,
00031000
00000000
00000000
00000000
00100000
00000000
00000000
00001000
00000000
00000000
00010000
00000000
00010000
00000000
00000000
00000000
,
00000010
00000000
00001000
00000000
00000100
00000000
00000000
00000001
00000000
00000000
00000100
00000000
00001000
00000000
00000010
00000000
,
00020000
00000100
00001000
00000100
,
00032000
00100000
00010000
00100000
,
00013000
00010000
01000000
01000000
,
10000000
10000000
00100000
00100000
,
00010000
00000000
00001000
00010000
01000000
00000000
00010000
00001000
,
00000200
00000000
00000001
00000000
00000010
00000000
00000301
00000100
,
00001000
00001000
00000100
00000100
,
00000001
00000001
00000010
00000010
,
00001000
00000000
00010000
00001000
00000100
00000000
00001000
00010000
,
00001000
00010000
01000000
00100000
01000000
10000000
00010000
00100000
,
00010000
00000000
10000000
00000000
01000000
00000000
00000000
00100000
00000000
00000000
00001000
00000000
00010000
00000000
00000000
00000000
,
00001000
00000000
00000100
00000000
00000001
00000000
00000000
00000010
00000000
00000000
00000100
00000000
00010000
00000000
00001000
00000000
,
00000020
00000130
00020000
00031000
,
00200000
00000000
00310000
00000000
20000000
00000000
31000000
10000000
,
00010000
00000000
10000000
00000000
00100000
00000000
00000000
01000000
00000000
00000000
00001000
00000000
00010000
00000000
00000000
00000000
,
00001000
00000000
00000010
00000000
00000001
00000000
00000000
00000100
00000000
00000000
00000010
00000000
00010000
00000000
00001000
00000000
,
00000200
00000310
00020000
00031000
,
00200000
00000000
00310000
00000000
20000000
00000000
30100000
10000000
,
00010000
01000000
00010000
01000000
00001000
00000000
00010000
00000000
,
00000010
00001000
00000010
00001000
00000100
00000000
00010000
00000000
,
00001000
00010000
00000010
00010000
00001000
00010000
00000100
00000000
,
00010000
00001000
01000000
00001000
00010000
00001000
00100000
00000000
,
00010000
10000000
01000000
10000000
00010000
00000000
00100000
00000000
,
00001000
00010000
00000010
00010000
00001000
00000000
00000100
00000000
,
00000001
00000010
00000001
00000010
00000100
00010000
00000100
00010000
,
00002000
00000000
00000000
00003000
,
00011000
00000000
00000000
00000000
;

//---------------dance-double - NewbStepper----------------
#NOTES:
     dance-double:
     :
     Easy:
     4:
     0.215553,0.270458,0.085408,0.075918,0.000000,159.000000,150.000000,9.000000,8.000000,0.000000,0.000000,0.215553,0.270458,0.085408,0.075918,0.000000,159.000000,150.000000,9.000000,8.000000,0.000000,0.000000:
00000000
00000000
00000000
00000000
,
00010000
00000000
00010000
00000000
,
00001000
00000000
00001000
00000000
,
00010000
00010000
01000000
01000000
,
10000000
10000000
01000000
00100000
,
00001000
00000000
00001000
00000000
,
00010000
00000000
00010000
00000000
,
00001000
00001000
00000100
00000100
,
00000001
00000001
00000100
00000010
,
00001000
00001000
00000100
00000100
,
00010000
00010000
00001000
00001000
,
00200000
00000000
00000000
00000000
,
00000000
00000000
00000000
00300000
,
00010000
00010000
01000000
01000000
,
00001000
00001000
00010000
00010000
,
00000020
00000000
00000000
00000000
,
00002000
00000000
00000000
00003030
,
00000001
00000000
00000000
00000000
,
00001000
00000000
00000000
00000000
,
00020000
00000000
00000000
00000000
,
00000000
00000000
00000000
00030000
,
10000000
00000000
00000000
00000000
,
00010000
00000000
00000000
00000000
,
00000000
00000000
00000000
00000000
,
00000000
00000000
00000000
00000000
,
00011000
00000000
00000000
00000000
,
00000110
00000000
00000000
00000000
,
00000001
00000100
00000001
00000100
,
00000010
00010000
00000010
00010000
,
00011000
00000000
00000000
00000000
,
01100000
00000000
00000000
00000000
,
10000000
01000000
10000000
01000000
,
00100000
00001000
00100000
00001000
,
00011000
00000000
00000000
00000000
,
00000110
00000000
00000000
00000000
,
00000001
00000010
00000001
00000010
,
00000100
00010000
00000100
00010000
,
00011000
00000000
00000000
00000000
,
01100000
00000000
00000000
00000000
,
10000000
00100000
10000000
00100000
,
01000000
00001000
01000000
00001000
,
00010000
00000100
00000010
00000100
,
00010000
00001000
01000000
00100000
,
02000000
00001000
00010000
03001000
,
00002000
00010000
00000010
00013000
,
00001000
01000000
00100000
01000000
,
00001000
00010000
00000100
00000010
,
00000200
00010000
00001000
00010300
,
00020000
00001000
00100000
00031000
,
00000100
00000001
00000100
00000001
,
00001000
00000010
00001000
00000010
,
00010000
00001000
00010000
00001000
,
01000000
00100000
01000000
00100000
,
10000000
01000000
10000000
01000000
,
00100000
00001000
00100000
00001000
,
00010000
00000100
00000010
00000001
,
00001000
00000000
00000000
00000000
,
00001001
00000000
00000000
00000000
;
