#TITLE:Boogie 2nite;
#SUBTITLE:;
#ARTIST:Booty Luv;
#TITLETRANSLIT:;
#SUBTITLETRANSLIT:;
#ARTISTTRANSLIT:;
#GENRE:;
#CREDIT:Remixed by DiscoStu;
#BANNER:banner.png;
#BACKGROUND:Boogie 2Nite-bg.png;
#LYRICSPATH:;
#CDTITLE:;
#MUSIC:Boogie 2Nite.mp3;
#OFFSET:-0.060000;
#SAMPLESTART:72.836761;
#SAMPLELENGTH:11.980000;
#SELECTABLE:YES;
#BPMS:0.000000=125.999992
;
#STOPS:
;
#BGCHANGES:;
#KEYSOUNDS:;
#ATTACKS:;

//---------------dance-single - ----------------
#NOTES:
     dance-single:
     :
     Beginner:
     1:
     0.077289,0.102510,0.047458,0.000000,0.000000,57.000000,52.000000,5.000000,0.000000,0.000000,0.000000,0.077289,0.102510,0.047458,0.000000,0.000000,57.000000,52.000000,5.000000,0.000000,0.000000,0.000000:
// measure 0
0000
0000
0000
0000
,  // measure 1
0000
0000
0000
0000
,  // measure 2
1000
0000
0000
0000
,  // measure 3
1000
0000
0000
0000
,  // measure 4
0001
0000
0000
0000
,  // measure 5
0001
0000
0000
0000
,  // measure 6
1000
0000
0000
0000
,  // measure 7
0010
0000
0000
0000
,  // measure 8
1000
0000
0000
0000
,  // measure 9
0010
0000
0000
0000
,  // measure 10
0001
0000
0000
0000
,  // measure 11
0100
0000
0000
0000
,  // measure 12
0001
0000
0000
0000
,  // measure 13
0100
0000
0000
0000
,  // measure 14
1000
0000
0000
0000
,  // measure 15
1000
0000
0000
0000
,  // measure 16
0010
0000
0000
0000
,  // measure 17
0001
0000
0000
0000
,  // measure 18
0100
0000
0000
0000
,  // measure 19
1000
0000
0000
0000
,  // measure 20
0100
0000
0000
0000
,  // measure 21
0010
0000
0000
0000
,  // measure 22
1001
0000
0000
0000
,  // measure 23
0100
0000
0000
0000
,  // measure 24
0010
0000
0000
0000
,  // measure 25
0100
0000
0000
0000
,  // measure 26
1001
0000
0000
0000
,  // measure 27
1000
0000
0000
0000
,  // measure 28
0001
0000
0000
0000
,  // measure 29
0100
0000
0000
0000
,  // measure 30
0010
0000
0000
0000
,  // measure 31
0100
0000
0000
0000
,  // measure 32
0001
0000
0000
0000
,  // measure 33
0010
0000
0000
0000
,  // measure 34
1000
0000
0000
0000
,  // measure 35
0100
0000
0000
0000
,  // measure 36
0100
0000
0000
0000
,  // measure 37
0010
0000
0000
0000
,  // measure 38
1001
0000
0000
0000
,  // measure 39
1000
0000
0000
0000
,  // measure 40
0001
0000
0000
0000
,  // measure 41
0000
0000
0000
0000
,  // measure 42
1001
0000
0000
0000
,  // measure 43
1000
0000
0000
0000
,  // measure 44
1000
0000
0000
0000
,  // measure 45
0100
0000
0000
0000
,  // measure 46
0010
0000
0000
0000
,  // measure 47
0001
0000
0000
0000
,  // measure 48
1000
0000
0000
0000
,  // measure 49
0010
0000
0000
0000
,  // measure 50
0001
0000
0000
0000
,  // measure 51
0100
0000
0000
0000
,  // measure 52
0010
0000
0000
0000
,  // measure 53
0100
0000
0000
0000
,  // measure 54
1001
0000
0000
0000
;

//---------------dance-single - ----------------
#NOTES:
     dance-single:
     :
     Easy:
     4:
     0.183053,0.205019,0.094916,0.056950,0.000000,135.000000,125.000000,10.000000,6.000000,0.000000,0.000000,0.183053,0.205019,0.094916,0.056950,0.000000,135.000000,125.000000,10.000000,6.000000,0.000000,0.000000:
0000
0000
0000
0000
,
0000
0000
0000
0000
,
0100
0100
0000
0000
,
0010
0010
0000
0000
,
0001
0001
0000
0000
,
1000
1000
1000
0000
,
1001
0000
0010
0000
,
1000
0100
0010
0000
,
0010
0001
0100
0000
,
0010
1000
0100
0000
,
1001
0000
0100
0001
,
0010
0000
0100
1000
,
0010
0000
1000
0001
,
0100
0000
0001
1000
,
0100
0000
1000
1000
,
1000
0000
0001
0001
,
0001
0000
0100
0100
,
0100
0000
0010
0010
,
0010
0000
1000
0001
,
1000
0000
0001
1000
,
0001
0000
1000
1000
,
0000
0001
0001
0000
,
1001
0000
1000
0100
,
0001
0000
0001
0010
,
2000
0000
0000
0000
,
3000
0000
0001
0001
,
1001
0000
0001
0100
,
1000
0000
1000
0010
,
0002
0000
0000
0000
,
0003
0000
1000
1000
,
1001
0000
0000
0000
,
0100
0100
0000
0000
,
0001
0001
0000
0000
,
0010
0010
0000
0000
,
1000
1000
0000
0000
,
0001
0001
0000
0000
,
0010
0010
0000
0000
,
0010
0000
0100
0000
,
1001
0000
1000
0010
,
0001
0000
0001
0100
,
2000
0000
0000
0000
,
3000
0000
0010
0010
,
1001
0000
0001
0010
,
1000
0000
1000
0100
,
0002
0000
0000
0000
,
0003
0000
0100
0100
,
1001
0000
0100
1000
,
0010
0000
0010
0001
,
0200
0000
0000
0000
,
0300
0000
0010
0100
,
1001
0000
0100
0001
,
0010
0000
0010
1000
,
0200
0000
0000
0000
,
0300
0000
0010
0100
,
1001
0000
0000
0000
;

//---------------dance-single - ----------------
#NOTES:
     dance-single:
     :
     Medium:
     6:
     0.296952,0.358784,0.151866,0.056950,0.000000,219.000000,203.000000,16.000000,6.000000,0.000000,0.000000,0.296952,0.358784,0.151866,0.056950,0.000000,219.000000,203.000000,16.000000,6.000000,0.000000,0.000000:
0000
0000
0000
0000
,
0000
0000
0000
0000
,
1000
0001
0100
0000
0100
0000
0100
0000
,
0001
1000
0100
0000
0100
0000
0100
0000
,
0001
1000
0001
0000
0001
0000
0001
0000
,
1000
0100
0001
0100
1000
0100
0001
0000
,
1001
0000
0000
0010
0010
0000
0000
0000
,
1001
0000
0000
0100
0100
0000
0000
0000
,
1001
0000
0000
0010
1000
0000
0000
0000
,
1001
0000
0000
1000
0100
0000
0000
0000
,
1001
0000
0000
0100
0001
0000
0000
0000
,
1001
0000
0000
0001
0010
0000
0000
0000
,
1001
0000
0000
0010
1000
0000
0000
1000
,
0010
0000
0000
0010
0100
0000
0010
0000
,
0110
0000
0000
0000
1000
1000
1000
0000
,
1000
0000
0000
0000
0001
0001
0001
0000
,
0001
0000
0000
0000
1000
0001
1000
0001
,
0001
0000
0000
0000
0001
1000
0001
1000
,
1000
0000
0000
0000
1000
0100
0010
0001
,
1000
0000
0000
0000
0001
0010
0100
1000
,
0010
0000
0000
0000
1000
0010
1000
0100
,
0001
0000
1000
0010
0001
0010
0001
0000
,
1001
0000
1000
1000
0000
0100
0100
0000
,
0010
0000
0010
0001
0100
0010
1000
0100
,
0002
0000
0000
0000
,
0003
0000
0001
0100
,
1001
0000
0001
0001
0000
0010
0010
0000
,
1000
0000
0000
1000
0100
0010
0001
0100
,
0020
0000
0000
0000
,
0030
0000
0000
0000
0010
0010
0100
0100
,
1001
0000
0000
0000
,
1000
1000
0001
0000
0000
0000
0000
0000
,
0001
0001
1000
0000
0000
0000
0000
0000
,
0010
0010
0100
0000
0000
0000
0000
0000
,
1000
0001
0001
0000
0000
0000
0000
0000
,
0001
1000
1000
0000
0000
0000
0000
0000
,
0010
0100
0100
0000
0000
0000
0000
0000
,
0010
0000
0000
0000
0100
0000
0100
0100
,
1001
0000
1000
1000
0000
0100
0100
0000
,
0010
0000
0010
0001
0100
0010
1000
0100
,
0002
0000
0000
0000
,
0003
0000
0001
0100
,
1001
0000
0001
0001
0000
0010
0010
0000
,
1000
0000
0000
1000
0100
0010
0001
0100
,
0020
0000
0000
0000
,
0030
0000
0000
0000
0010
0010
0100
0100
,
1001
0000
0001
0001
0000
1000
1000
0000
,
1000
0000
0000
1000
0100
0010
0001
0100
,
0020
0000
0000
0000
,
0030
0000
0000
0000
0010
0010
0100
0100
,
1001
0000
0010
0010
0000
0100
0100
0000
,
0010
0000
0000
0010
0001
0100
0010
1000
,
0200
0000
0000
0000
,
0300
0000
1000
0001
,
0110
0000
0000
0000
;

//---------------dance-single - ----------------
#NOTES:
     dance-single:
     :
     Hard:
     7:
     0.404072,0.410038,0.170849,0.132883,0.000000,298.000000,280.000000,18.000000,14.000000,0.000000,0.000000,0.404072,0.410038,0.170849,0.132883,0.000000,298.000000,280.000000,18.000000,14.000000,0.000000,0.000000:
0000
0000
0000
0000
,
0000
0000
0000
0000
,
0100
0001
0010
0100
1000
0100
0010
0000
,
1000
0100
0010
0001
0100
1000
0001
0000
,
0001
1000
0100
0100
0001
0001
0010
0000
,
1000
1000
0100
0100
0001
0001
0010
0000
,
1001
0000
0001
0100
0000
1000
0100
0000
,
1010
0000
0010
1000
0000
0010
0001
0000
,
0011
0000
0100
1000
0000
0100
0001
0000
,
1100
0000
0100
0010
0000
0010
0100
0000
,
0101
0000
0001
0001
0000
1000
1000
0000
,
1100
0000
0001
0010
0000
1000
0010
0000
,
0101
0000
0010
1000
0000
0010
0001
0000
,
0001
0100
1000
0100
1000
0001
0010
0000
,
2002
0000
0000
0003
0001
0001
0001
0001
,
0002
0000
0000
3000
1000
1000
1000
1000
,
2003
0000
0000
0000
0010
0010
0010
0010
,
3020
0000
0000
0000
0100
0100
0100
0100
,
0230
0000
0000
0000
0001
0001
0001
0001
,
0302
0000
0000
0000
0010
0010
0010
0010
,
0023
0000
0000
0000
0100
0100
0100
0100
,
0130
0000
1000
0010
0100
0001
0010
0100
,
1001
0000
1000
1000
0000
0100
0100
0000
,
0010
0000
0010
0001
0100
0010
1000
0100
,
0002
0000
1000
1000
0000
0000
0003
0001
,
0001
0000
0100
0000
0001
0010
0100
1000
,
1001
0000
0001
0001
0000
0010
0010
0000
,
1000
0000
0000
1000
0100
0010
0001
0100
,
0020
0000
0100
0100
0000
0000
0030
0010
,
0010
0000
1000
0000
0010
1000
0100
0001
,
1001
0000
1000
1000
0000
0100
0100
0000
,
1000
0000
0001
0001
0000
0100
0100
0000
,
1000
0000
0010
0010
0000
0001
0001
0000
,
0010
0000
0100
0100
0000
1000
1000
0000
,
1000
0000
1000
0100
0000
0010
0001
0000
,
1000
0000
0010
1000
0000
0001
0100
0000
,
0010
0000
1000
0001
0000
0001
0100
0000
,
0010
1000
0001
0100
0010
1000
0100
0001
,
1001
0000
1000
1000
0000
0100
0100
0000
,
0010
0000
0010
0001
0100
0010
1000
0100
,
0002
0000
1000
1000
0000
0000
0003
0001
,
0001
0000
0100
0000
0001
0010
0100
1000
,
1001
0000
0001
0001
0000
0010
0010
0000
,
1000
0000
0000
1000
0100
0010
0001
0100
,
0020
0000
0100
0100
0000
0000
0030
0010
,
0010
0000
1000
0000
0010
1000
0100
0001
,
1001
0000
0001
0100
0000
1000
0010
0000
,
1000
0000
0001
0000
0100
0010
1000
0001
,
2000
0000
0001
0001
0000
0000
3000
1000
,
1000
0000
0000
0000
0010
0001
0100
1000
,
1001
0000
0010
1000
0000
0001
0100
0000
,
1000
0000
0000
0010
0001
0100
0010
1000
,
0002
0000
1000
1000
0000
0000
0003
0001
,
0001
0000
1100
0101
,
1001
0000
0000
0000
;
