#VERSION:0.83;
#TITLE:Ain't Giving Up;
#SUBTITLE:;
#ARTIST:Craig David & Sigala;
#TITLETRANSLIT:;
#SUBTITLETRANSLIT:;
#ARTISTTRANSLIT:;
#GENRE:;
#ORIGIN:;
#CREDIT:DiscoStu;
#BANNER:Aint' Giving Up.png;
#BACKGROUND:Aint' Giving Up-bg.png;
#PREVIEWVID:;
#JACKET:Aint' Giving Up-jacket.png;
#CDIMAGE:;
#DISCIMAGE:;
#LYRICSPATH:;
#CDTITLE:;
#MUSIC:Aint' Giving Up.mp3;
#OFFSET:-0.100000;
#SAMPLESTART:44.242001;
#SAMPLELENGTH:12.000000;
#SELECTABLE:YES;
#BPMS:0.000=125.050;
#STOPS:;
#DELAYS:;
#WARPS:;
#TIMESIGNATURES:0.000=4=4;
#TICKCOUNTS:0.000=4;
#COMBOS:0.000=1;
#SPEEDS:0.000=1.000=0.000=0;
#SCROLLS:0.000=1.000;
#FAKES:;
#LABELS:0.000=Song Start;
#BGCHANGES:;
#KEYSOUNDS:;
#ATTACKS:
;

//---------------dance-single - ----------------
#NOTEDATA:;
#CHARTNAME:;
#STEPSTYPE:dance-single;
#DESCRIPTION:;
#CHARTSTYLE:Pad;
#DIFFICULTY:Hard;
#METER:7;
#RADARVALUES:0.473199,0.476719,0.468055,0.009001,0.189022,368.000000,316.000000,52.000000,1.000000,0.000000,0.000000,0.000000,0.000000,0.000000,0.473199,0.476719,0.468055,0.009001,0.189022,368.000000,316.000000,52.000000,1.000000,0.000000,0.000000,0.000000,0.000000,0.000000;
#CREDIT:NewbStepper @ zenius-i-vanisher.com;
#NOTES:
0000
0000
0000
0000
,
0000
0000
0000
0000
,
0000
0000
0000
0000
,
0000
0000
0000
0000
,
1000
0000
0000
0001
0000
0000
0100
0000
0000
0000
0000
0000
0000
0010
1000
0000
,
0001
0000
0000
1000
0000
0000
0100
0000
0000
0000
0000
0000
0000
0000
0010
0000
,
0100
0000
0000
1000
0000
0000
0010
0000
0000
0000
0000
0000
0000
0000
0000
0000
,
0100
0000
0000
0001
0000
0000
0010
0000
0000
0000
0000
0000
0001
0000
0000
0000
,
1000
0000
0000
1000
0010
0000
0100
0000
0001
0000
0010
0000
1000
0000
0010
0000
,
0001
0000
0000
0100
0000
0000
0110
0000
0000
0000
1000
0000
0100
0000
0010
0000
,
0001
0000
0000
0001
0010
0000
0100
0000
1000
0000
0010
0000
0001
0000
0010
0000
,
1000
0000
0000
0100
0000
0000
0110
0000
0000
0000
0001
0000
0010
0000
0100
0000
,
1000
0000
0000
1000
0100
0000
0010
0000
0001
0000
0100
0000
1000
0000
0100
0000
,
0001
0000
0000
0010
0000
0000
0110
0000
0000
0000
0001
1000
0000
0001
0000
0000
,
0100
0010
1000
0100
0001
0100
1000
0010
,
0100
0001
0100
1000
0100
0001
0000
0110
,
0000
0000
1000
0000
1000
0000
1000
0000
0101
0000
0000
0110
0000
0000
1001
0000
,
0000
1000
0100
0001
0100
1000
0000
0110
,
0000
0000
0001
0000
0001
0000
0001
0000
1100
0000
0000
0110
0000
0000
1001
0000
,
0000
1000
0010
0001
0010
1000
0000
0110
,
0000
0000
0001
0000
0001
0000
0001
0000
1010
0000
0000
0110
0000
0000
1001
0000
,
0000
0001
0010
1000
0010
0001
0000
0110
,
0000
0000
1000
0000
1000
0000
1000
0000
0011
0000
0000
0110
0000
0000
1001
0000
,
0000
1000
0100
0010
0001
0000
1001
0000
,
0000
0000
1000
0000
0010
0000
0100
0000
0001
0000
0000
0010
0000
0000
1001
0000
,
0000
1000
0000
0100
0000
0001
0100
1000
,
0000
0000
0001
0000
0010
0000
0100
0000
1000
0000
0000
0010
0000
0000
1001
0000
,
0000
0000
0000
0000
0000
0000
1000
0010
0000
1000
0000
0000
0001
0100
0000
0000
,
0000
0000
0001
0000
0010
0000
0100
0000
1000
0000
0000
0010
0000
0000
1001
0000
,
0000
0001
0000
0100
0000
1000
0100
0001
,
0000
0010
0000
0000
0001
0000
1000
0000
0100
0000
0000
0001
0000
0000
0100
0000
,
0000
1000
0001
0010
0100
0000
0110
0000
,
0001
0000
1000
0000
0100
0000
0010
0000
0001
0000
0000
0100
0000
0000
0110
0000
,
0000
0010
1000
0100
0001
0100
0010
0001
,
0000
0000
0001
0000
0100
0000
0010
0000
1000
0000
0000
0100
0000
0000
0110
0000
,
0000
0010
0001
0100
1000
0100
0010
1000
,
0000
0000
0001
0000
0100
0000
1000
0000
0100
0000
0000
0010
0000
0000
0110
0000
,
0000
1000
0010
0001
0010
0100
1000
0200
,
0001
0000
1000
0000
0301
0000
0100
0010
,
0000
0001
0010
1000
0100
0010
0001
0000
,
1001
0000
1000
0000
0000
0010
0100
0000
0001
0000
1000
0000
0000
0000
0110
0000
,
0000
1000
0100
1000
0001
0100
0010
1000
,
1001
0001
0100
0100
0000
1010
0000
1001
,
0000
0000
0000
0000
0010
0000
0001
0100
0000
0010
0000
0000
1000
0001
0000
0000
,
1001
0000
0001
0000
0000
0010
0100
0000
1000
0000
0001
0000
0000
0000
0110
0000
,
0000
0001
0100
0001
1000
0100
0010
0001
,
1001
1000
0100
0100
0000
0011
0000
1001
,
0000
0010
0001
0100
1000
0100
0001
0000
,
0010
0000
0001
0000
0001
0000
0001
0000
1100
0000
0000
0110
0000
0000
1001
0000
,
0000
0000
0110
0000
0000
0000
1010
0000
1000
0000
0000
0001
0000
0000
0101
0000
,
0000
0000
1000
0000
1000
0000
1000
0000
0101
0000
0000
0110
0000
0000
1001
0000
,
0000
0000
0000
0000
0000
0000
0001
0100
0000
0001
0000
0000
1000
0010
0000
0000
,
0000
0000
1000
0000
1000
0000
1000
0000
0011
0000
0000
0110
0000
0000
1001
0000
,
0000
0001
0100
0000
0000
0000
0010
0000
1000
0000
0000
0001
0000
0000
0110
0000
,
0001
1000
0100
0001
0100
1000
0001
0100
,
1000
0100
0001
0010
0110
0000
1001
0000
;

//---------------dance-single - ----------------
#NOTEDATA:;
#CHARTNAME:;
#STEPSTYPE:dance-single;
#DESCRIPTION:;
#CHARTSTYLE:Pad;
#DIFFICULTY:Medium;
#METER:6;
#RADARVALUES:0.360042,0.376357,0.243029,0.090011,0.063007,280.000000,253.000000,27.000000,10.000000,0.000000,0.000000,0.000000,0.000000,0.000000,0.360042,0.376357,0.243029,0.090011,0.063007,280.000000,253.000000,27.000000,10.000000,0.000000,0.000000,0.000000,0.000000,0.000000;
#CREDIT:NewbStepper @ zenius-i-vanisher.com;
#NOTES:
0000
0000
0000
0000
,
0000
0000
0000
0000
,
0000
0000
0000
0000
,
0000
0000
0000
0000
,
1000
0000
0000
1000
0000
0000
1000
0000
0000
0000
0000
0000
0000
0000
0000
0000
,
0001
0000
0000
0001
0000
0000
0001
0000
0000
0000
0000
0000
0000
0000
0000
0000
,
0100
0000
0000
0100
0000
0000
0100
0000
0000
0000
0000
0000
0000
0000
0000
0000
,
0010
0000
0000
0010
0000
0000
0010
0000
0000
0000
0000
0000
1001
0000
0000
0000
,
1000
0100
0010
0001
0000
1000
0000
0001
,
0200
0000
1000
0000
0001
0000
0310
1000
,
0001
0100
0010
1000
0000
0001
0000
1000
,
0200
0000
0001
0000
1000
0000
0310
0001
,
1000
0010
0100
0001
0000
0010
0000
0001
,
0100
0010
1000
0001
,
1000
0001
0010
0100
0000
1000
0010
0000
,
0100
1001
0100
1001
,
0010
0000
1000
0000
0001
0000
0100
0000
0010
0000
0000
0010
0000
0000
0100
0000
,
0000
1001
0100
1001
,
0010
0000
0001
0000
1000
0000
0100
0000
0010
0000
0000
0010
0000
0000
0100
0000
,
0000
1001
0100
1001
,
0100
0000
1000
0000
0001
0000
0010
0000
0100
0000
0000
0100
0000
0000
0010
0000
,
0000
1001
0010
1001
,
0100
0000
0001
0000
1000
0000
0010
0000
0100
0000
0000
0100
0000
0000
0010
0000
,
0000
1000
0100
0001
0100
0000
0010
0000
,
0000
0001
0100
0000
1000
0100
0000
0001
,
0010
0000
0100
0000
0000
0000
0100
0000
1000
0000
0000
1000
0000
0000
0001
0000
,
0000
1000
0100
0000
0001
0100
0000
1000
,
0020
1000
0001
1030
,
0000
0001
0010
0000
1000
0010
0000
0001
,
0100
0000
0010
0000
0000
0000
0010
0000
1000
0000
0000
1000
0000
0000
0001
0000
,
0100
0100
0010
0010
,
0000
1000
0010
0001
0010
0000
0100
0000
,
1001
0000
1000
0100
0010
0000
0001
0100
,
0000
0010
0000
1000
0100
0010
0001
0000
,
1001
0000
1000
0010
0100
0000
0001
0000
,
1000
0000
0001
0010
1000
0000
0010
0001
,
0000
0000
0001
0100
0010
0000
1000
0100
,
0000
0010
0000
0001
0100
0010
1000
0100
,
0020
0000
0000
0000
0000
0000
0001
0031
,
0000
1000
0001
0100
0010
0000
1000
0000
,
0001
0010
0000
1100
0000
0110
0000
2002
,
0000
0000
0000
3003
0000
0010
0000
0100
,
0000
0001
1000
1000
0000
0011
0000
2002
,
0000
0000
0000
3003
0000
0100
0000
0010
,
0000
1000
0001
0100
0000
0110
0000
2002
,
0000
0000
0000
3003
0000
0010
0000
0100
,
0000
1000
0001
0001
0000
1010
0000
1001
,
0000
0001
0100
1000
0100
0000
1001
0000
,
0010
0000
0001
0000
0001
0000
0001
0000
0100
0000
0000
0100
0000
0000
0010
0000
,
0000
1010
0000
1000
0001
0000
1001
0000
,
0010
0000
1000
0000
1000
0000
1000
0000
0100
0000
0000
0100
0000
0000
0010
0000
,
0000
0000
0000
1001
0000
0100
0001
1000
,
0000
0000
0001
0000
0001
0000
0001
0000
0010
0000
0000
0010
0000
0000
0100
0000
,
0000
1100
0000
1000
0001
0000
1001
0000
,
0100
0000
0010
0000
0001
0000
0100
0000
1000
0000
0000
0100
0000
0000
0010
0000
,
0000
1000
0100
0001
0100
0000
1001
0000
;

//---------------dance-single - ----------------
#NOTEDATA:;
#CHARTNAME:;
#STEPSTYPE:dance-single;
#DESCRIPTION:;
#CHARTSTYLE:Pad;
#DIFFICULTY:Easy;
#METER:4;
#RADARVALUES:0.234028,0.275995,0.108013,0.171020,0.000000,182.000000,170.000000,12.000000,19.000000,0.000000,0.000000,0.000000,0.000000,0.000000,0.234028,0.275995,0.108013,0.171020,0.000000,182.000000,170.000000,12.000000,19.000000,0.000000,0.000000,0.000000,0.000000,0.000000;
#CREDIT:NewbStepper @ zenius-i-vanisher.com;
#NOTES:
0000
0000
0000
0000
,
0000
0000
0000
0000
,
0000
0000
0000
0000
,
0000
0000
0000
0000
,
2000
0000
3001
0000
,
0002
0000
0103
0000
,
0200
0000
0310
0000
,
0020
0000
0030
0000
,
1000
0100
0010
0001
,
0200
0000
0310
1000
,
0001
0100
0010
1000
,
0200
0000
0310
1001
,
1000
0010
0100
0001
,
0020
0000
0130
1000
,
0001
0010
0100
1000
,
0001
0100
1000
0100
,
0002
0000
1000
1000
,
1003
0100
0001
0100
,
2000
0000
0001
0001
,
3001
0010
1000
0010
,
0002
0000
1000
1000
,
1003
0010
0001
0010
,
2000
0000
0001
0001
,
3001
0010
0100
1000
,
0010
0010
1000
1000
,
1010
0000
0100
1001
,
0010
0010
0001
0001
,
0011
0000
0010
1001
,
0100
0100
1000
1000
,
1100
0000
0010
1001
,
0100
0100
0010
0010
,
0110
1000
0001
1000
,
1001
0000
0001
0000
,
1000
1000
1000
0100
,
1001
0000
1000
0000
,
0001
0001
0001
0100
,
1001
0000
0010
0000
,
0100
0100
0010
0010
,
2002
0000
0000
3003
,
1000
0100
0010
0001
,
0000
0100
0000
0001
0000
1000
0000
0200
,
0000
0000
0000
0000
0000
0010
0000
0310
,
0000
0100
0000
1000
0000
0001
0000
0200
,
0000
0000
0000
0000
0000
0310
0000
0100
,
0000
1000
0000
0100
0000
0001
0000
0020
,
0000
0000
0000
0000
0000
0100
0000
0130
,
0000
1000
0000
0001
0000
1000
0000
0001
,
0000
0100
0100
0010
,
2000
0000
0001
0001
,
3001
0010
1000
0010
,
0002
0000
1000
1000
,
1003
0010
0001
0010
,
2000
0000
0001
0001
,
3001
0100
1000
0100
,
0001
1000
0001
1000
,
0010
0010
0100
0100
;

//---------------dance-single - ----------------
#NOTEDATA:;
#CHARTNAME:;
#STEPSTYPE:dance-single;
#DESCRIPTION:;
#CHARTSTYLE:Pad;
#DIFFICULTY:Beginner;
#METER:2;
#RADARVALUES:0.160733,0.200724,0.090011,0.027003,0.000000,125.000000,115.000000,10.000000,3.000000,0.000000,0.000000,0.000000,0.000000,0.000000,0.160733,0.200724,0.090011,0.027003,0.000000,125.000000,115.000000,10.000000,3.000000,0.000000,0.000000,0.000000,0.000000,0.000000;
#CREDIT:NewbStepper @ zenius-i-vanisher.com;
#NOTES:
0000
0000
0000
0000
,
0000
0000
0000
0000
,
0000
0000
0000
0000
,
0000
0000
0000
0000
,
1000
0000
0000
0000
,
0001
0000
0000
0000
,
1000
0000
0000
0000
,
0001
0000
0000
0000
,
0100
0000
0100
0000
,
0010
0010
0010
0000
,
1000
0000
1000
0000
,
0001
0001
0001
0000
,
0100
0000
0010
0000
,
1000
1000
1000
0000
,
0100
0000
0100
0000
,
0010
0000
1001
0000
,
0001
0000
0100
0100
,
0100
0000
1001
0000
,
1000
0000
0100
0100
,
0100
0000
1001
0000
,
0010
0000
1000
1000
,
1000
0000
1001
0000
,
0010
0000
0001
0001
,
0001
0000
0110
0000
,
1001
0000
1000
0000
,
0010
0000
0100
0100
,
0100
0000
0001
0000
,
0010
0000
0100
0100
,
0100
0000
1000
0000
,
0001
0000
0010
0010
,
0010
0000
0001
0000
,
1000
0000
0010
0010
,
0000
1000
0000
1000
,
0000
0001
0000
0001
,
0000
0100
0000
0100
,
0000
0010
0000
0010
,
0000
1000
1000
0000
,
0000
0001
0001
0000
,
0000
0100
0100
0100
,
0000
0010
0010
0010
,
0010
0000
1000
0000
,
0002
0000
0000
0003
,
0100
0000
0001
0000
,
2000
0000
0000
3000
,
0010
0000
1000
0000
,
0002
0000
0000
0003
,
0100
0000
0001
0000
,
1000
0000
1001
0000
,
1000
0000
0010
0010
,
0010
0000
1001
0000
,
0001
0000
0010
0010
,
0010
0000
1001
0000
,
0100
0000
0001
0001
,
0001
0000
1001
0000
,
0100
0000
1000
1000
,
1000
0000
0010
0010
;

//---------------dance-single - ----------------
#NOTEDATA:;
#CHARTNAME:;
#STEPSTYPE:dance-single;
#DESCRIPTION:;
#CHARTSTYLE:Pad;
#DIFFICULTY:Challenge;
#METER:9;
#RADARVALUES:0.570925,0.752714,0.369044,0.036004,0.567067,444.000000,403.000000,41.000000,4.000000,0.000000,0.000000,0.000000,0.000000,0.000000,0.570925,0.752714,0.369044,0.036004,0.567067,444.000000,403.000000,41.000000,4.000000,0.000000,0.000000,0.000000,0.000000,0.000000;
#CREDIT:NewbStepper @ zenius-i-vanisher.com;
#NOTES:
0000
0000
0000
0000
,
0000
0000
0000
0000
,
0000
0000
0000
0000
,
0000
0000
0000
0000
,
0001
0000
0000
1000
0000
0000
0100
0000
0000
0000
0000
0000
0000
0010
0001
0000
,
1000
0000
0000
0001
0000
0000
0100
0000
0000
0000
0000
0000
0000
0000
0010
1000
,
0001
0000
0000
0100
0000
0000
1000
0000
0000
0000
0000
0000
0000
0000
0100
0000
,
0010
0000
0000
0010
0000
0000
1000
0000
0000
0000
0000
0000
0001
1000
0000
0001
,
1000
0000
0001
0100
0010
0000
1000
0000
0100
0000
0001
0000
0100
0000
1000
0000
,
0010
0000
0000
1000
0100
0000
0010
0000
0001
0100
0000
0000
1001
0000
0000
0000
,
0001
0000
1000
0100
0010
0000
0001
0000
0100
0000
1000
0000
0100
0000
0001
0000
,
0010
0000
0000
0010
0100
0000
1000
0000
0001
0100
0000
0000
1001
0000
0000
0000
,
1000
0000
0001
0010
0100
0000
1000
0000
0010
0000
0001
0000
0010
0000
1000
0000
,
0100
0000
0000
1000
0010
0000
0100
0000
0000
0000
0001
0010
0000
0001
1000
0000
,
0100
0010
0100
0001
0100
1000
0010
0001
,
0010
0000
0100
0000
0010
0000
1000
0000
0001
1000
0100
0010
0001
0100
0010
1000
,
0001
0000
1000
0000
1000
0000
1000
0000
0110
0000
0000
0010
0001
0000
1001
0000
,
0000
0000
0000
0000
0000
0000
0010
0000
0100
0000
0001
0010
0000
0100
1000
0100
,
0010
0000
0001
0000
0001
0000
0001
0000
0110
0000
0000
0010
1000
0000
1001
0000
,
0000
0000
0000
0000
0000
0000
0010
0000
0100
0000
0001
0010
0000
0100
1000
0000
,
0000
0000
0001
0000
0001
0000
0001
0000
0110
0000
0000
0100
1000
0000
1001
0000
,
0000
0000
0000
0000
0000
0000
0010
0000
0100
0000
1000
0010
0000
0100
0001
0100
,
0010
0000
1000
0000
1000
0000
1000
0000
0110
0000
0000
0100
0001
0000
1001
0000
,
1000
0010
1000
0010
0100
0001
0100
0001
0010
0000
0000
0000
1001
0000
0000
0000
,
0000
0000
1000
0000
0001
0000
0010
0000
1000
0000
0000
0010
0001
0000
0101
0000
,
0000
0000
1010
0000
0000
0000
0100
0000
0001
0000
0010
0100
0000
1000
0010
0100
,
0000
0000
0001
0000
1000
0000
0010
0000
0001
0000
0000
0010
1000
0000
1100
0000
,
0000
0000
0010
0000
0001
0000
1000
0100
0000
0001
0100
0000
1000
0010
0000
0000
,
0000
0000
1000
0000
0001
0000
0100
0000
1000
0000
0000
0100
0001
0000
0101
0000
,
0000
0000
0100
0000
1000
0000
0100
0000
0001
0000
0010
0001
0000
1000
0010
0100
,
0000
0001
1000
0000
0100
0000
0010
0000
0110
0000
0000
1001
0000
0000
1100
0000
,
0000
0000
0100
0000
0010
0000
0001
0000
1000
0001
0100
0010
1000
0100
0010
0001
,
1000
0010
0000
0010
0100
0000
1000
0000
0100
0001
0000
0010
0000
0001
1000
0000
,
0000
0000
0001
0100
0000
0010
0000
1000
0001
0000
0010
0000
0100
1000
0000
1000
,
0000
0001
0010
0000
1000
0000
0010
0000
0001
0100
0000
0010
0000
1000
0001
0000
,
0000
0000
0000
0000
1100
0000
1000
0010
0000
0100
0000
0001
0000
1000
0100
0000
,
0000
0010
0000
0010
0100
0000
0001
0000
0100
1000
0000
0010
0000
1000
0001
0000
,
0000
0000
1000
0100
0000
0010
0000
0001
1000
0000
0010
0000
0100
0001
0000
0001
,
0000
0000
1000
0100
0000
0001
0000
0100
0000
0010
0000
0001
0000
1000
0100
0000
,
0000
1000
0001
0000
0100
0000
1000
0000
0100
0010
0000
1000
0000
0001
0100
0010
,
0000
0000
0101
0000
0000
0000
1000
0010
0000
0000
0110
0000
0000
0000
2002
0000
,
0000
3003
0010
1000
0010
0100
0001
0011
,
0000
1100
0010
0010
0000
0101
0000
2002
,
0000
0000
3003
0000
0000
0000
0001
0100
0000
1000
0100
0000
0001
0010
0000
0000
,
0000
0001
1000
1010
0000
0110
0000
1001
,
0000
0001
0010
0000
1000
0000
0010
0000
0100
0000
1000
0001
0100
0000
0010
0000
,
0000
0101
0010
0010
0000
1100
0000
1001
,
0000
0010
0001
0100
0010
1000
0100
0000
,
1000
0000
0001
0000
0001
0000
0001
0000
0110
0000
0000
0010
1000
0000
1001
0000
,
0000
0000
0011
0000
0000
0000
0100
0000
1000
0000
0010
0100
0000
0001
0010
0000
,
0000
0001
1000
0000
1000
0000
1000
0000
0110
0000
0000
0010
0001
0000
1001
0000
,
0000
0000
0000
0000
0000
0000
1000
0010
0000
0001
0010
0000
1000
0100
0000
0000
,
0000
1000
0001
0000
0001
0000
0001
0000
0110
0000
0000
0100
1000
0000
1001
0000
,
0000
0001
0100
0000
0000
0000
0110
0000
1000
0000
0001
0100
0000
0100
0010
0000
,
1000
0001
1000
0001
0010
0001
0010
0001
1000
0100
1000
0100
0010
0100
0010
0100
,
1000
0001
0100
0010
1000
0100
0010
0001
0100
0000
0000
0000
0110
0000
0000
0000
;

//---------------dance-double - ----------------
#NOTEDATA:;
#CHARTNAME:;
#STEPSTYPE:dance-double;
#DESCRIPTION:;
#CHARTSTYLE:Pad;
#DIFFICULTY:Hard;
#METER:8;
#RADARVALUES:0.471913,0.476719,0.252030,0.036004,0.193523,367.000000,339.000000,28.000000,4.000000,0.000000,0.000000,0.000000,0.000000,0.000000,0.471913,0.476719,0.252030,0.036004,0.193523,367.000000,339.000000,28.000000,4.000000,0.000000,0.000000,0.000000,0.000000,0.000000;
#CREDIT:NewbStepper @ zenius-i-vanisher.com;
#NOTES:
00000000
00000000
00000000
00000000
,
00000000
00000000
00000000
00000000
,
00000000
00000000
00000000
00000000
,
00000000
00000000
00000000
00000000
,
01000000
00000000
00000000
00010000
00000000
00000000
00001000
00000000
00000000
00000000
00000000
00000000
00000000
00000010
00000001
00000000
,
00000100
00000000
00000000
00001000
00000000
00000000
00010000
00000000
00000000
00000000
00000000
00000000
00000000
01000000
10000000
00000000
,
00100000
00000000
00000000
00010000
00000000
00000000
00001000
00000000
00000000
00000000
00000000
00000000
00000000
00000000
00000000
00000000
,
00000010
00000000
00000000
00001000
00000000
00000000
00010000
00000000
00000000
00000000
00000000
00000000
00100000
00000000
10000000
00000000
,
01000000
00000000
00000000
01000000
00010000
00000000
00001000
00000000
00000000
00000000
00000010
00000000
00000001
00000000
00000100
00000000
,
00002000
00000000
00100000
00000000
00000010
00000000
00013000
00000010
,
00000100
00000000
00000000
00000100
00001000
00000000
00010000
00000000
00000000
00000000
00100000
00000000
10000000
00000000
01000000
00000000
,
00020000
00000000
00000010
00000000
00100000
00000000
00031000
00000100
,
00000001
00000000
00000000
00000010
00000001
00000000
00000100
00000000
00000000
00000000
00001000
00000000
00010000
00000000
00000000
00000000
,
00100000
00000000
00000000
10000000
00000000
00000000
00010000
00000000
00000000
00000000
01000000
00100000
00000000
10000000
00010000
00000000
,
10000000
01000000
00010000
00001000
00000100
00000001
00000010
00000000
,
00000001
00000100
00001000
00010000
01000000
10000000
00100000
00000000
,
01000000
00000000
00001000
00000000
00001000
00000000
00001000
00000000
00010000
00000000
00000000
00011000
00000000
00000000
00100000
00000000
,
10000000
01000000
00010000
00001000
00000100
00000001
00000010
00000000
,
00000100
00000000
00010000
00000000
00010000
00000000
00010000
00000000
00001000
00000000
00000000
00011000
00000000
00000000
00000010
00000000
,
00000001
00000100
00001000
00010000
01000000
10000000
00100000
00000000
,
01000000
00000000
00001000
00000000
00001000
00000000
00001000
00000000
00010000
00000000
00000000
00011000
00000000
00000000
00100000
00000000
,
10000000
01000000
00010000
00001000
00000100
00000001
00000010
00000000
,
00000100
00000000
00010000
00000000
00010000
00000000
00010000
00000000
00001000
00000000
00000000
00011000
00000000
00000000
00000010
00000000
,
00000001
00001000
00000100
00010000
00001000
01000000
00100000
00000000
,
10000000
01000000
00010000
00000000
00001000
00000010
00000000
00000100
,
00001000
00010000
00100000
01000000
00010000
00001000
00000100
00000001
,
00000000
00000100
00001000
00000000
00010000
00100000
00000000
01000000
,
00010000
00001000
00000010
00000100
00001000
00010000
01000000
00000000
,
10000000
00100000
00010000
00000000
00001000
00000100
00000000
00000010
,
00001000
00010000
01000000
00100000
00010000
00001000
00000010
00000001
,
00000100
00000000
00000010
00000000
00001000
00000000
00000100
00000000
00010000
00000000
00000000
00001000
00000000
00000000
00101000
00000000
,
00000000
00010000
01000000
10000000
01000000
00000000
10010000
00000000
,
01000000
00001000
00000000
00000000
00010000
00000000
00001000
00000000
00000100
00000000
00000000
00000001
00000000
00000010
00000100
00000000
,
00010000
00001000
00000010
00001000
00010000
00100000
10000000
01000000
,
00000000
00000000
00010000
00000000
00001000
00000000
00010000
00000000
00100000
00000000
00000000
10000000
00000000
01000000
00100000
00000000
,
00000000
00000000
00001000
00000000
00010000
00000000
00001000
00000000
00000010
00000000
00000000
00000001
00000000
00000000
00000110
00000000
,
00000000
00010000
00000000
00000000
00001000
00000000
00010000
00000000
01000000
00000000
00000000
10000000
00000000
00100000
01000000
00000000
,
00001000
00010000
00100000
00010000
00001000
00000010
00000001
00000100
,
00000000
00000000
00001000
00000000
00010000
00000000
00001000
00000000
00000010
00000000
00000000
00000001
00000000
00000100
00000010
00000000
,
00000000
00010000
00001000
00010000
01000000
10000000
00100000
00000000
,
10010000
00000000
01010000
00000000
00000000
00100000
00001000
00000000
00010000
00000000
00000100
00000000
00000000
00000000
00000110
00000000
,
00000000
00000001
00000010
00000100
00010000
00001000
00100000
01000000
,
10000000
01000000
00010000
00010000
00000000
00011000
00000000
02200000
,
00000000
00000000
03300000
00000000
00010000
00000000
00001000
00000100
00000000
00000100
00000000
00000001
00000010
00000000
00000001
00000000
,
00001001
00000000
00001100
00000000
00000000
00000010
00010000
00000000
00001000
00000000
01000000
00000000
00000000
00000000
01100000
00000000
,
00000000
10000000
00100000
01000000
00001000
00010000
00000010
00000100
,
00000001
00000100
00001000
00001000
00000000
00011000
00000000
00000110
,
00000000
00001000
00010000
01000000
10000000
00010000
00100000
00000000
,
00001000
00000000
00010000
00000000
00010000
00000000
00010000
00000000
00010010
00000000
00000000
00000110
00000000
00000000
00001001
00000000
,
00000000
00000000
00000001
00000000
00000000
00000000
00000100
00000000
00001000
00000000
00000000
00010000
00000000
00010000
00000100
00000000
,
00010000
00000000
00001000
00000000
00001000
00000000
00001000
00000000
00101000
00000000
00000000
01100000
00000000
00000000
10010000
00000000
,
00000000
00000000
00000000
00000000
00000000
00000000
00010000
00100000
00000000
00001000
00000000
00010000
00000100
00000000
00000000
00000000
,
00010000
00000000
00001000
00000000
00001000
00000000
00001000
00000000
00101000
00000000
00000000
01100000
00000000
00000000
10010000
00000000
,
00000000
10000000
01000000
00000000
00000000
00000000
00010000
00000000
00001000
00000000
00000000
00000100
00000000
00000000
00000001
00000000
,
00001000
00000100
00000010
00000100
00010000
00001000
00000010
00001000
,
00010000
01000000
10000000
00100000
01100000
00000000
10010000
00000000
;

//---------------dance-double - ----------------
#NOTEDATA:;
#CHARTNAME:;
#STEPSTYPE:dance-double;
#DESCRIPTION:;
#CHARTSTYLE:Pad;
#DIFFICULTY:Medium;
#METER:6;
#RADARVALUES:0.348470,0.376357,0.153018,0.072008,0.072008,271.000000,254.000000,17.000000,8.000000,0.000000,0.000000,0.000000,0.000000,0.000000,0.348470,0.376357,0.153018,0.072008,0.072008,271.000000,254.000000,17.000000,8.000000,0.000000,0.000000,0.000000,0.000000,0.000000;
#CREDIT:NewbStepper @ zenius-i-vanisher.com;
#NOTES:
00000000
00000000
00000000
00000000
,
00000000
00000000
00000000
00000000
,
00000000
00000000
00000000
00000000
,
00000000
00000000
00000000
00000000
,
00010000
00000000
00000000
00010000
00000000
00000000
00010000
00000000
00000000
00000000
00000000
00000000
00000000
00000000
00000000
00000000
,
00001000
00000000
00000000
00001000
00000000
00000000
00001000
00000000
00000000
00000000
00000000
00000000
00000000
00000000
00000000
00000000
,
00010000
00000000
00000000
00010000
00000000
00000000
00010000
00000000
00000000
00000000
00000000
00000000
00000000
00000000
00000000
00000000
,
00001000
00000000
00000000
00001000
00000000
00000000
00001000
00000000
00000000
00000000
00000000
00000000
00010000
00000000
01000000
00000000
,
10000000
00000000
00010000
00100000
00000000
00001000
00000000
00010000
,
00000100
00000000
00000000
00000010
00000000
00000000
00000001
00000000
00000000
00000000
00001000
00000000
00000100
00000000
00000010
00000000
,
00000001
00000000
00001000
00000010
00000000
00010000
00000000
00001000
,
01000000
00000000
00000000
00100000
00000000
00000000
10000000
00000000
00000000
00000000
00010000
00000000
01000000
00000000
00100000
00000000
,
10000000
00000000
01000000
00010000
00000000
00001000
00000000
00000010
,
00000001
00000100
00001000
00010000
,
00100000
10000000
00100000
10000000
00000000
00010000
01000000
00000000
,
00100000
00011000
00000010
00011000
,
00000100
00000000
00000001
00000000
00001000
00000000
00000010
00000000
00000100
00000000
00000000
00001000
00000000
00000000
00010000
00000000
,
00000000
00011000
00100000
00011000
,
01000000
00000000
10000000
00000000
00010000
00000000
00100000
00000000
01000000
00000000
00000000
00010000
00000000
00000000
00001000
00000000
,
00000000
00011000
00000100
00011000
,
00000010
00000000
00000001
00000000
00001000
00000000
00000100
00000000
00000010
00000000
00000000
00001000
00000000
00000000
00010000
00000000
,
00000000
00011000
01000000
00011000
,
00100000
00000000
10000000
00000000
00010000
00000000
01000000
00000000
00100000
00000000
00000000
00010000
00000000
00000000
00001000
00000000
,
00000000
00000100
00000001
00000100
00000001
00000000
00000010
00000000
,
00000000
00000001
00000100
00000000
00001000
00010000
00000000
01000000
,
10000000
00000000
00010000
00000000
00000000
00000000
00010000
00000000
00100000
00000000
00000000
00100000
00000000
00000000
01000000
00000000
,
00000000
10000000
01000000
00000000
00010000
00001000
00000000
00000100
,
00000020
00001000
00000001
00001030
,
00000000
00000001
00000010
00000000
00001000
00010000
00000000
00100000
,
10000000
00000000
00010000
00000000
00000000
00000000
00010000
00000000
01000000
00000000
00000000
01000000
00000000
00000000
00100000
00000000
,
10000000
01000000
00010000
00001000
,
00000000
00000100
00000001
00000100
00000001
00000000
00000010
00000000
,
00001001
00000000
00000001
00000100
00000010
00000000
00010000
00001000
,
00000000
00100000
00000000
00010000
10000000
01000000
00100000
00000000
,
10010000
00000000
10000000
01000000
00100000
00000000
00001000
00000000
,
00010000
00000000
00000010
00000100
00000001
00000000
00001000
00000001
,
00000000
00000000
00000001
00000100
00001000
00000000
00010000
01000000
,
00000000
00100000
00010000
10000000
01000000
00100000
00001000
00010000
,
00000020
00000000
00000000
00000000
00000000
00000000
00001000
00001030
,
00000000
00000001
00000010
00000100
00001000
00000000
00000010
00000000
,
00010000
00001000
00000000
00010000
00000000
01000000
00000000
20020000
,
00000000
00000000
00000000
30030000
00000000
00100000
00000000
00001000
,
00000000
00010000
00000100
00000010
00000000
00000100
00000000
00002002
,
00000000
00000000
00000000
00003003
00000000
00000100
00000000
00010000
,
00000000
00001000
00010000
01000000
00000000
00100000
00000000
20020000
,
00000000
00000000
00000000
30030000
00000000
01000000
00000000
00001000
,
00000000
00010000
00000010
00000100
00000000
00000010
00000000
00001001
,
00000000
00000001
00000010
00000100
00010000
00000000
00011000
00000000
,
00100000
00000000
10000000
00000000
10000000
00000000
10000000
00000000
01000000
00000000
00000000
00010000
00000000
00000000
00001000
00000000
,
00000000
00000010
00000000
00000001
00001000
00000000
00001001
00000000
,
00000010
00000000
00000001
00000000
00000001
00000000
00000001
00000000
00000100
00000000
00000000
00001000
00000000
00000000
00010000
00000000
,
00000000
00000000
00000000
01100000
00000000
00010000
10000000
01000000
,
00000000
00000000
00010000
00000000
00010000
00000000
00010000
00000000
00001000
00000000
00000000
00001000
00000000
00000000
00000100
00000000
,
00000000
00000000
00000001
00000000
00000000
00000000
00000010
00000000
00000100
00000000
00000000
00010000
00000000
00000000
00001000
00000000
,
00100000
00000000
00010000
01000000
00100000
00000000
10000000
01000000
,
00100000
00000000
00001000
00010000
00000010
00000000
00000010
00000000
;

//---------------dance-double - ----------------
#NOTEDATA:;
#CHARTNAME:;
#STEPSTYPE:dance-double;
#DESCRIPTION:;
#CHARTSTYLE:Pad;
#DIFFICULTY:Easy;
#METER:4;
#RADARVALUES:0.216025,0.250905,0.036004,0.252030,0.000000,168.000000,164.000000,4.000000,28.000000,0.000000,0.000000,0.000000,0.000000,0.000000,0.216025,0.250905,0.036004,0.252030,0.000000,168.000000,164.000000,4.000000,28.000000,0.000000,0.000000,0.000000,0.000000,0.000000;
#CREDIT:NewbStepper @ zenius-i-vanisher.com;
#NOTES:
00000000
00000000
00000000
00000000
,
00000000
00000000
00000000
00000000
,
00000000
00000000
00000000
00000000
,
00000000
00000000
00000000
00000000
,
00000002
00000000
00001003
00000000
,
00002000
00000000
00003100
00000000
,
00000200
00000000
00010300
00000000
,
00020000
00000000
00030000
00000000
,
00001000
00100000
01000000
10000000
,
00200000
00000000
00000000
00300000
,
00010000
00000010
00000100
00000001
,
00000020
00000000
00000000
00000030
,
00001000
01000000
00100000
10000000
,
02000000
00000000
00000000
03000000
,
00010000
00001000
00000100
00000001
,
00000010
00000001
00001000
00000100
,
00020000
00000000
00100000
00100000
,
00130000
10000000
00010000
01000000
,
00002000
00000000
00000100
00000100
,
00003100
00000001
00000010
00001000
,
00020000
00000000
01000000
01000000
,
01030000
10000000
00100000
00010000
,
00002000
00000000
00000010
00000010
,
00003010
00000001
00001000
00000100
,
00010000
00002000
00000000
00003000
00200000
00000000
00300000
00020000
,
00000000
00030000
10000000
00000000
01000000
00000000
00100000
00000000
,
00001000
00020000
00000000
00030000
00000020
00000000
00000030
00002000
,
00000000
00003000
00000001
00000000
00000100
00000000
00000010
00000000
,
00010000
00002000
00000000
00003000
02000000
00000000
03000000
00020000
,
00000000
00030000
10000000
00000000
10000000
00000000
01000000
00000000
,
01000000
00010000
00010000
00001000
,
00001000
00000010
00000001
00001000
,
00001001
00000000
00000010
00000000
,
00010000
00001000
00010000
00100000
,
10010000
00000000
01000000
00000000
,
00010000
00001000
00010000
00000100
,
00001001
00000000
00000100
00000000
,
00010000
00001000
00010000
01000000
,
20020000
00000000
00000000
30030000
,
00100000
00001000
00010000
00000100
,
00000000
00000010
00000000
00000001
00000000
00000010
00000000
00002000
,
00000000
00000000
00000000
00003000
00000000
00010000
00000000
00010000
,
00000000
00100000
00000000
10000000
00000000
00100000
00000000
00020000
,
00000000
00000000
00000000
00030000
00000000
00001000
00000000
00001000
,
00000000
00000100
00000000
00000001
00000000
00000100
00000000
00002000
,
00000000
00000000
00000000
00003000
00000000
00010000
00000000
00010000
,
00000000
01000000
00000000
10000000
00000000
01000000
00000000
00010000
,
00000000
00001000
00000010
00000100
,
00020000
00000000
00100000
00100000
,
00130000
10000000
00010000
01000000
,
00002000
00000000
00000100
00000100
,
00003100
00000001
00000010
00001000
,
00020000
00000000
01000000
01000000
,
01030000
10000000
00100000
10000000
,
00100000
01000000
00010000
00100000
,
00001000
00010000
00000010
00001000
;

//---------------dance-double - ----------------
#NOTEDATA:;
#CHARTNAME:;
#STEPSTYPE:dance-double;
#DESCRIPTION:;
#CHARTSTYLE:Pad;
#DIFFICULTY:Challenge;
#METER:9;
#RADARVALUES:0.552922,0.752714,0.270032,0.054006,0.558066,430.000000,400.000000,30.000000,6.000000,0.000000,0.000000,0.000000,0.000000,0.000000,0.552922,0.752714,0.270032,0.054006,0.558066,430.000000,400.000000,30.000000,6.000000,0.000000,0.000000,0.000000,0.000000,0.000000;
#CREDIT:NewbStepper @ zenius-i-vanisher.com;
#NOTES:
// measure 0
00000000
00000000
00000000
00000000
,  // measure 1
00000000
00000000
00000000
00000000
,  // measure 2
00000000
00000000
00000000
00000000
,  // measure 3
00000000
00000000
00000000
00000000
,  // measure 4
10000000
00000000
00000000
00100000
00000000
00000000
00010000
00000000
00000000
00000000
00000000
00000000
00000000
00001000
00000100
00000000
,  // measure 5
00000001
00000000
00000000
00000010
00000000
00000000
00001000
00000000
00000000
00000000
00000000
00000000
00000000
00000000
00100000
00010000
,  // measure 6
10000000
00000000
00000000
01000000
00000000
00000000
00010000
00000000
00000000
00000000
00000000
00000000
00000000
00000000
00001000
00000000
,  // measure 7
00000100
00000000
00000000
00000001
00000000
00000000
00001000
00000000
00000000
00000000
00000000
00000000
00000100
00010000
00000000
00000100
,  // measure 8
00010000
00000000
00001000
00100000
00010000
00000000
01000000
00000000
10000000
00000000
01000000
00000000
00010000
00000000
00100000
00000000
,  // measure 9
01000000
00000000
00000000
10000000
00100000
00000000
01000000
00000000
00001000
00000000
00010000
00000000
00000100
00000000
00000010
00000000
,  // measure 10
00001000
00000000
00010000
00000010
00001000
00000000
00000100
00000000
00000001
00000000
00000100
00000000
00001000
00000000
00000010
00000000
,  // measure 11
00000100
00000000
00000000
00000001
00000010
00000000
00000100
00000000
00010000
00000000
00001000
00000000
01000000
00000000
00100000
00000000
,  // measure 12
10000000
00000000
01000000
00100000
01000000
00000000
00010000
00000000
00000000
00000000
00001000
00000000
00000100
00000000
00000001
00000000
,  // measure 13
00000010
00000000
00000000
00000010
00001000
00000000
00010000
00000000
00000000
00000000
00100000
10000000
00000000
00010000
10000000
00000000
,  // measure 14
01000000
00100000
01000000
00010000
00001000
00000010
00000100
00001000
,  // measure 15
00000100
00000000
00010000
00000000
00001000
00000000
00000100
00000000
00000001
00000010
00000100
00001000
00000001
00000100
00000010
00001000
,  // measure 16
00000100
00000000
00010000
00000000
00010000
00000000
00010000
00000000
00011000
00000000
00000000
00001000
01000000
00000000
00100000
00000000
,  // measure 17
00000000
00000000
00000000
00000000
00000000
00000000
10000000
00000000
00010000
00000000
10000000
01000000
00000000
01000000
00100000
00000000
,  // measure 18
00000000
00000000
00001000
00000000
00001000
00000000
00001000
00000000
00011000
00000000
00000000
00010000
00000100
00000000
00000010
00000000
,  // measure 19
00000000
00000000
00000000
00000000
00000000
00000000
00000001
00000000
00000001
00000000
00000000
00000010
00000000
00000000
00001000
00000000
,  // measure 20
00000000
00000000
00010000
00000000
00010000
00000000
00010000
00000000
00011000
00000000
00000000
00001000
00100000
00000000
01000000
00000000
,  // measure 21
00000000
00000000
00000000
00000000
00000000
00000000
10000000
00000000
00010000
00000000
10000000
00100000
00000000
00100000
01000000
00000000
,  // measure 22
00000000
00000000
00001000
00000000
00001000
00000000
00001000
00000000
00011000
00000000
00000000
00010000
00000010
00000000
00000100
00000000
,  // measure 23
00000001
00000010
00000100
00001000
00000010
00000100
00000010
00010000
00001000
00000000
00000000
00000000
00011000
00000000
00000000
00000000
,  // measure 24
00000000
00000000
00100000
00000000
10000000
00000000
01000000
00000000
00010000
00000000
00000000
00001000
00000100
00000000
00000110
00000000
,  // measure 25
00000000
00000000
00011000
00000000
00000000
00000000
00100000
00000000
01000000
00000000
00010000
00100000
00000000
00001000
00010000
00000010
,  // measure 26
00000000
00000000
00000100
00000000
00000001
00000000
00000010
00000000
00001000
00000000
00000000
00010000
00100000
00000000
10100000
00000000
,  // measure 27
00000000
00000000
00000000
00000000
00000000
00000000
10000000
01000000
00000000
00010000
00001000
00000000
00000100
00000001
00000000
00000000
,  // measure 28
00000000
00000000
00000010
00000000
00000001
00000000
00000100
00000000
00001000
00000000
00000000
00010000
01000000
00000000
01100000
00000000
,  // measure 29
00000000
00000000
00011000
00000000
00000000
00000000
00000010
00000000
00000100
00000000
00001000
00000010
00000000
00010000
00001000
00100000
,  // measure 30
00000000
00010000
01000000
00000000
10000000
00000000
01000000
00000000
00010000
00000000
00100000
00001000
00000000
00001000
00010000
00000000
,  // measure 31
00000000
00000000
00001000
00000000
00000100
00000000
00000001
00000000
00000010
00000001
00001000
00000010
00000100
00000001
00000010
00000100
,  // measure 32
00001000
00000100
00000000
00000100
00010000
00000000
00001000
00000000
00000010
00001000
00000000
00010000
00000000
01000000
00100000
00000000
,  // measure 33
00000000
00000000
00010000
00100000
00000000
00010000
00000000
10000000
01000000
00000000
00010000
00001000
00000000
00010000
00000000
00000100
,  // measure 34
00000000
00000010
00000001
00000000
00000100
00000000
00001000
00000000
00000100
00000010
00000000
00000010
00000000
00010000
00001000
00000000
,  // measure 35
00000000
00000000
00000000
00000000
00100000
00000000
00010000
01000000
00000000
10000000
00000000
01000000
00000000
00010000
00100000
00000000
,  // measure 36
00010000
01000000
00000000
01000000
00001000
00000000
00010000
00000000
00100000
00010000
00000000
00001000
00000000
00000100
00000010
00000000
,  // measure 37
00000000
00000000
00001000
00000010
00000000
00001000
00000000
00000001
00000100
00000000
00001000
00010000
00000000
00001000
00000000
01000000
,  // measure 38
00000000
00100000
10000000
01000000
00000000
00010000
00000000
00001000
00000000
00100000
00000000
00001000
00000000
00010000
00000010
00000000
,  // measure 39
00000000
00001000
00000100
00000000
00000001
00000000
00000100
00000000
00010000
00001000
00000000
00000010
00000000
00001000
00010000
00001000
,  // measure 40
00000100
00000000
00000110
00000000
00000000
00000000
00000010
00010000
00000000
00000000
00011000
00000000
00000000
00000000
02200000
00000000
,  // measure 41
00000000
03300000
00010000
10000000
01000000
00010000
00001000
00100000
,  // measure 42
00000000
01010000
00001000
00001000
00000000
00010010
00000000
00000220
,  // measure 43
00000000
00000000
00000330
00000000
00000000
00000000
00000001
00000010
00000000
00001000
00010000
00000000
00100000
10000000
00000000
00000000
,  // measure 44
01000000
00000000
01100000
00000000
00000000
00000000
00100000
00001000
00000000
00000000
00011000
00000000
00000000
00000000
00000220
00000000
,  // measure 45
00000000
00000330
00001000
00000001
00000100
00001000
00010000
00000010
,  // measure 46
00000000
00001100
00010000
00010000
00000000
00101000
00000000
01100000
,  // measure 47
00000000
10000000
01000000
00010000
00001000
00000100
00000001
00000000
,  // measure 48
00001000
00000000
00000001
00000000
00000001
00000000
00000001
00000000
00000110
00000000
00000000
00000010
00001000
00000000
00001001
00000000
,  // measure 49
00000000
00000000
00000110
00000000
00000000
00000000
00000100
00000000
00001000
00000000
00010000
01000000
00000000
01000000
00100000
00000000
,  // measure 50
00000000
00010000
10000000
00000000
10000000
00000000
10000000
00000000
01100000
00000000
00000000
00100000
00010000
00000000
10010000
00000000
,  // measure 51
00000000
00000000
00000000
00000000
00000000
00000000
01000000
00010000
00000000
00100000
00001000
00000000
00010000
00000010
00001000
00000000
,  // measure 52
00000000
00001000
00000001
00000000
00000001
00000000
00000001
00000000
00000110
00000000
00000000
00000100
00001000
00000000
00001001
00000000
,  // measure 53
00000000
00000001
00000010
00000000
00001000
00000000
00010000
00000000
01000000
00000000
10000000
00100000
00000000
00100000
01000000
00000000
,  // measure 54
00001000
00010000
00001000
00010000
00000010
00010000
00000010
00010000
00000010
00000100
00000010
00000100
00000001
00000100
00000001
00000100
,  // measure 55
00000010
00010000
00000010
00010000
00001000
01000000
00001000
01000000
00100000
00000000
00000000
00000000
10010000
00000000
00000000
00000000
;
